osu file format v6

[General]
AudioFilename: 7.mp3
AudioLeadIn: 496
PreviewTime: 29012
Countdown: 1
SampleSet: Normal
StackLeniency: 0.7
Mode: 0
LetterboxInBreaks: 1

[Editor]
DistanceSpacing: 1
BeatDivisor: 4
GridSize: 8

[Metadata]
Title:V3
Artist:Beautiful Day
Creator:ignorethis
Version:Hard
Source:O2Jam
Tags:O2Jam V3 Beautiful Day osu_cn_yaya

[Difficulty]
HPDrainRate:2
CircleSize:5
OverallDifficulty:7
SliderMultiplier:1.5
SliderTickRate:0.5

[Events]
//Background and Video events
0,0,"20050228134819v3.jpg"
//Break Periods
2,27120,29021
//Storyboard Layer 0 (Background)
//Storyboard Layer 1 (Fail)
//Storyboard Layer 2 (Pass)
//Storyboard Layer 3 (Foreground)
//Storyboard Sound Samples
//Background Colour Transformations
3,100,0,0,0

[TimingPoints]
2913,375.117224132541,4,2,0,100,1,0
29921,-100,4,1,0,100,0,0
104944,-100,4,2,0,100,0,0
116948,-100,4,1,0,100,0,0

[Colours]
Combo1 : 255,0,128
Combo2 : 5,240,5
Combo3 : 5,5,240
Combo4 : 240,5,5
Combo5 : 255,150,0

[HitObjects]
256,40,2912,1,0
216,336,4225,1,0
288,336,4413,1,0
208,56,5726,1,0
280,56,5913,1,0
40,344,6851,1,0
104,304,7039,1,0
176,328,7226,1,0
240,288,7414,6,0,B|344:288,1,75
368,240,7789,2,0,B|472:240,1,75
440,160,8164,2,0,B|360:160,1,75
304,112,8539,2,0,B|224:112,1,75
160,72,8914,5,0
56,184,9289,1,2
176,272,9665,1,0
272,160,10040,1,2
416,120,10415,2,0,B|496:168|456:264,1,150,0|2
312,216,11165,2,0,B|208:224|264:344,1,150,0|2
104,312,11915,5,0
248,272,12290,1,2
104,224,12666,1,0
248,192,13041,1,2
104,144,13416,2,0,B|152:72,1,75
192,24,13791,2,0,B|280:72,1,75
312,112,14166,2,0,B|400:112,1,75
464,112,14541,2,0,B|488:160|464:200,1,75
464,256,14916,6,0,B|312:256,1,150,4|0
192,168,15666,2,0,B|360:168,2,150,2|0|0
120,200,16604,1,0
104,272,16792,1,0
152,328,16979,1,0
176,256,17167,1,2
232,304,17355,1,0
256,232,17542,1,0
200,176,17730,1,0
272,160,17917,6,0,B|352:104|424:152,3,150,0|0|2|0
376,208,19230,1,0
424,264,19418,2,0,B|360:344|288:296,2,150,0|0|2
312,160,20543,1,0
248,120,20731,1,0
184,80,20918,6,0,B|112:128|120:232,1,150
264,184,21668,1,2
328,304,22043,2,0,B|400:256|392:152,2,150,0|0|2
264,256,22981,2,0,B|320:200|320:96,2,150,0|0|2
256,192,24013,12,4,26920
256,192,29921,5,4
312,144,30108,1,0
344,160,30202,1,0
376,176,30296,1,0
440,208,30484,1,0
376,248,30671,2,0,B|328:296|264:296,2,112.5
440,208,31421,1,4
440,128,31609,5,0
440,88,31703,1,0
440,48,31797,1,0
368,72,31984,1,0
296,96,32172,2,0,B|240:136|176:96,2,112.5
368,72,32922,1,4
368,144,33109,5,0
368,184,33203,1,0
368,224,33297,1,0
296,256,33485,1,0
296,184,33672,2,0,B|160:184,2,112.5
272,112,34422,6,0,B|440:112,3,150,0|4|4|4
440,144,35641,1,0
448,176,35735,1,0
440,208,35829,1,0
424,240,35923,1,4
352,240,36110,5,0
312,240,36204,1,0
272,240,36298,2,0,B|184:240,1,75
120,240,36673,2,0,B|64:264|64:336,2,112.5
160,176,37423,1,4
232,200,37611,5,0
264,208,37705,1,0
296,200,37798,2,0,B|408:200,1,75
448,200,38174,2,0,B|472:136|424:88,2,112.5
400,256,38924,1,4
344,304,39111,1,0
312,328,39205,1,0
280,304,39299,2,0,B|184:304,1,75
128,304,39674,2,0,B|104:240|152:184,2,112.5
56,288,40424,2,0,B|40:224|88:160,2,112.5
56,288,41174,1,0
120,248,41362,5,0
176,288,41550,1,0
224,232,41737,1,0
160,192,41925,2,0,B|184:120|296:112,1,150,4|0
344,144,42487,1,0
384,80,42675,2,0,B|448:144|424:240,1,150
392,280,43238,1,0
336,224,43425,2,0,B|312:296|224:320,1,150
176,264,43988,1,0
152,232,44082,1,0
128,200,44175,2,0,B|32:200,1,75
128,200,44551,2,0,B|72:120,1,75
128,80,44926,6,0,B|208:80,1,75
272,56,45301,1,0
304,120,45488,1,0
352,64,45676,2,4,B|440:72|472:168,2,150
304,120,46614,1,0
288,152,46707,1,0
272,184,46801,1,4
200,200,46989,1,0
208,232,47083,1,0
216,264,47176,1,0
280,304,47364,1,0
344,264,47551,1,0
400,216,47739,1,0
344,160,47927,6,0,B|360:64|472:72,1,150,4|0
440,144,48489,1,0
440,216,48677,2,0,B|440:304|328:296,1,150
288,240,49239,1,0
240,184,49427,2,0,B|256:112|168:104|192:40,3,150,0|0|0|0
112,64,50740,1,0
56,120,50928,6,0,B|8:184|24:280,1,150,4|0
88,224,51490,1,0
128,160,51678,2,0,B|208:200|168:312,1,150,4|0
248,264,52240,1,0
256,192,52428,2,0,B|416:192,2,150,4|4|4
280,120,53366,1,0
352,144,53553,1,0
344,72,53741,1,0
280,120,53928,6,0,B|128:120,1,150,4|0
80,176,54491,1,0
144,216,54679,2,0,B|200:304|264:208,1,150
312,160,55241,1,0
368,104,55429,2,0,B|432:176|360:256,1,150
336,304,55992,2,0,B|296:352,2,37.5
264,288,56367,1,0
256,216,56554,1,0
184,240,56742,1,0
200,168,56929,6,0,B|232:80,1,75
296,120,57304,2,0,B|384:120,1,75
432,72,57680,2,0,B|464:152|440:224,2,150,4|4|4
360,56,58617,1,0
320,48,58711,1,0
280,40,58805,1,0
224,88,58993,1,0
216,120,59086,1,0
208,160,59180,1,0
264,208,59368,1,0
288,232,59461,1,0
312,256,59555,2,0,B|408:256,1,75
408,184,59930,6,0,B|496:232|448:344,1,150,4|0
384,296,60493,1,0
320,336,60681,2,0,B|160:336,1,150
104,304,61243,1,0
64,240,61431,2,0,B|88:144,1,75
152,152,61806,2,0,B|240:208,1,75
256,128,62181,2,0,B|344:104,1,75
312,184,62556,2,0,B|400:208,1,75
384,280,62931,5,4
392,312,63025,1,0
400,344,63119,1,0
464,312,63306,2,0,B|472:160,1,150,0|4
472,120,63775,1,0
472,80,63869,1,0
400,88,64057,2,0,B|248:152,1,150,0|4
184,136,64619,1,0
136,192,64807,1,4
168,256,64994,1,0
216,200,65182,1,4
240,272,65370,1,0
288,216,65557,1,0
264,144,65745,1,0
336,112,65932,6,0,C|424:112,1,75
464,160,66307,2,0,C|424:232,1,75
432,296,66682,2,0,C|328:320,1,75
368,240,67058,2,0,C|280:232,1,75
304,160,67433,1,0
232,136,67620,1,0
176,184,67808,1,0
144,120,67995,1,0
88,168,68183,1,0
64,240,68370,1,0
104,296,68558,1,0
160,248,68746,1,0
200,312,68933,6,0,C|288:288,1,75
264,216,69308,1,0
264,216,69496,1,0
288,144,69683,2,0,C|368:184,1,75
400,240,70058,1,0
400,240,70246,1,0
456,192,70434,6,0,C|496:112,1,75
432,72,70809,2,0,C|344:40,1,75
288,48,71184,1,0
288,88,71278,1,0
288,128,71371,1,0
288,168,71465,1,0
288,208,71559,1,0
288,248,71653,1,0
288,288,71747,1,0
288,328,71840,1,0
248,328,71934,6,0,C|152:328,1,75,4|0
104,304,72309,1,0
104,304,72497,1,0
104,232,72684,2,0,C|192:232,1,75
240,184,73059,1,0
240,184,73247,1,0
200,120,73435,2,0,C|280:72,1,75
336,80,73810,2,0,C|336:176,1,75
376,216,74185,1,0
432,264,74372,1,0
368,304,74560,1,0
312,256,74747,1,0
240,288,74935,6,0,C|144:296,1,75
96,264,75310,2,0,C|120:168,2,75
48,328,75873,1,0
16,256,76060,1,0
64,200,76248,1,0
24,136,76435,1,0
88,96,76623,1,0
136,152,76811,1,0
176,88,76998,1,0
240,120,77186,1,0
272,56,77373,1,0
320,112,77561,1,0
312,184,77748,1,0
384,184,77936,6,0,C|488:184,2,75,4|0|0
459,184,78499,2,0,C|432:272,2,75,4|0|0
437,255,79061,2,0,C|472:328,2,75,4|0|0
408,184,79624,1,4
392,184,79718,1,0
376,184,79812,1,0
360,184,79905,1,0
344,184,79999,1,0
328,184,80093,1,0
312,184,80187,1,4
296,184,80280,1,0
280,184,80374,1,0
264,184,80468,1,0
248,184,80562,1,4
232,184,80656,1,0
216,184,80749,1,0
200,184,80843,1,0
184,184,80937,6,0,C|88:184,2,75,4|0|0
109,184,81500,2,0,C|56:280,2,75,4|0|0
72,249,82062,2,0,C|104:328,2,75,4|0|0
144,248,82625,1,4
160,248,82719,1,0
176,248,82812,1,0
192,248,82906,1,0
208,248,83000,1,0
224,248,83094,1,0
240,248,83188,1,4
256,248,83281,1,0
272,248,83375,1,0
288,248,83469,1,0
304,248,83563,1,4
320,248,83656,1,0
336,248,83750,1,0
352,248,83844,1,0
368,248,83938,6,0,C|456:248,1,75,4|0
440,168,84313,2,0,C|336:168,1,75,0|0
368,88,84688,1,0
296,80,84876,1,0
224,104,85063,1,0
152,88,85251,1,0
96,136,85438,2,0,C|40:232,1,75
128,224,85813,2,0,C|152:312,1,75
224,288,86189,1,0
288,248,86376,1,0
328,312,86564,1,0
376,256,86751,1,0
344,184,86939,5,4
400,136,87126,1,0
400,136,87314,1,0
336,96,87501,1,4
272,136,87689,1,0
272,136,87877,1,0
208,96,88064,1,4
176,168,88252,1,0
176,168,88439,1,0
200,240,88627,2,0,C|208:320,2,75,4|0|0
272,240,89189,1,4
296,312,89377,1,0
272,240,89565,1,4
296,312,89752,1,0
344,256,89940,6,0,C|432:232,1,75,4|0
416,236,90315,1,0
416,160,90502,2,0,C|328:136,1,75,4|0
343,140,90877,1,0
280,96,91065,2,0,C|200:120,1,75,4|0
208,117,91440,1,0
144,160,91628,2,0,C|128:248,1,75,4|0
130,233,92003,1,0
200,232,92190,2,0,C|280:272,1,75,4|0
264,192,92566,2,0,C|344:200,1,75,4|0
312,128,92941,6,0,B|488:128,1,150,4|0
456,56,93503,1,0
376,56,93691,2,0,B|360:152|408:208,1,150
472,168,94254,1,0
464,240,94441,2,0,B|456:328|352:336,1,150
376,256,95004,2,0,B|216:256,1,150
152,264,95566,1,0
176,192,95754,1,0
104,208,95942,6,0,B|88:120|200:72,1,150
224,144,96504,2,0,B|384:144,1,150
448,136,97067,2,0,B|456:232,1,75
464,288,97442,2,0,B|408:352|304:320,1,150
336,248,98005,2,0,B|240:224|176:296,1,150
128,304,98567,1,0
56,272,98755,1,0
120,232,98943,6,0,B|128:144|232:136,1,150
208,208,99505,2,0,B|120:168|136:64,1,150
208,88,100068,1,0
272,120,100255,1,0
272,40,100443,2,0,B|424:40,1,150
464,96,101006,2,0,B|448:176|392:232,1,150
336,184,101568,1,0
312,112,101756,1,0
256,168,101943,6,0,B|168:168,1,75
104,144,102319,1,0
96,216,102506,2,0,B|96:336|200:320,1,150
200,248,103069,1,0
280,248,103256,1,0
360,248,103444,2,0,B|432:272,1,75
440,192,103819,1,0
408,120,104007,2,0,B|320:96|248:136,1,150
192,168,104569,1,0
136,120,104757,1,0
120,192,104944,5,4
72,248,105132,1,0
120,304,105320,1,0
176,256,105507,1,0
224,312,105695,2,0,B|312:352|432:320|464:184,1,300
416,136,106632,5,0
344,152,106820,1,0
280,112,107008,1,0
208,96,107195,2,0,B|112:96|56:192|128:352,1,300
192,344,108133,5,0
248,296,108320,1,0
224,224,108508,1,0
216,152,108696,2,0,B|344:48|520:144,1,300
488,216,109633,5,0
432,272,109821,1,0
360,264,110008,1,0
328,192,110196,2,0,B|320:48|320:48|192:32|192:32|160:56,1,300
128,112,111134,5,0
96,184,111321,1,0
176,184,111509,1,0
184,256,111696,1,2
256,240,111884,1,0
304,296,112072,1,0
368,264,112259,1,0
408,320,112447,6,0,B|480:264,1,75
488,200,112822,2,0,B|408:176,1,75
392,104,113197,1,2
328,64,113385,1,0
296,88,113478,1,0
272,112,113572,1,0
208,72,113760,1,0
136,88,113947,6,0,B|40:88,1,75
56,160,114322,2,0,B|152:160,1,75
192,200,114697,1,2
192,240,114791,1,0
200,272,114885,1,0
232,288,114979,1,0
272,296,115073,1,0
288,224,115260,1,0
304,152,115448,6,0,B|400:152,1,75
448,176,115823,2,0,B|448:232|416:264,1,75
392,312,116198,1,2
352,320,116292,1,0
312,328,116385,1,0
272,320,116479,1,0
232,304,116573,1,0
168,264,116761,1,0
152,336,116948,6,0,B|64:336|16:224,1,150,4|0
88,200,117511,2,0,B|248:200,1,150
304,232,118073,2,0,B|296:288|248:312,1,75
344,320,118449,2,0,B|392:264|376:160,1,150
448,192,119011,2,0,B|448:88|384:48,1,150
336,104,119574,2,0,B|296:48|256:56,1,75
200,64,119949,5,0
136,96,120137,1,0
136,96,120230,1,0
136,96,120324,1,0
72,136,120512,1,0
72,208,120699,1,0
136,248,120887,1,0
136,248,120981,1,0
136,248,121074,1,0
200,280,121262,1,0
200,200,121450,2,0,B|360:200,1,150
320,128,122012,2,0,B|272:48|168:80,1,150
120,104,122575,1,0
48,136,122762,1,0
104,176,122950,6,0,B|104:344,1,150
176,320,123513,2,0,B|240:288|264:168,1,150
328,224,124075,2,0,B|320:280|280:312,1,75
376,304,124450,2,0,B|424:232|392:136,1,150
328,144,125013,2,0,B|160:144,1,150
112,184,125576,2,0,B|112:240|152:272,1,75
208,248,125951,6,0,B|280:280,1,75
296,208,126326,1,0
352,256,126514,1,0
376,184,126701,2,0,B|336:104,1,75
408,88,127076,1,0
464,136,127264,1,0
472,216,127451,6,0,B|472:264,2,37.5,4|0|0
416,264,127827,1,0
360,312,128014,1,0
296,264,128202,2,0,B|296:216,2,37.5,4|0|0
232,312,128577,1,0
168,264,128764,1,0
256,192,128952,12,4,131578
256,192,131953,12,4,133266
256,192,133641,5,0
288,120,133828,1,0
360,144,134016,1,0
416,96,134204,6,0,B|464:168|448:272,1,150,4|0
376,232,134766,1,0
312,192,134954,2,0,B|272:288|184:288,1,150
152,232,135516,1,0
112,296,135704,2,0,B|32:240|48:136,1,150
72,96,136267,2,0,B|96:40,2,37.5
144,128,136642,1,0
192,184,136829,1,0
240,120,137017,1,0
296,72,137204,6,0,B|376:56,1,75
344,128,137580,2,0,B|424:168,1,75
352,208,137955,2,4,B|376:296|488:272,2,150
280,216,138892,1,0
208,192,139080,1,0
192,120,139268,1,0
232,56,139455,1,0
304,48,139643,1,0
376,56,139830,1,0
440,88,140018,1,0
472,152,140205,6,0,B|464:256|360:264,1,150
336,312,140768,1,0
304,240,140956,2,0,B|216:232|192:344,2,150
280,168,141893,1,0
344,128,142081,1,0
288,80,142269,1,0
224,120,142456,1,0
216,192,142644,1,0
272,240,142831,1,0
344,208,143019,1,0
392,264,143206,6,0,B|424:304,2,37.5,4|0|0
344,208,143581,1,0
272,240,143769,1,0
216,192,143957,2,0,B|160:216,2,37.5,4|0|0
224,120,144332,1,0
296,88,144519,1,0
352,136,144707,2,4,B|432:128|488:208,2,150,4|4|4
296,88,145645,1,0
224,112,145832,1,0
152,96,146020,1,0
88,136,146207,6,0,B|32:200|40:288,1,150,4|0
104,240,146770,1,0
160,192,146958,2,0,B|256:176|312:272,1,150
256,312,147520,1,0
208,248,147708,2,0,B|208:144|328:144,1,150
368,144,148270,1,0
408,136,148364,1,0
448,128,148458,1,0
456,200,148646,1,0
472,272,148833,1,0
440,336,149021,1,0
376,296,149208,2,0,B|288:296,1,75
312,224,149583,2,0,B|216:224,1,75
264,152,149958,2,4,B|88:152,2,150
272,80,150896,6,0,B|280:32,2,37.5
344,112,151271,2,0,B|384:72,2,37.5
392,168,151646,2,0,B|432:152,2,37.5
400,240,152022,1,0
392,312,152209,6,0,B|224:312,1,150
232,240,152772,2,0,B|128:264|120:360,1,150
64,288,153335,1,0
104,224,153522,1,0
160,176,153710,2,0,B|240:144|328:192,1,150
376,184,154272,2,0,B|400:96|496:112,1,150
472,184,154835,1,0
464,256,155023,1,0
456,328,155210,6,0,B|400:328,2,37.5,4|0|0
464,256,155585,1,0
472,184,155773,1,0
480,112,155960,2,0,B|480:72,2,37.5,4|0|0
400,112,156335,1,0
320,112,156523,1,0
240,112,156711,2,0,B|112:112|88:184,2,150
280,176,157648,5,0
352,176,157836,2,0,B|432:176,2,75
336,248,158399,2,0,B|416:280,2,75
288,304,158961,2,0,B|328:376,2,75
216,328,159524,1,0
144,296,159711,1,0
256,192,160087,6,0,B|256:32,1,150
320,72,160649,2,0,B|304:128|176:144,1,150
120,128,161212,1,0
56,160,161400,1,0
48,232,161587,1,0
120,232,161775,1,0
152,296,161962,1,0
216,264,162150,1,0
280,304,162337,1,0
288,232,162525,1,0
352,192,162712,5,4
256,72,163088,1,0
256,112,163181,1,0
256,152,163275,1,0
256,192,163369,1,0
256,232,163463,2,0,B|336:296|280:376,1,150,4|0
144,312,164213,5,4
24,224,164588,1,0
120,104,164963,1,4
256,168,165338,1,0
392,104,165713,1,4
440,160,165901,1,0
488,224,166088,1,4
432,272,166276,1,0
368,312,166464,1,4
296,280,166651,1,0
248,224,166839,1,4
176,208,167026,1,0
104,240,167214,5,4
80,208,167308,1,0
80,168,167401,1,0
96,128,167495,1,0
128,104,167589,1,0
160,88,167683,1,0
200,88,167777,1,0
232,104,167870,1,0
256,128,167964,1,0
280,104,168058,1,0
312,88,168152,1,0
352,88,168245,1,0
384,104,168339,1,0
416,128,168433,1,0
432,168,168527,1,0
432,208,168621,1,0
408,240,168714,1,0
256,192,168808,12,4,170965
