osu file format v6

[General]
AudioFilename: 7.mp3
AudioLeadIn: 496
PreviewTime: 28677
Countdown: 1
SampleSet: Normal
StackLeniency: 0.7
Mode: 0
LetterboxInBreaks: 1

[Editor]
Bookmarks: 38069,116093,171328
DistanceSpacing: 1
BeatDivisor: 4
GridSize: 8

[Metadata]
Title:V3
Artist:Beautiful Day
Creator:ignorethis
Version:Easy
Source:O2Jam
Tags:O2Jam V3 Beautiful Day osu_cn_yaya

[Difficulty]
HPDrainRate:0
CircleSize:3
OverallDifficulty:0
SliderMultiplier:0.7
SliderTickRate:0.5

[Events]
//Background and Video events
0,0,"20050228134819v3.jpg"
//Break Periods
2,78135,82137
//Storyboard Layer 0 (Background)
//Storyboard Layer 1 (Fail)
//Storyboard Layer 2 (Pass)
//Storyboard Layer 3 (Foreground)
//Storyboard Sound Samples
//Background Colour Transformations
3,100,0,0,0

[TimingPoints]
2913,375.112593703147,4,1,0,100,1,0

[Colours]
Combo1 : 255,0,128
Combo2 : 5,240,5
Combo3 : 5,5,240
Combo4 : 240,5,5
Combo5 : 255,150,0

[HitObjects]
72,80,41924,1,0
224,80,42674,1,0
376,80,43425,1,0
448,216,44175,1,0
368,216,44550,1,0
288,216,44925,5,0
200,344,45675,1,0
112,216,46426,2,4,B|192:88,1,140
336,104,47926,5,0
432,224,48676,1,0
360,256,49051,1,0
288,224,49426,1,0
152,152,50177,1,0
88,104,50552,1,0
24,152,50927,1,4
128,248,51677,1,4
288,256,52427,1,4
360,232,52802,1,4
432,256,53178,1,4
432,176,53553,5,4
360,144,53928,2,4,B|288:112|216:128,2,140
360,72,55803,1,0
304,24,56178,2,0,B|232:24,2,70
376,48,57304,1,0
424,104,57679,1,4
424,176,58054,1,4
424,248,58429,6,4,B|368:280|280:248,2,140
432,168,60305,1,0
432,88,60680,2,0,B|392:56|352:80,1,70
288,72,61430,2,0,B|216:88|144:72,2,140
352,208,63681,1,0
208,272,64431,1,0
128,272,64806,1,0
128,192,65181,1,0
128,112,65556,1,0
48,112,65931,6,0,B|48:40|168:48,3,140
304,64,68932,2,0,B|352:64|432:136,2,140
233,64,70808,1,0
171,94,71183,1,0
141,158,71558,1,0
160,225,71933,6,0,B|208:281|296:273,3,140
432,272,74934,2,0,B|472:200|440:128,2,140
368,224,76810,1,0
312,176,77185,1,0
264,128,77560,1,0
216,80,77935,1,0
256,192,83937,6,0,B|144:192|40:80|144:56,1,245
168,64,85437,2,0,B|240:64|312:104|336:184|328:232,1,245
328,256,86938,2,0,B|376:304|432:288,2,105
208,256,88626,1,0
104,200,89188,1,0
104,128,89564,1,0
176,128,89939,6,0,B|216:96|280:96,4,105
176,200,92564,1,0
176,272,92940,5,4
