osu file format v5

[General]
AudioFilename: Beautiful Day - V3.mp3
AudioLeadIn: 0
PreviewTime: -1
Countdown: 1
SampleSet: Normal
StackLeniency: 0.7
Mode: 1

[Metadata]
Title:V3
Artist:Beautiful Day
Creator:flyboy87
Version:Oni
Source:
Tags:

[Difficulty]
HPDrainRate:5
CircleSize:5
OverallDifficulty:5
SliderMultiplier:1.3
SliderTickRate:4

[Events]
//Background and Video events
//Break Periods
//Storyboard Layer 0 (Background)
//Storyboard Layer 1 (Failing)
//Storyboard Layer 2 (Passing)
//Storyboard Layer 3 (Foreground)
//Storyboard Sound Samples
//Background Colour Transformations
3,100,163,162,255

[TimingPoints]
0,750,4,1,0,100
29364,375,4,1,0,100

[HitObjects]
240,112,2906,1,0
112,240,4218,1,0
328,120,4406,5,2
208,168,5625,1,2
336,208,5859,1,2
160,120,6843,5,0
416,104,7031,5,2
240,240,7218,1,2
96,240,7406,5,0
296,136,7593,1,0
360,200,7781,5,2
216,112,7968,1,2
32,40,8156,5,0
128,64,8343,1,0
216,48,8531,1,0
288,312,8718,1,0
416,88,8906,5,2
416,184,9281,1,2
144,160,9656,5,0
216,200,10031,5,2
64,280,10406,1,2
368,72,10781,5,0
280,72,11156,1,0
288,176,11531,5,2
200,200,11906,1,2
376,96,12281,5,0
400,152,12656,1,0
144,64,13031,5,2
336,224,13405,5,0
136,144,13593,1,0
288,232,13780,5,2
216,160,14156,5,0
256,80,14344,1,0
392,128,14531,1,0
112,296,14719,1,0
248,272,14906,1,0
112,80,15656,1,0
320,168,16031,5,2
120,224,16406,5,0
208,224,16593,5,2
328,280,16781,5,0
200,368,16968,1,0
112,88,17156,5,2
272,96,17343,1,2
344,168,17531,5,0
448,184,17718,1,0
392,224,17906,5,2
248,112,18937,1,2
384,112,19124,5,0
248,224,19312,5,2
104,216,19781,5,0
256,264,20156,5,2
280,80,20531,1,2
248,216,20718,5,0
424,168,20906,1,0
120,240,21656,1,0
280,104,22031,5,2
384,96,22406,5,0
312,184,23250,5,2
288,96,23906,5,0
136,216,24093,1,0
256,240,24281,5,2
376,120,24468,1,2
136,216,24656,1,2
88,88,24843,5,0
216,96,25031,1,0
192,232,25218,1,0
344,48,25406,5,2
368,320,25593,1,2
384,256,25781,5,0
264,264,25968,1,0
400,152,26156,5,2
280,160,26343,1,2
80,168,26531,5,0
168,224,26718,1,0
248,112,26906,5,2
200,112,28500,1,2
248,144,29926,5,0
280,280,30020,1,0
168,248,30114,1,0
64,160,30395,1,0
336,152,30676,1,0
160,72,30957,1,0
440,224,31239,5,2
248,144,31614,5,0
280,280,31708,1,0
168,248,31802,1,0
56,264,31895,1,0
64,160,32083,1,0
336,152,32364,1,0
160,72,32645,5,2
296,96,33114,5,0
344,96,33207,1,0
352,216,33301,1,0
208,248,33582,1,0
8,232,33864,1,0
128,184,34145,1,0
288,152,34332,5,2
280,64,34614,1,2
336,280,34895,1,2
328,64,35176,5,0
88,160,35457,5,2
136,200,35551,1,2
136,200,35644,1,2
272,144,35739,5,0
256,192,35832,1,0
120,48,36020,1,0
160,96,36113,1,0
232,64,36207,5,2
232,352,36395,5,0
304,264,36676,1,0
376,272,36957,1,0
392,160,37239,5,2
176,224,37520,5,0
296,144,37614,1,0
296,144,37707,1,0
288,80,37895,5,2
136,80,38176,1,2
216,168,38457,1,2
440,136,38739,5,0
112,248,39114,1,0
168,288,39207,1,0
240,304,39301,1,0
312,104,39582,5,2
248,72,39864,1,2
104,112,40145,1,2
272,328,40426,5,0
248,208,40707,1,0
136,200,40989,1,0
432,128,41176,5,2
232,104,41364,5,0
352,96,41552,1,0
152,80,41739,1,0
16,128,41927,5,2
248,240,42489,5,0
400,240,42676,1,0
168,144,43239,1,0
416,120,43426,5,2
288,184,43989,1,2
264,224,44082,1,2
192,256,44176,1,2
296,80,44364,5,0
136,64,44552,1,0
64,112,44645,1,0
80,216,44739,1,0
96,280,44926,1,0
384,128,45114,5,2
472,80,45207,1,2
384,216,45301,1,2
328,256,45489,1,2
224,136,45676,1,6
192,256,46051,1,6
264,224,46426,1,6
128,120,47551,5,0
224,120,47739,1,0
368,88,47926,5,2
312,208,48676,5,0
88,152,49051,1,0
144,176,49239,1,0
176,208,49426,1,0
344,88,50176,5,2
304,160,50551,5,0
368,232,50739,1,0
304,240,50926,1,4
64,160,51301,1,0
128,176,51489,1,0
168,208,51676,1,4
224,128,52051,1,0
384,104,52239,1,0
320,208,52426,1,4
392,232,52801,1,4
200,272,53176,1,4
104,120,53364,1,0
176,80,53551,1,0
224,120,53739,5,2
160,184,53926,1,2
344,136,54489,1,2
272,280,54676,1,2
424,200,55239,1,2
304,80,55426,5,0
144,168,55989,1,0
200,160,56082,1,0
240,224,56176,1,0
240,336,56364,1,0
184,112,56551,1,0
440,176,56645,1,0
416,296,56739,1,0
320,168,56926,5,2
432,40,57114,1,2
352,80,57301,1,2
72,288,57489,1,2
168,216,57676,1,6
328,288,58051,5,4
440,152,58426,1,4
256,144,59551,5,2
200,160,59739,1,2
136,192,59926,1,2
296,272,60676,1,2
344,104,61051,5,0
376,184,61238,1,0
296,184,61426,1,0
456,112,62176,5,2
104,136,62551,5,0
256,320,62645,1,0
216,152,62738,1,0
160,192,62926,5,6
168,56,63301,5,0
336,248,63395,1,0
272,88,63489,1,0
424,216,63676,5,6
232,296,64051,5,0
280,224,64145,1,0
112,296,64238,1,0
360,96,64425,5,6
296,152,64800,1,6
200,160,65175,1,6
256,216,65364,5,0
336,248,65457,1,0
224,264,65551,1,0
56,192,65739,1,0
96,264,65832,1,0
88,144,65926,1,0
304,96,66114,1,0
144,64,66301,5,2
200,80,66489,1,2
384,216,66676,5,0
432,312,66770,1,0
288,184,66864,1,0
448,104,67051,5,2
416,168,67145,1,2
464,200,67239,1,2
160,216,67426,1,2
232,256,67614,1,2
304,280,67801,1,2
248,96,67989,5,0
320,344,68082,1,0
192,104,68176,1,0
104,152,68364,1,0
192,152,68551,1,0
360,168,68645,1,0
408,72,68739,5,2
112,320,68926,5,0
200,328,69114,1,0
288,336,69301,1,0
296,232,69489,1,0
200,80,69676,1,0
272,112,69864,1,0
448,208,70051,5,2
400,88,70239,1,2
168,216,70426,5,0
320,208,70520,1,0
96,160,70614,1,0
72,120,70801,1,0
304,168,70895,1,0
120,120,70989,1,0
320,288,71176,1,4
200,88,71926,5,2
296,96,72020,5,0
344,136,72114,1,0
200,184,72301,5,2
256,216,72395,5,0
168,264,72489,1,0
416,80,72676,5,2
408,152,72770,1,2
392,224,72864,1,2
56,168,73051,5,0
96,216,73239,1,0
144,88,73426,1,0
216,120,73520,1,0
264,136,73614,1,0
232,280,73801,1,0
280,288,73895,1,0
360,88,73989,5,2
376,296,74176,5,0
320,184,74270,5,2
208,208,74364,1,2
432,160,74551,1,2
448,112,74645,1,2
472,56,74739,5,0
144,88,74926,5,2
224,64,75020,5,0
320,184,75114,1,0
16,200,75301,1,0
88,224,75395,1,0
144,256,75489,1,0
408,64,75676,5,2
376,96,75770,1,2
336,120,75864,1,2
320,216,76051,5,0
296,240,76145,1,0
264,256,76239,1,0
224,160,76332,1,0
408,232,76426,1,0
120,144,76614,1,0
240,104,76802,5,2
128,272,76989,5,0
184,304,77177,1,0
432,80,77364,5,2
352,136,77552,1,2
360,312,77739,1,0
96,200,77927,5,0
168,192,78020,1,0
216,224,78114,1,0
272,72,78301,5,2
192,64,78395,1,2
136,72,78489,1,2
360,232,78676,5,0
304,264,78770,1,0
304,264,78864,1,0
440,136,79051,5,2
400,144,79145,1,2
400,144,79239,1,2
176,208,79614,5,0
120,144,80176,5,6
232,112,80551,1,6
344,192,80926,1,2
336,72,81020,1,2
296,152,81114,1,2
264,272,81395,5,0
208,280,81489,1,0
152,272,81583,1,0
80,152,81864,5,2
160,144,81957,1,2
160,144,82051,1,2
440,104,82332,5,0
376,176,82426,1,0
344,232,82520,1,0
312,96,82614,5,2
272,88,82707,1,2
200,88,82801,1,2
288,208,82895,5,0
192,288,82989,1,0
304,296,83082,1,0
360,296,83176,1,0
128,216,83270,5,2
80,224,83364,1,2
216,192,83457,1,2
16,192,83551,1,2
136,96,83645,1,2
72,96,83739,1,2
432,112,83926,1,2
424,184,84114,1,2
352,104,84301,5,0
296,104,84489,1,0
400,328,84582,1,0
232,104,84676,1,0
288,208,84864,5,2
232,224,85051,1,2
144,232,85239,5,0
200,304,85426,1,0
264,312,85614,1,0
448,168,85801,5,2
424,64,85895,1,2
392,208,85989,1,2
328,112,86176,5,0
216,144,86364,1,0
320,248,86551,1,0
408,320,86739,1,0
232,232,86926,1,4
424,200,87489,1,4
376,88,88051,5,6
232,248,88614,1,6
336,176,88989,1,2
424,216,89176,1,2
448,104,89551,1,6
248,120,89926,5,4
192,264,90489,5,6
104,112,91051,1,6
400,280,91614,1,6
376,144,92176,5,4
312,120,92551,5,6
144,216,92926,5,0
208,224,93020,1,0
264,256,93114,1,0
496,80,93207,5,2
120,88,93301,5,2
160,104,93395,1,0
200,128,93489,1,0
376,184,93582,5,2
336,56,93676,5,0
264,48,93770,1,0
168,72,93864,1,0
464,168,93957,5,2
424,232,94051,5,0
344,296,94145,1,0
280,320,94239,1,0
376,184,94332,5,2
272,176,94426,5,0
144,272,94520,1,0
232,240,94614,1,0
112,176,94707,5,2
432,96,94801,5,0
432,96,94895,1,0
432,96,94989,1,0
352,120,95082,5,2
224,120,95176,5,0
224,120,95270,1,0
224,120,95364,1,0
384,216,95457,5,2
168,296,95551,1,2
176,32,95645,1,2
352,312,95739,5,0
400,312,95832,1,0
456,192,95926,5,2
360,184,96020,1,2
248,312,96864,5,0
392,120,97426,5,2
264,160,98176,1,2
264,312,98551,1,2
144,192,98926,1,2
456,128,99676,5,0
256,144,100426,5,2
280,224,101176,1,2
72,96,101926,6,0,B|456:192|32:272,1,422.5
224,232,103426,5,2
304,88,103614,5,0
368,160,103707,1,0
424,96,103801,1,0
224,160,103895,5,2
104,168,103989,1,2
136,208,104082,1,2
392,288,104176,5,0
216,312,104270,1,0
168,296,104364,1,0
488,192,104457,5,2
312,200,104551,1,2
400,152,104926,1,6
376,72,105114,5,0
280,72,105207,1,0
160,56,105301,5,2
224,160,105395,5,0
48,144,105489,1,0
264,264,105582,5,2
192,232,105676,1,2
488,104,105770,5,0
360,304,105864,5,2
352,232,105957,1,2
112,168,106051,5,0
72,208,106145,1,0
136,248,106239,1,0
320,184,106332,5,2
504,184,106426,5,0
424,184,106520,1,0
184,120,106614,1,0
408,104,106707,5,2
256,224,106801,1,2
336,104,106895,5,0
272,80,106989,1,0
400,24,107082,5,2
296,24,107176,1,2
144,88,107270,1,2
248,320,107364,5,0
352,328,107457,1,0
424,328,107551,1,0
224,264,107645,5,2
248,152,108114,5,0
448,96,108301,5,2
304,88,108489,1,2
360,224,108676,5,0
432,216,108770,1,0
104,128,108864,1,0
296,288,109051,5,2
192,224,109239,1,2
256,192,109614,5,0
160,80,109801,1,0
264,96,109989,1,0
448,120,110176,5,2
336,112,110364,1,2
352,256,110551,1,2
352,168,110739,5,0
288,232,110926,1,0
160,240,111020,1,0
112,192,111114,1,0
216,152,111301,5,2
144,112,111489,1,2
136,376,111676,5,0
136,376,111770,1,0
240,296,111864,1,0
432,64,112051,5,2
352,80,112239,1,2
376,168,112426,5,0
376,168,112520,1,0
376,168,112614,1,0
272,152,112801,5,2
184,96,112989,1,2
136,376,113176,5,0
136,376,113270,1,0
240,296,113364,1,0
432,64,113551,5,2
352,80,113739,1,2
376,168,113926,5,0
376,168,114020,1,0
376,168,114114,1,0
272,152,114301,5,2
184,96,114489,1,2
384,240,114676,1,0
200,288,114864,1,0
208,160,115051,5,0
120,184,115239,1,0
280,72,115426,5,2
184,96,115614,1,2
448,88,115801,5,0
424,120,115989,1,0
432,184,116176,5,2
344,56,116270,1,2
336,312,116364,1,2
152,256,116551,5,0
208,280,116739,1,0
272,176,116926,5,2
48,120,117020,6,0,B|408:304,1,390
304,120,118614,1,0
120,224,118707,1,0
224,152,118801,1,0
224,152,118989,1,0
424,216,119176,5,2
352,88,119270,1,2
192,296,119364,1,2
480,112,119551,5,0
312,256,119739,1,0
472,56,119832,1,0
192,200,119926,1,0
192,304,121051,1,0
384,136,121426,5,2
312,160,122739,5,0
440,112,122926,5,2
224,128,123301,1,2
368,144,125082,5,0
240,168,125364,1,0
320,264,125645,1,0
320,72,125926,5,2
152,128,126301,1,2
256,192,126864,12,2,131551
248,200,131926,5,4
192,96,133614,1,0
232,120,133801,1,0
176,184,133989,1,0
64,224,134176,2,0,B|208:224,1,130
392,120,134739,5,2
352,192,134926,1,2
304,216,135114,5,0
232,232,135301,1,0
384,272,135489,1,0
264,136,135676,5,2
328,104,136239,5,0
144,112,136332,1,0
144,112,136426,1,0
200,256,136614,1,0
296,216,136801,1,0
424,96,136989,5,2
328,304,137082,1,2
392,200,137176,1,2
184,64,137364,1,2
240,208,137551,5,0
288,104,137739,5,2
80,208,137926,1,6
64,96,138301,1,6
344,184,138676,1,6
224,112,139801,5,0
80,144,139989,1,0
40,200,140176,2,0,B|155:199|248:208,1,195
368,136,140926,1,0
168,304,141301,5,2
248,288,141489,1,2
88,136,141676,2,0,B|264:144|296:160,1,195
416,112,142426,1,2
208,160,142801,5,0
400,200,142895,1,0
320,184,142988,1,0
376,56,143176,5,6
216,264,143551,5,0
344,264,143645,1,0
168,216,143739,1,0
432,280,143926,5,6
344,136,144301,5,0
296,216,144395,1,0
424,176,144488,1,0
320,72,144676,5,6
232,88,145051,5,4
152,64,145426,1,4
120,224,145614,5,2
240,256,145801,1,2
312,240,145989,1,2
176,96,146176,1,2
432,104,146739,5,0
272,120,146926,5,2
168,208,147489,1,2
328,288,147676,5,0
80,88,148239,5,2
136,80,148332,1,2
192,104,148426,1,2
248,120,148614,1,2
376,152,148801,5,0
264,168,148895,1,0
192,208,148989,1,0
136,192,149176,1,0
248,304,149364,1,0
360,296,149457,1,0
400,248,149551,1,0
440,80,149739,5,2
208,80,149926,1,6
304,128,150301,1,6
160,152,150676,1,6
288,128,151801,5,0
400,136,151989,5,2
64,128,152176,6,0,B|264:160,1,195
408,344,152926,1,0
288,120,153301,5,2
184,184,153488,1,2
240,64,153676,6,0,B|384:224,1,195
112,64,154426,1,0
296,216,154801,1,0
432,104,154989,5,2
152,160,155176,1,2
344,104,155552,1,2
376,232,155739,1,2
304,248,155927,1,2
256,120,156301,5,0
208,304,156395,1,0
376,72,156489,1,0
152,160,156676,1,0
448,176,157051,5,6
304,240,157426,5,0
320,200,157801,5,6
112,200,158364,5,0
416,280,158457,1,0
152,160,158551,5,2
208,128,158739,5,0
376,112,158832,5,2
248,128,158926,1,0
224,304,159114,5,0
48,96,159207,1,0
320,232,159301,5,2
344,184,159489,5,2
248,176,159582,1,0
280,88,159676,5,2
472,192,160051,5,4
424,40,160801,5,6
208,168,161364,1,2
208,240,161457,1,2
320,192,161551,5,0
328,152,161739,5,2
336,272,161832,1,2
384,192,161926,5,0
360,96,162114,5,2
104,264,162207,1,2
392,144,162301,5,0
416,72,162489,5,2
64,152,162582,1,2
280,64,162676,5,0
208,152,163051,1,0
168,168,163145,1,0
240,288,163239,1,0
408,224,163426,1,0
408,192,163801,1,4
440,104,164176,5,6
256,144,164551,5,4
368,112,164926,5,6
168,80,165301,5,4
384,280,165676,5,2
264,192,165770,1,2
200,216,165864,1,2
288,56,166051,5,0
208,128,166145,1,0
208,128,166239,1,0
416,136,166426,1,0
368,144,166520,1,0
368,144,166614,1,0
432,56,166801,5,2
384,64,166895,1,2
344,104,166989,1,2
200,224,167176,1,2
288,216,167270,1,2
360,256,167364,1,2
128,80,167551,1,2
72,224,167645,5,0
112,256,167739,1,0
224,144,167832,5,2
208,96,167926,1,2
352,224,168020,5,0
256,296,168114,1,0
392,152,168207,5,2
368,168,168301,1,2
328,304,168395,1,2
360,72,168489,5,0
360,72,168582,1,0
360,72,168676,1,0
360,72,168770,1,0
256,192,168864,12,0,170551
264,136,170926,1,4
