osu file format v5

[General]
AudioFilename: Beautiful Day - Milk Chocolate.mp3
AudioLeadIn: 2000
PreviewTime: -1
Countdown: 0
SampleSet: Normal
StackLeniency: 0.7
Mode: 0
LetterboxInBreaks: 1

[Metadata]
Title:Milk Chocolate
Artist:Beautiful Day
Creator:James
Version:Hard
Source:O2jam
Tags:o2jam

[Difficulty]
HPDrainRate:5
CircleSize:4
OverallDifficulty:7
SliderMultiplier:1.6
SliderTickRate:1

[Events]
//Background and Video events
0,0,"milk.JPG"
//Break Periods
//Storyboard Layer 0 (Background)
//Storyboard Layer 1 (Failing)
//Storyboard Layer 2 (Passing)
//Storyboard Layer 3 (Foreground)
//Storyboard Sound Samples
//Background Colour Transformations
3,100,255,128,255

[TimingPoints]
1031,483.866700000001,4,2,0,100,1
10708,483.870967741935,4,1,0,100,0
164456,483.866700000001,4,2,0,100,0

[Colours]
Combo1 : 255,255,255
Combo2 : 40,236,13
Combo3 : 255,128,255
Combo4 : 240,5,5

[HitObjects]
160,112,1031,2,0,B|336:112,1,160,2|0
360,184,1756,2,0,B|168:184,1,160,0|2
184,344,2966,2,0,B|368:344,1,160,2|0
344,344,3692,1,0
256,192,4901,1,0
256,192,6837,1,2
480,192,8772,5,0
368,192,9256,1,2
256,192,9740,1,2
144,192,10224,1,2
32,192,10708,5,0
72,264,10950,2,0,B|216:264,1,120
304,224,11676,1,0
208,152,12038,1,0
304,88,12401,2,0,B|128:72,1,160
152,168,13248,2,0,B|296:184,1,120
328,232,13853,1,0
328,232,13974,2,0,B|216:312,1,120
168,344,14579,5,0
168,344,14700,1,0
168,344,14942,1,0
56,200,15305,1,0
56,200,15547,1,0
56,200,15667,1,0
56,200,15909,1,0
224,128,16272,1,0
224,128,16514,2,0,B|352:112,2,120
224,208,17482,2,0,B|88:200,2,120
224,208,18450,5,0
296,240,18692,2,0,B|416:160,1,120
328,72,19417,2,0,B|200:160,1,120
160,184,20022,2,0,B|160:240,2,40
48,336,20627,1,0
192,336,20990,1,0
336,336,21353,1,0
480,336,21716,1,0
480,336,21958,2,0,B|408:336,2,40
336,224,22563,6,0,B|168:224,1,160
200,144,23288,2,0,B|352:144,2,120
40,40,24498,1,0
256,40,24861,1,0
464,40,25224,1,0
256,192,25708,1,0
152,296,26192,5,4
152,88,26675,1,8
360,88,27159,1,0
360,296,27643,1,8
480,192,28127,1,0
256,192,28611,1,8
32,192,29095,5,0
96,264,29337,1,0
176,208,29579,1,8
256,264,29821,1,0
328,320,30063,1,0
152,320,30546,5,8
32,192,31030,1,0
136,48,31514,1,8
312,32,31998,1,0
424,168,32482,5,8
424,168,32724,1,0
424,168,32966,1,0
424,168,33087,2,0,B|384:296,1,120,8|8
328,224,33692,2,0,B|304:312,1,80
152,336,34417,5,8
32,184,34901,1,0
168,48,35385,1,8
168,48,35627,1,0
168,48,35869,1,0
352,112,36353,1,8
192,224,36837,1,0
344,336,37321,1,8
344,336,37562,1,0
344,336,37804,2,0,B|392:176|216:212|100:243|59:120|208:8,1,480,4|4
376,72,39740,5,0
376,72,39861,1,0
376,72,39982,1,0
376,72,40103,1,0
376,72,40224,1,8
432,144,40466,1,0
432,144,40587,1,0
352,200,40829,1,8
416,264,41070,1,0
416,264,41191,1,8
336,320,41433,1,8
336,320,41675,6,0,C|252:321|192:264,1,160,4|8
144,184,42401,1,0
184,96,42643,1,0
280,88,42885,1,0
376,104,43127,1,8
464,136,43369,1,0
424,216,43611,2,0,C|333:219|280:288,1,160,0|8
240,352,44337,2,0,C|162:320|112:224,1,160
96,160,45062,1,8
72,72,45304,5,0
72,72,45546,2,0,C|156:80|208:152,1,160,0|8
240,224,46272,1,0
192,304,46514,1,0
112,248,46756,1,0
152,160,46998,1,8
240,200,47240,1,0
304,128,47482,1,0
376,192,47724,1,0
328,280,47966,1,8
240,248,48208,1,0
112,112,48570,5,8
112,112,48691,1,0
208,112,48933,1,8
304,112,49175,1,0
256,192,49417,1,0
200,272,49659,1,0
296,272,49901,1,8
392,272,50143,1,0
400,80,50627,5,0
304,80,50869,1,8
208,80,51111,1,0
112,80,51353,1,0
40,256,51837,1,8
40,256,52078,1,0
216,336,52562,1,0
272,256,52804,1,8
248,160,53046,1,0
280,72,53288,2,4,B|181:124|153:212|220:298|328:328,1,320
440,192,54740,5,8
312,96,55224,1,0
312,96,55345,1,0
312,96,55466,1,0
312,96,55586,1,0
312,96,55707,1,8
224,144,55949,1,0
224,144,56070,1,0
272,224,56312,1,8
184,272,56554,1,0
184,272,56675,1,8
96,224,56917,1,8
112,128,57159,5,0
176,192,57401,1,0
264,160,57643,1,8
288,248,57885,1,0
104,312,58369,1,0
88,216,58611,1,8
72,120,58853,1,0
256,56,59336,5,0
328,120,59578,1,8
232,144,59820,1,0
208,232,60062,1,0
304,208,60304,1,0
272,296,60546,1,8
368,280,60788,1,0
400,192,61030,2,0,C|216:192,1,160,4|8
144,192,61756,2,0,C|176:272|352:280,1,240,0|12
464,144,62965,5,0
304,32,63449,1,8
128,112,63933,5,0
80,192,64175,1,0
136,264,64417,1,8
192,184,64659,1,0
256,112,64901,1,0
312,184,65143,1,0
264,264,65385,1,8
192,192,65627,1,0
376,248,66111,5,0
456,192,66353,1,8
416,104,66594,2,0,B|256:114|248:280,1,240,0|8
344,248,67562,2,0,C|295:326|200:328,1,160
128,328,68288,1,8
32,328,68530,1,0
32,328,68772,1,0
192,48,69256,1,8
192,48,69498,2,0,B|364:137|224:202|88:264|272:368,1,400,0|4
448,192,71191,1,4
64,192,71675,1,4
256,32,72159,1,4
472,224,72885,5,0
328,224,73248,1,0
184,224,73611,1,0
40,224,73973,1,0
120,48,74820,5,0
240,120,75183,2,0,B|152:240,1,120
168,216,75667,1,0
248,264,75909,2,8,B|336:152,1,120
400,216,76514,2,0,B|280:368,1,160,0|8
208,320,77240,2,0,B|306:244|106:193|240:112,1,240,0|8
400,24,78449,5,0
480,192,78933,1,8
344,328,79417,1,0
344,328,79538,2,0,B|208:328,1,120,8|8
136,288,80143,1,0
200,216,80385,1,0
288,256,80627,6,0,B|376:160,1,120
480,72,81352,2,0,B|480:128,3,40
240,352,82562,2,0,B|168:224,1,120
120,112,83288,2,0,B|176:72,3,40
256,344,84498,5,0
408,248,84860,1,0
352,72,85223,1,0
168,72,85586,1,0
104,248,85949,1,0
256,344,86433,5,0
256,104,86917,1,0
256,104,87159,1,0
312,232,87522,2,0,B|152:232,1,120
192,232,88127,5,0
40,112,88610,1,0
208,24,89094,1,0
248,112,89336,1,0
288,200,89578,1,0
328,288,89820,1,0
392,216,90062,5,4
392,216,90183,1,0
392,216,90304,1,0
296,216,90546,1,8
200,216,90788,1,0
104,216,91030,2,0,B|208:128,2,120,0|8|8
112,312,91997,5,0
112,312,92118,1,0
200,352,92360,2,0,B|320:264,1,120,8|0
376,224,92965,1,0
376,224,93086,1,0
296,168,93328,2,0,B|160:168,1,120,8|8
104,232,93933,5,0
104,232,94054,1,0
192,272,94296,2,0,B|296:184,1,120,8|0
272,96,94901,1,0
272,96,95022,1,0
192,152,95264,2,0,B|192:296,1,120,8|8
272,320,95868,5,0
272,320,95989,1,0
360,296,96231,2,0,B|440:168,1,120,8|0
384,104,96836,1,0
384,104,96957,1,8
384,104,97078,1,0
304,48,97320,2,8,B|208:48,1,80
136,96,97804,6,0,B|88:200,1,80
192,184,98288,2,0,B|248:280,1,80,8|0
312,304,98772,2,0,B|456:304,2,120,0|8|8
216,272,99739,1,0
288,208,99981,1,0
208,152,100223,1,8
272,80,100465,1,0
184,32,100707,2,0,B|40:32,2,120,0|8|8
128,112,101675,5,0
176,192,101917,1,0
248,128,102159,2,0,B|360:120,1,80,8|0
400,184,102643,2,0,B|400:304,1,80
312,296,103126,1,8
304,200,103368,1,0
256,16,103852,5,0
152,184,104215,1,0
48,336,104578,5,0
256,360,105062,1,0
424,264,105546,1,4
360,192,105788,1,0
296,120,106030,1,8
232,48,106272,1,0
64,144,106755,5,0
176,304,107239,1,0
224,120,107723,1,0
312,88,107965,1,8
392,136,108207,1,0
424,224,108449,1,0
384,312,108691,1,0
296,344,108933,1,8
208,304,109175,1,0
176,208,109417,2,0,B|344:208,1,160,4|8
408,144,110142,2,0,B|312:107|263:139|247:298|208:324|64:280,1,400
32,96,111836,5,8
208,32,112320,6,0,B|312:32,1,80
352,104,112804,2,0,B|448:128,1,80,8|0
376,200,113288,2,0,B|376:304,1,80
288,320,113771,1,8
224,248,114013,2,0,B|56:232,1,160
40,136,114739,1,8
112,72,114981,2,0,B|296:56,1,160
336,128,115707,1,8
256,184,115949,2,0,B|360:336,1,160
432,272,116675,1,8
400,184,116917,1,0
456,104,117159,1,0
56,224,117642,1,8
56,224,117884,2,0,C|112:128|248:136,1,240,0|8
424,160,119094,5,0
424,160,119215,1,0
424,160,119336,1,0
424,160,119457,1,0
424,160,119578,1,8
336,192,119820,1,0
336,192,119941,1,0
336,288,120183,2,8,C|200:288,1,120
120,288,120788,5,8
48,224,121029,2,0,C|96:128,1,80,4|0
176,152,121513,1,8
136,64,121755,1,0
232,56,121997,2,0,C|272:216,1,160,0|8
296,304,122723,2,0,B|262:212|294:141|384:96,1,240,0|8
373,101,123691,1,0
448,280,124175,5,0
352,280,124417,1,8
264,320,124658,2,0,B|200:240,1,80
240,160,125142,1,0
144,176,125384,2,0,B|144:272,1,80,8|0
208,328,125868,1,0
272,256,126110,1,0
216,176,126352,1,8
272,96,126594,2,0,B|384:168|376:320,1,240,0|8
377,300,127562,5,0
64,144,128046,1,0
448,144,128529,1,0
136,304,129013,1,0
256,40,129497,1,0
256,192,129981,5,0
256,192,130465,12,8,132158
64,192,132642,5,0
160,192,132884,1,0
256,192,133126,1,8
352,192,133368,1,0
448,192,133610,2,0,C|379:242|368:320,1,160,0|8
369,314,134336,1,0
176,312,134820,1,0
256,264,135062,1,0
256,264,135183,2,8,C|256:128,1,120
256,144,136513,5,0
80,312,138207,1,0
80,312,138449,5,0
256,40,140384,1,0
440,328,142078,1,0
440,328,142320,5,0
264,256,142803,1,8
376,104,143287,1,0
376,104,143408,1,8
376,104,143529,1,0
280,104,143771,1,8
184,104,144013,1,8
88,104,144255,5,0
192,320,144739,1,8
416,240,145223,1,0
304,24,145707,1,8
256,184,146191,2,0,B|256:232,11,40,0|0|0|0|8|0|0|0|0|0|0|0
224,216,147642,2,0,B|224:176,8,20,8|0|0|0|0|0|0|0|0
128,208,148368,5,0
88,120,148610,1,8
88,120,148731,1,0
144,40,148973,1,0
144,40,149094,1,0
224,96,149336,1,0
224,96,149457,1,8
168,176,149699,1,0
174,207,149820,1,8
178,238,149940,1,0
184,269,150061,1,0
200,360,150303,5,0
288,320,150545,1,8
288,320,150666,1,0
312,224,150908,1,0
312,224,151029,1,0
256,144,151271,1,0
256,144,151392,1,8
160,128,151634,1,0
160,128,151755,1,8
160,128,151876,1,0
160,128,151997,5,0
160,128,152118,1,0
240,176,152360,2,0,C|136:288,1,120,8|0
232,320,152965,1,0
232,320,153086,1,0
232,320,153328,2,0,C|360:320,1,120,8|8
392,232,153932,5,0
272,152,154295,1,8
160,240,154658,1,8
224,296,154900,1,0
304,176,155263,1,8
184,88,155626,1,0
104,128,155868,5,4
96,224,156110,1,0
144,304,156352,1,8
144,304,156473,1,0
144,304,156715,1,0
144,304,156836,1,0
144,304,157078,1,0
144,304,157198,1,8
224,256,157440,1,0
224,224,157561,1,8
224,192,157682,1,0
224,160,157803,1,0
288,88,158045,5,0
432,104,158408,1,8
328,200,158771,1,0
464,248,159134,1,8
344,328,159497,1,0
344,328,159618,1,8
344,328,159739,1,0
256,304,159981,2,0,C|288:200,1,80,0|8
216,168,160465,1,0
184,80,160707,2,0,C|320:80,2,120,0|8|0
256,192,161674,12,0,163610
256,192,164456,5,2
