osu file format v7

[General]
AudioFilename: Beautiful Day - Bride in Dream.mp3
AudioLeadIn: 0
PreviewTime: -1
Countdown: 0
SampleSet: Soft
StackLeniency: 0.7
Mode: 0
LetterboxInBreaks: 1
EpilepsyWarning: 1

[Editor]
DistanceSpacing: 1.29999995231628
BeatDivisor: 4
GridSize: 8

[Metadata]
Title:Bride in Dream
Artist:Beautiful Day
Creator:Ultimate
Version:Normal
Source:
Tags:bride dream o2jam o2mania o2

[Difficulty]
HPDrainRate:4
CircleSize:4
OverallDifficulty:4
SliderMultiplier:1.2
SliderTickRate:2

[Events]
//Background and Video events
0,0,"BeautifulDay-Brideindream.jpg"
//Break Periods
2,44453,45261
2,112988,113537
//Storyboard Layer 0 (Background)
//Storyboard Layer 1 (Fail)
//Storyboard Layer 2 (Pass)
//Storyboard Layer 3 (Foreground)
//Storyboard Sound Samples
//Background Colour Transformations
3,100,163,162,255

[TimingPoints]
1064,517.241379310345,4,2,1,100,1,0
27829,-100,4,1,1,70,0,0
44245,-100,4,2,1,100,0,0
52398,-100,4,1,1,70,0,0
52915,-100,4,2,1,100,0,0
63397,-100,4,1,1,70,0,0
95199,-100,4,2,1,100,0,0
100366,-100,4,2,1,0,0,0
100883,-100,4,2,1,35,0,0
101400,-100,4,2,1,60,0,0
101918,-100,4,2,1,80,0,0
104259,-100,4,2,1,100,0,0
114725,-100,4,2,1,70,0,0
130366,-100,4,2,1,100,0,0
131277,-100,4,1,1,70,0,0
147829,-200,4,2,1,100,0,0
148217,-200,4,2,1,100,0,0
148475,-200,4,2,1,86,0,0
148734,-200,4,2,1,70,0,0
148993,-200,4,2,1,55,0,0
149251,-200,4,2,1,40,0,0
149510,-200,4,2,1,25,0,0
149768,-200,4,2,1,20,0,0

[Colours]
Combo1 : 163,228,222
Combo2 : 252,218,154
Combo3 : 153,56,233
Combo4 : 222,240,4

[HitObjects]
256,192,9339,2,0,B|336:192,1,60
288,120,9857,2,0,B|216:120,1,60,2|0
200,48,10374,2,0,B|272:48,1,60
336,48,10891,2,0,B|424:48,1,60,2|0
472,48,11408,5,0
384,176,11926,1,2
472,304,12443,1,0
312,304,12960,1,2
216,176,13477,1,0
312,48,13995,1,2
152,48,14512,1,0
64,176,15029,1,2
200,240,15546,6,0,B|256:208,2,60,0|0|2
240,88,16581,2,0,B|312:120,2,60,0|0|2
384,40,17615,2,0,B|416:64|400:112,1,60
448,160,18132,2,0,B|440:200|384:200,1,60,2|0
368,272,18650,2,0,B|328:280|304:240,1,60
296,176,19167,2,2,B|264:152|232:176,2,60,2|2|6
176,72,20201,6,2,B|232:72,1,30
112,136,20719,1,0
176,280,21236,2,2,B|176:232,1,30
80,312,21753,1,0
232,344,22270,2,2,B|272:336,1,30
232,224,22788,1,0
96,144,23305,2,2,B|144:160,1,30
200,64,23822,6,2,B|240:64,6,30
120,64,24857,2,2,B|88:64,6,30
120,144,25891,5,4
168,288,26408,1,4
272,176,26926,1,4
376,288,27443,2,8,B|456:288,1,60
464,216,27960,6,0,B|448:120|344:72|264:104,1,240
216,56,29253,2,2,B|160:88,1,60
88,72,29770,2,0,B|32:176|88:288|216:296,1,300
248,232,31322,2,2,B|312:264,1,60
336,184,31839,2,0,B|328:104|432:56|528:144|448:256,1,300
376,256,33391,1,2
376,256,33650,1,2
320,312,33908,2,0,B|176:312,1,120
144,256,34684,1,0
144,256,34943,1,0
96,192,35201,2,0,B|72:112|128:56,2,120
200,128,36624,5,0
200,128,37012,2,0,B|248:88|336:120|328:208,2,180,2|2|0
200,128,38822,1,8
56,64,39339,2,0,B|32:200|112:288|192:336,1,300,2|2
170,322,40891,1,8
304,248,41408,2,0,B|392:264|424:184,2,120,0|0|4
176,152,42960,2,0,B|184:80|272:64,1,120
224,224,43995,1,8
224,224,44253,1,8
224,192,46581,6,0,B|296:192,5,60,4|0|0|0|0|0
176,80,48391,2,8,B|120:136,1,60,8|12
56,120,48908,2,0,B|16:208|56:288|168:304,1,240
224,320,50201,2,0,B|280:336,2,30,8|0|8
200,240,50719,6,0,B|288:224|344:112|280:40,1,240,4|0
144,112,52270,1,0
72,136,52529,2,4,B|40:200,1,60
88,256,53046,2,0,B|96:328,5,60,0|4|0|4|0|4
240,256,54857,5,2
288,104,55374,1,0
408,200,55891,1,2
464,56,56408,1,0
464,56,56667,2,2,B|384:24|376:152|288:200,1,240
224,152,57960,2,0,B|168:208,1,60
104,176,58477,2,2,B|112:256,1,60
56,296,58995,5,0
208,296,59512,1,0
360,296,60029,1,0
280,160,60546,1,4
280,160,60805,1,4
168,56,61322,2,0,B|112:120,1,60,0|8
280,80,62098,2,0,B|352:88,4,60,2|2|10|10|4
168,192,63650,5,0
296,280,64167,2,0,B|440:224|456:88,1,240,0|2
304,64,65719,2,0,B|320:144|272:184,2,120,2|2|0
224,64,67012,1,4
400,320,68046,2,8,B|384:280|328:280,1,60
280,312,68564,2,8,B|248:328|208:304,1,60
216,232,69081,2,4,B|320:152|256:0|48:0|48:184,1,420
80,312,71408,5,0
232,328,71926,2,0,B|312:296,1,60,2|0
360,320,72443,2,0,B|400:248,1,60,2|0
464,248,72960,2,0,B|456:176,1,60,2|2
384,152,73477,2,0,B|280:64|248:208|152:96,1,240,8|8
96,72,74770,1,8
96,72,75029,1,8
96,72,75288,5,4
104,224,75805,2,0,B|80:248|88:288,7,60,0|0|0|0|0|0|0|6
240,320,78132,5,6
392,280,78650,1,6
240,232,79167,2,8,B|240:192,2,30,8|0|8
304,272,79684,6,0,B|344:248|392:136|352:48,1,240,4|2
280,88,80977,1,0
208,48,81236,1,2
128,64,81495,2,0,B|40:152|72:256,1,180
208,280,82788,2,0,B|272:312,3,60,2|0|2|0
376,200,84081,1,0
280,72,84598,6,0,B|280:184|160:208,1,180,0|2
144,128,85632,2,0,B|64:176|80:256|136:296,1,180,4|0
272,264,86926,2,0,B|280:232|328:208,2,60,2|0|2
424,240,87960,6,0,B|488:176|456:104,1,120,0|8
400,80,88736,1,0
320,56,88995,1,8
288,128,89253,1,0
208,136,89512,1,8
144,88,89770,2,0,B|64:136|80:264,1,180,0|8
128,304,90805,1,0
200,280,91064,1,8
272,256,91322,1,0
240,184,91581,1,8
304,136,91839,6,0,B|384:160|440:280,1,180,0|8
312,320,93132,1,0
312,320,93650,1,8
168,264,94167,2,2,B|144:136|272:56,1,240,2|0
408,112,95719,1,4
432,184,95977,1,4
416,256,96236,5,2
272,192,96753,1,8
128,256,97270,1,0
272,192,97788,1,8
128,128,98305,1,2
272,72,98822,1,8
416,128,99339,1,0
272,72,99857,1,8
128,128,100374,6,2,B|48:208|88:328|264:352|360:256|320:168|256:112|184:192,1,480,2|2
280,64,102960,2,4,B|320:56|344:96,4,60
120,64,104512,5,8
360,256,105546,2,2,B|112:296,1,240
352,96,107615,2,2,B|104:136,1,240,2|10
72,192,108908,5,0
80,264,109167,1,8
128,320,109426,1,0
200,336,109684,1,8
272,312,109943,1,0
312,248,110201,1,8
256,192,110460,12,0,112788
152,80,114857,6,0,B|232:96,1,60
216,168,115374,2,8,B|136:152,1,60
80,168,115891,2,0,B|120:240,1,60
40,264,116408,2,8,B|112:304,1,60
152,344,116926,2,0,B|208:312,1,60
280,312,117443,1,8
280,312,117701,5,8
304,240,117960,2,0,B|368:288,1,60
424,240,118477,2,8,B|360:192,1,60
365,124,118995,2,0,B|301:148,1,60
256,88,119512,1,8
208,144,119770,5,8
136,112,120029,2,0,B|120:176,3,60,0|0|8|8
64,224,121064,2,0,B|104:280,1,60
176,272,121581,1,8
176,272,121839,1,8
240,232,122098,2,0,B|288:288,1,60
328,216,122615,2,8,B|376:272,1,60
432,296,123132,6,0,B|504:184|440:40,1,240,0|8
376,40,124426,1,0
344,112,124684,1,8
272,136,124943,2,0,B|184:144|136:88|128:32,1,180,0|8
64,88,125977,2,0,B|40:152,3,60,0|8|0|8
96,200,127012,6,0,B|224:240|224:344,1,180,0|8
296,328,128046,2,0,B|288:360,2,30,0|0|8
360,280,128564,1,0
336,208,128822,1,8
408,176,129081,1,8
368,112,129339,2,2,B|312:32|192:56|168:128,1,240,2|6
248,256,130891,1,0
248,256,131150,1,0
176,288,131408,6,0,B|56:248|72:112|128:72,1,240,0|2
264,112,132960,1,0
368,224,133477,1,6
64,296,134512,5,2
160,176,135029,1,0
312,144,135546,1,6
64,328,136581,5,2
152,200,137098,1,0
304,224,137615,1,2
400,104,138132,1,0
256,48,138650,2,2,B|192:88|112:48,2,120,2|2|6
424,312,140719,5,2
272,272,141236,1,0
424,312,141753,1,6
160,144,142788,5,2
304,88,143305,1,0
160,144,143822,1,4
488,184,144857,6,0,B|440:232,1,60,2|0
376,184,145374,2,0,B|352:248,1,60,2|0
280,224,145891,2,0,B|280:296,1,60,2|0
200,264,146408,2,0,B|200:192,1,60,2|0
120,192,146926,2,0,B|152:136,1,60,2|0
72,128,147443,2,0,B|80:64,1,60,2|2
145,30,147960,6,4,B|241:-10|329:30|345:126,1,240,4|4
