osu file format v7

[General]
AudioFilename: Bang! Bang! Bang !.mp3
AudioLeadIn: 0
PreviewTime: 54094
Countdown: 0
SampleSet: Soft
StackLeniency: 0.7
Mode: 0
LetterboxInBreaks: 0
SkinPreference:grungosu

[Editor]
Bookmarks: 40543
DistanceSpacing: 1.10000002384186
BeatDivisor: 4
GridSize: 8

[Metadata]
Title:Bang! Bang! Bang!
Artist:Beautiful Day
Creator:-SiN-
Version:HX
Source:O2Jam
Tags:Bang dance

[Difficulty]
HPDrainRate:5
CircleSize:4
OverallDifficulty:7
SliderMultiplier:1.5
SliderTickRate:1

[Events]
//Background and Video events
0,0,"217.jpg"
//Break Periods
2,80802,86277
//Storyboard Layer 0 (Background)
//Storyboard Layer 1 (Fail)
//Storyboard Layer 2 (Pass)
//Storyboard Layer 3 (Foreground)
//Storyboard Sound Samples
//Background Colour Transformations
3,100,163,162,255

[TimingPoints]
1697.92312482039,410.958904109589,4,2,0,100,1,0
2725,410.958904109589,4,2,0,100,1,0
13112,-100,4,1,0,70,0,0
29755,-100,4,2,0,100,0,0
31194,-100,4,1,0,70,0,0
33043,-100,4,2,0,100,0,0
34481,-100,4,1,0,70,0,0
36331,-100,4,2,0,100,0,0
37769,-100,4,1,0,70,0,0
39618,-100,4,2,0,100,0,0
41057,-100,4,1,0,70,0,0
67451,-100,4,1,0,70,0,1
81022,-100,4,1,0,70,0,0
120054,-100,4,1,0,70,0,1

[Colours]
Combo1 : 243,213,37
Combo2 : 243,57,24
Combo3 : 78,201,248

[HitObjects]
344,192,1697,2,0,B|440:192,3,75,0|0|2|2
176,192,2519,2,0,B|80:192,3,75,0|0|2|2
256,280,3341,2,0,B|256:360,3,75,0|0|0|2
336,192,4985,6,0,B|432:192,3,75,0|0|2|2
176,192,5807,2,0,B|80:192,3,75,0|0|2|2
256,104,6629,2,2,B|256:24,1,75
256,256,7245,1,2
72,264,8273,6,0,B|144:336,1,75
125,317,8684,1,2
125,317,8889,1,2
440,264,9095,2,0,B|368:336,1,75
386,317,9506,1,2
386,317,9711,1,2
256,72,9917,2,0,B|256:160,1,75
256,148,10328,1,2
256,148,10533,1,2
104,192,11560,6,2,B|424:192,1,300
400,192,12999,1,0
256,0,13204,5,0
16,192,13615,1,0
256,376,14026,1,0
504,192,14437,1,0
464,192,14540,1,0
424,192,14643,1,0
392,192,14745,1,0
352,192,14848,1,4
288,240,15054,5,0
216,272,15259,1,8
144,240,15465,1,0
80,192,15670,1,0
144,144,15876,1,0
216,96,16081,1,8
288,144,16286,1,0
448,192,16697,5,0
368,192,16903,1,8
288,192,17108,1,0
208,192,17314,2,2,B|32:192,2,150,2|10|0
504,192,18341,5,0
456,120,18547,1,8
400,184,18752,2,0,B|368:224|416:280,2,75
328,144,19369,1,8
256,192,19574,1,2
472,192,19985,5,2
48,192,20396,1,0
120,232,20602,1,0
200,200,20807,1,0
280,176,21012,1,8
360,184,21218,1,0
256,8,21629,5,0
184,56,21834,1,8
240,112,22040,1,0
304,160,22245,1,0
328,240,22451,1,0
296,312,22656,1,8
224,352,22862,1,0
416,120,23273,5,0
440,200,23478,1,8
360,224,23684,1,0
280,240,23889,2,2,B|200:248|152:320,1,150,2|10
256,72,24711,6,2,B|352:96,1,75
408,120,25122,2,0,B|296:136,1,75,8|0
256,160,25533,2,2,B|351:186,1,75
400,216,25944,2,0,B|304:232,1,75,8|4
168,176,26560,1,4
336,176,26971,1,4
192,64,27999,5,0
200,64,28102,1,0
208,64,28204,1,0
216,64,28307,1,0
224,64,28410,1,0
232,64,28512,1,0
240,64,28615,1,0
248,64,28718,1,0
256,64,28821,1,0
264,64,28923,1,0
272,64,29026,1,0
280,64,29129,1,0
288,64,29232,1,0
296,64,29334,1,0
304,64,29437,1,0
312,64,29540,1,0
32,200,29848,5,2
96,256,30054,1,8
168,208,30259,2,2,B|168:96,2,75
232,264,30876,1,8
296,320,31081,1,2
320,64,31286,5,0
312,64,31389,1,0
304,64,31491,1,0
296,64,31594,1,0
288,64,31697,1,0
280,64,31799,1,0
272,64,31902,1,0
264,64,32005,1,0
256,64,32108,1,0
248,64,32210,1,0
240,64,32313,1,0
232,64,32416,1,0
224,64,32519,1,0
216,64,32621,1,0
208,64,32724,1,0
200,64,32827,1,0
480,200,33136,5,2
416,256,33342,1,8
344,208,33547,2,2,B|344:96,2,75
280,264,34164,1,8
216,320,34369,1,2
48,120,34574,5,0
48,128,34677,1,0
48,136,34779,1,0
48,144,34882,1,0
48,152,34985,1,0
48,160,35087,1,0
48,168,35190,1,0
48,176,35293,1,0
48,184,35396,1,0
48,192,35498,1,0
48,200,35601,1,0
48,208,35704,1,0
48,216,35807,1,0
48,224,35909,1,0
48,232,36012,1,0
48,240,36115,1,0
256,352,36423,5,2
320,304,36629,1,10
376,240,36834,2,2,B|376:128,1,75
320,104,37245,1,2
256,48,37451,1,10
192,104,37656,1,2
464,264,37862,5,0
464,256,37965,1,0
464,248,38067,1,0
464,240,38170,1,0
464,232,38273,1,0
464,224,38375,1,0
464,216,38478,1,0
464,208,38581,1,0
464,200,38684,1,0
464,192,38786,1,0
464,184,38889,1,0
464,176,38992,1,0
464,168,39095,1,0
464,160,39197,1,0
464,152,39300,1,0
464,144,39403,1,0
256,352,39711,5,2
192,304,39917,1,10
136,240,40122,2,2,B|136:128,1,75
192,104,40533,1,2
256,48,40739,1,10
320,104,40944,1,2
240,72,41149,6,0,B|176:64|128:160|200:200,1,150,0|8
256,160,41766,1,0
328,120,41971,2,0,B|384:120|440:176|408:248,1,150,0|8
336,248,42588,1,0
256,248,42793,2,0,B|200:264|152:208|160:160,1,150,0|8
104,104,43410,1,0
424,312,43821,5,0
456,232,44026,1,8
408,160,44232,1,0
344,208,44437,2,0,B|336:264|280:296|200:264,1,150,0|8
216,192,45054,1,0
200,112,45259,2,0,B|184:56|96:40|64:112,1,150,0|8
64,168,45876,1,0
136,200,46081,2,0,B|176:256|152:312|80:320,1,150,0|8
98,316,46697,1,0
456,56,47108,5,0
376,80,47314,1,8
416,152,47519,1,0
392,232,47725,2,0,B|336:296|232:240,1,150,0|8
184,288,48341,1,0
120,232,48547,2,0,B|80:168|160:96,1,150,0|8
232,72,49163,1,0
264,152,49369,2,0,B|368:104|400:216,1,150,0|8
392,272,49985,1,0
0,192,51012,5,0
256,0,51423,1,0
512,192,51834,1,0
256,376,52245,1,0
176,296,52451,6,2,B|176:144,1,150
256,112,53067,1,2
256,192,53273,1,2
328,152,53478,1,2
256,192,53684,1,2
256,112,53889,1,2
328,152,54095,1,6
256,192,54300,6,0,B|160:208|112:144,3,150,0|8|0|8
120,72,55739,1,0
280,48,56149,1,0
352,88,56355,1,8
416,144,56560,1,0
88,56,56971,5,0
88,56,57177,1,8
88,56,57382,2,2,B|64:144|160:208,1,150
192,128,57999,1,8
272,128,58204,1,0
328,184,58410,1,0
200,288,58821,5,10
160,216,59026,1,0
80,224,59232,1,0
0,192,59437,1,2
256,0,59848,1,2
512,192,60259,1,6
184,96,60876,6,0,B|256:56|344:104,3,150,0|8|0|8
328,96,62314,1,0
328,264,62725,2,2,B|256:312|176:256,1,150
472,96,63958,6,2,B|456:200|360:160,1,150
336,88,64574,1,8
256,56,64780,1,8
232,136,64985,1,0
152,144,65191,1,0
112,216,65396,1,4
168,280,65602,1,4
256,192,65807,12,0,67040
256,8,67451,5,0
224,32,67554,1,0
192,56,67656,1,0
112,56,67862,2,8,B|104:104|48:104,1,75
64,184,68273,1,0
104,184,68376,1,0
144,184,68478,1,0
104,256,68684,2,8,B|152:264|152:320,1,75,8|0
480,312,69095,5,0
440,312,69197,1,0
400,312,69300,1,0
320,312,69506,2,8,B|272:304|272:248,1,75
272,176,69917,2,0,B|280:128|336:128,1,75,0|0
376,192,70328,2,0,B|384:240|440:240,1,75,8|2
496,192,70739,1,6
496,192,70944,5,0
448,128,71149,2,8,B|400:56,1,75
320,64,71560,1,0
280,64,71663,1,0
240,64,71766,1,0
160,64,71971,2,0,B|64:64,1,75,8|4
464,192,72588,5,2
344,104,72793,1,2
192,104,72999,1,2
72,192,73204,1,2
192,280,73410,1,2
344,280,73615,1,0
464,192,73821,1,2
384,192,74026,6,0,B|336:128,1,75
288,64,74437,1,8
248,56,74540,1,0
208,64,74643,1,8
24,192,74848,6,0,B|88:264,1,75,0|0
144,272,75259,1,8
184,272,75362,1,0
224,272,75465,1,8
480,128,75670,6,0,B|432:64,1,75,0|0
352,64,76081,1,8
312,64,76184,1,0
272,64,76286,1,8
192,64,76492,2,0,B|96:64,1,75
144,144,76903,2,0,B|40:144,1,75,8|2
69,145,77314,1,6
200,360,77519,6,0,B|256:304,1,75,0|8
328,256,77930,2,0,B|424:288,1,75,8|0
448,344,78341,2,0,B|480:240,1,75,0|8
496,192,78752,1,8
496,192,78958,5,0
256,0,79369,1,0
0,192,79780,1,0
256,376,80191,1,0
512,192,80602,1,4
464,328,87177,6,0,B|352:328|352:248,1,150
376,176,87793,1,0
392,96,87999,1,0
304,96,88204,1,0
264,72,88307,1,0
232,104,88410,1,8
72,80,88821,6,0,B|184:80|200:144,1,150
136,200,89437,1,0
160,232,89540,1,0
184,312,89745,1,0
216,336,89848,1,0
288,296,90054,1,8
416,192,90465,5,0
336,192,90670,1,0
256,192,90876,2,0,B|96:192,2,150,0|0|0
360,56,92108,5,8
360,56,92314,1,0
144,56,92519,1,8
144,56,92725,1,0
256,192,92930,5,10
256,192,93033,1,2
256,192,93136,1,2
256,192,93341,1,14
256,192,93547,1,14
288,88,93752,6,0,B|384:88,1,75
432,136,94163,2,8,B|336:136,1,75
296,192,94574,2,2,B|400:192,1,75
432,248,94985,2,0,B|328:248,1,75,8|0
296,304,95396,2,0,B|184:304,1,75
152,264,95807,2,8,B|256:264,1,75
160,216,96218,2,2,B|72:216,1,75
40,152,96629,1,10
120,152,96834,1,2
376,64,97040,5,0
304,32,97245,1,0
304,72,97348,1,0
304,112,97451,1,8
224,112,97656,1,10
224,192,97862,1,0
152,152,98067,1,0
152,232,98273,1,10
456,320,98478,6,0,B|352:304,1,75,0|0
312,264,98889,1,0
272,272,98992,1,0
232,280,99095,1,8
208,200,99300,2,0,B|248:112,1,75,8|0
304,80,99711,1,2
344,80,99814,1,2
384,80,99917,1,10
464,80,100122,1,2
456,344,100328,5,4
384,304,100533,2,0,B|344:256|352:208,2,75,0|8|8
304,296,101149,1,0
232,256,101355,1,0
192,264,101458,1,0
152,280,101560,1,8
72,296,101766,1,2
152,48,101971,6,0,B|168:136,1,75
240,160,102382,2,8,B|248:80,1,75
320,48,102793,2,0,B|336:128,1,75
400,168,103204,2,0,B|408:64,1,75,8|2
408,288,103615,6,2,B|256:336|80:272,2,300,2|2|6
408,288,105670,5,4
408,288,106081,5,4
112,144,106903,6,0,B|200:144,1,75
256,96,107313,1,8
328,144,107519,1,0
400,192,107724,1,0
328,240,107930,1,0
256,280,108135,1,8
184,240,108340,1,0
24,192,108751,5,0
104,192,108957,1,8
184,192,109162,1,0
264,192,109368,2,2,B|440:192,2,150,2|10|0
504,192,110396,5,0
456,120,110602,1,8
400,184,110807,2,0,B|368:224|416:280,2,75
328,144,111424,1,8
256,192,111629,1,2
40,192,112039,5,2
464,192,112450,1,0
392,152,112656,1,0
312,184,112861,1,0
232,208,113066,1,8
152,200,113272,1,0
256,376,113683,5,0
336,344,113888,1,8
288,272,114094,1,0
224,216,114299,1,0
184,144,114505,1,0
232,80,114710,1,8
296,32,114916,1,0
96,264,115327,5,0
64,184,115532,1,8
128,136,115738,1,0
208,120,115943,2,0,B|288:112|336:40,1,150,2|10
256,312,116765,6,2,B|160:288,1,75
104,264,117176,2,0,B|216:248,1,75,8|0
256,224,117587,2,2,B|161:198,1,75
112,160,117998,2,0,B|208:144,1,75,8|2
344,192,118614,1,6
176,192,119025,1,6
256,96,119334,5,0
256,96,119437,1,0
256,176,119642,1,0
256,176,119745,1,0
256,176,119847,1,0
256,176,119950,1,0
256,176,120053,1,4
