osu file format v5

[General]
AudioFilename: Beatdrop - Phase 1.mp3
AudioLeadIn: 0
PreviewTime: -1
Countdown: 0
SampleSet: Normal

[Metadata]
Title:Phase 1
Artist:Beatdrop
Creator:djzmo
Version:Insane

[Difficulty]
HPDrainRate:6
CircleSize:5
OverallDifficulty:7
SliderMultiplier:1.4
SliderTickRate:0.5

[Events]
//Background and Video events
0,0,"phase1.jpg"
//Break Periods
//Storyboard Layer 0 (Background)
//Storyboard Layer 1 (Failing)
//Storyboard Layer 2 (Passing)
//Storyboard Layer 3 (Foreground)
//Storyboard Sound Samples
//Background Colour Transformations
3,100,163,162,255

[TimingPoints]
0,386.87213875814,4,1,0,100

[HitObjects]
256,192,12573,1,0
384,192,12766,5,0
416,192,13056,1,0
224,192,13540,5,0
256,192,13830,1,0
64,192,14314,5,0
96,192,14604,1,0
288,192,15088,5,0
256,192,15378,1,0
256,192,15668,1,0
416,192,15861,5,0
384,192,16151,1,0
224,192,16635,5,0
288,192,16925,1,0
96,192,17409,5,0
160,192,17699,1,0
224,192,18182,5,0
288,192,18473,1,0
256,192,18763,1,0
352,192,18956,5,0
416,192,19246,1,0
288,128,19730,5,0
352,128,20020,1,0
224,64,20504,5,0
288,64,20794,1,0
160,128,21277,5,0
224,128,21568,1,0
256,192,21858,1,0
160,192,22051,5,0
96,192,22341,1,0
224,256,22825,5,0
288,256,23115,1,0
288,128,23599,5,0
224,128,23889,1,0
224,192,24372,5,0
288,192,24663,1,0
160,192,24759,5,0
352,192,24953,1,0
64,64,25146,5,0
256,64,25436,1,0
256,64,25533,1,0
448,64,25920,1,0
448,192,26210,1,0
448,192,26307,1,0
448,320,26694,1,0
256,320,26984,1,0
256,320,27081,1,0
64,320,27467,1,0
64,192,27758,1,0
64,192,27854,1,0
64,128,28048,1,0
64,64,28241,5,0
256,64,28531,1,0
256,64,28628,1,0
448,64,29015,1,0
448,192,29305,1,0
448,192,29402,1,0
448,320,29789,1,0
256,320,30079,1,0
256,320,30176,1,0
64,320,30562,1,0
64,192,30853,1,0
64,192,30949,1,0
64,128,31143,1,0
192,128,31336,5,0
320,128,31530,1,0
320,256,31723,1,0
192,256,31916,1,0
192,128,32110,1,0
320,128,32303,1,0
320,256,32497,1,0
192,256,32690,1,0
192,128,32884,1,0
320,128,33077,1,0
320,256,33271,1,0
192,256,33464,1,0
192,128,33657,1,0
320,128,33851,1,0
320,256,34044,1,0
256,192,34238,1,0
192,128,34431,1,0
192,256,34625,1,0
320,256,34818,1,0
320,128,35011,1,0
256,192,35205,1,0
192,256,35398,1,0
192,128,35592,1,0
320,256,35785,1,0
192,128,35979,1,0
192,256,36172,1,0
320,128,36365,1,0
192,128,36559,1,0
192,256,36752,1,0
320,256,36946,1,0
256,192,37139,5,0
256,192,37333,5,0
64,192,37720,1,0
64,64,38106,1,0
256,320,38493,1,0
448,192,38880,1,0
448,64,39267,1,0
64,320,39654,1,0
256,64,40041,1,0
448,320,40428,1,0
448,64,40815,1,0
256,320,41201,1,0
256,192,41588,1,0
64,64,41975,1,0
256,64,42362,1,0
64,320,42749,1,0
448,192,43136,1,0
64,192,43523,1,0
256,192,43909,1,0
256,64,44296,1,0
64,320,44683,1,0
64,64,45070,1,0
448,320,45457,1,0
448,64,45844,1,0
64,192,46231,1,0
256,64,46618,1,0
448,192,47004,1,0
64,320,47391,1,0
64,64,47778,1,0
448,320,48165,1,0
256,192,48552,1,0
256,64,48939,1,0
64,64,49326,1,0
224,160,49713,5,0
288,160,49906,1,0
288,224,50099,1,0
224,224,50293,1,0
224,160,50486,5,0
224,224,50680,1,0
288,224,50873,1,0
288,160,51067,1,0
224,160,51260,5,0
288,160,51453,1,0
288,224,51647,1,0
224,224,51840,1,0
288,160,52034,5,0
224,160,52227,1,0
288,224,52421,1,0
224,224,52614,1,0
224,160,52808,5,0
288,160,53001,1,0
224,224,53194,1,0
288,224,53388,1,0
288,160,53581,5,0
288,224,53775,1,0
224,160,53968,1,0
224,224,54162,1,0
224,160,54355,5,0
224,224,54548,1,0
288,160,54742,1,0
288,224,54935,1,0
224,160,55129,5,0
288,160,55322,1,0
288,224,55516,1,0
224,224,55709,1,0
224,160,55903,5,0
288,160,56096,1,0
288,224,56289,1,0
224,224,56483,1,0
224,160,56676,5,0
224,224,56870,1,0
288,224,57063,1,0
288,160,57257,1,0
416,96,57450,5,0
352,96,57643,1,0
288,96,57837,1,0
416,96,58030,1,0
352,96,58224,1,0
288,96,58417,1,0
288,160,58611,1,0
416,160,58804,1,0
352,160,58998,2,0,B|192:160,1,140
212,160,59578,2,0,B|64:160,1,140
72,160,60158,1,0
192,160,60545,2,0,B|320:160|384:288|224:320|64:288|32:192|96:192,1,420
160,192,63447,2,0,B|256:192,1,70
224,192,64124,5,0
224,192,64220,1,0
224,192,64317,1,0
224,192,64414,1,0
288,192,64510,5,0
288,192,64607,1,0
224,192,64704,5,0
224,192,64801,1,0
288,192,64897,5,0
288,192,64994,1,0
224,192,65091,5,0
224,192,65187,1,0
128,192,66445,5,0
128,192,66542,1,0
128,192,66638,1,0
128,192,66735,1,0
128,192,66832,1,0
256,128,67025,1,0
256,192,67219,1,0
256,256,67605,1,0
256,192,67799,1,0
384,192,67992,5,0
384,192,68089,1,0
384,192,68186,1,0
384,192,68282,1,0
384,192,68379,1,0
256,128,68573,1,0
256,192,68766,1,0
256,128,69153,1,0
256,192,69346,1,0
192,192,69540,5,0
224,192,69636,1,0
256,192,69733,1,0
288,192,69830,1,0
320,192,69927,1,0
256,256,70120,1,0
256,192,70314,1,0
256,128,70700,1,0
256,192,70894,1,0
320,192,71087,5,0
288,192,71184,1,0
256,192,71281,1,0
224,192,71377,1,0
192,192,71474,1,0
256,256,71668,1,0
256,192,71861,1,0
256,128,72248,1,0
256,192,72441,1,0
64,64,72635,5,0
64,64,72731,1,0
64,64,72828,1,0
64,64,72925,1,0
64,64,73022,1,0
128,64,73215,1,0
192,64,73408,1,0
256,64,73795,1,0
320,64,73989,1,0
448,64,74182,5,0
448,64,74279,1,0
448,64,74376,1,0
448,64,74472,1,0
448,64,74569,1,0
448,128,74763,1,0
448,192,74956,1,0
448,256,75343,1,0
448,320,75536,1,0
320,320,75730,5,0
320,320,75826,1,0
320,320,75923,1,0
320,320,76020,1,0
320,320,76117,1,0
256,320,76310,1,0
192,320,76503,1,0
128,320,76890,1,0
64,320,77084,1,0
64,256,77277,5,0
64,256,77374,1,0
64,256,77471,1,0
64,256,77567,1,0
64,256,77664,1,0
64,192,77858,1,0
64,128,78051,1,0
64,64,78438,1,0
64,0,78631,1,0
64,64,78825,5,0
256,64,79212,1,0
448,64,79598,1,0
448,192,79969,1,0
448,320,80369,1,0
256,320,80759,1,0
64,320,81146,1,0
64,192,81533,1,0
64,64,81920,1,0
256,64,82307,1,0
448,64,82693,1,0
448,192,83080,1,0
448,320,83467,1,0
256,320,83854,1,0
64,320,84241,1,0
64,192,84628,1,0
64,64,85015,1,0
256,64,85402,1,0
448,64,85788,1,0
448,192,86175,1,0
448,320,86562,1,0
256,320,86949,1,0
64,320,87336,1,0
64,192,87723,1,0
64,64,88110,1,0
256,64,88497,1,0
448,64,88883,1,0
448,192,89270,1,0
448,320,89657,1,0
256,320,90044,1,0
64,320,90431,1,0
64,192,90818,1,0
128,192,91205,5,0
128,192,91301,1,0
128,192,91398,1,0
128,192,91495,1,0
128,192,91591,1,0
256,192,91785,1,0
192,192,91978,1,0
128,192,92365,1,0
192,192,92559,1,0
384,192,92752,1,0
384,192,92849,1,0
384,192,92946,1,0
384,192,93042,1,0
384,192,93139,1,0
256,192,93332,1,0
320,192,93526,1,0
384,192,93913,1,0
320,192,94106,1,0
128,192,94300,5,0
128,192,94396,1,0
128,192,94493,1,0
128,192,94590,1,0
128,192,94686,1,0
256,192,94880,1,0
192,192,95073,1,0
128,192,95460,1,0
192,192,95654,1,0
384,192,95847,1,0
384,192,95944,1,0
384,192,96041,1,0
384,192,96137,1,0
384,192,96234,1,0
256,192,96427,1,0
320,192,96621,1,0
384,192,97008,1,0
320,192,97201,1,0
128,192,97395,5,0
128,192,97491,1,0
128,192,97588,1,0
128,192,97685,1,0
128,192,97781,1,0
256,192,97975,1,0
192,192,98168,1,0
128,192,98555,1,0
192,192,98749,1,0
384,192,98942,1,0
384,192,99039,1,0
384,192,99136,1,0
384,192,99232,1,0
384,192,99329,1,0
256,192,99522,1,0
320,192,99716,1,0
384,192,100103,1,0
320,192,100296,1,0
128,192,100490,5,0
128,192,100586,1,0
128,192,100683,1,0
128,192,100780,1,0
128,192,100876,1,0
256,192,101070,1,0
192,192,101263,1,0
128,192,101650,1,0
192,192,101844,1,0
384,192,102037,1,0
384,192,102134,1,0
384,192,102231,1,0
384,192,102327,1,0
384,192,102424,1,0
256,192,102617,1,0
320,192,102811,1,0
320,192,103198,1,0
384,192,103391,1,0
64,192,103585,5,0
128,192,103971,1,0
192,256,104165,1,0
128,256,104358,1,0
64,256,104745,1,0
128,256,104939,1,0
192,192,105132,5,0
256,192,105519,1,0
320,256,105712,1,0
256,256,105906,1,0
320,256,106293,1,0
256,256,106486,1,0
384,128,106679,5,0
320,128,107066,1,0
256,192,107260,1,0
320,192,107453,1,0
384,192,107840,1,0
320,192,108034,1,0
96,64,108227,5,0
96,128,108614,1,0
160,192,108807,1,0
160,128,109001,1,0
160,64,109388,1,0
160,128,109581,1,0
192,192,109774,5,0
256,192,110161,1,0
320,256,110354,1,0
256,256,110548,1,0
320,256,110935,1,0
256,256,111128,1,0
384,128,111321,5,0
320,128,111708,1,0
256,192,111902,1,0
320,192,112095,1,0
384,192,112482,1,0
320,192,112676,1,0
192,192,112869,5,0
256,192,113256,1,0
320,256,113449,1,0
256,256,113643,1,0
320,256,114030,1,0
256,256,114223,1,0
96,192,114417,5,0
96,192,114514,1,0
96,192,114610,1,0
96,192,114707,1,0
96,192,114804,1,0
160,192,114997,1,0
224,192,115191,1,0
288,192,115578,1,0
352,192,115771,1,0
0,0,115964,6,0,B|96:0|96:96|192:96|192:0|256:0|256:96|320:96|320:0|384:0|384:96|448:96|448:0|512:0|512:192|448:192|448:160|384:160|384:192|320:192|320:160|256:160|256:192|192:160|96:192|0:160|0:256|32:320|128:256|192:352|224:256|288:352|544:96,1,1400
96,128,120027,1,0
160,128,120220,1,0
224,128,120413,1,0
96,64,120607,5,0
160,64,120800,1,0
224,64,120994,1,0
288,64,121187,1,0
160,128,121381,1,0
224,128,121574,1,0
288,128,121768,1,0
352,128,121961,1,0
224,192,122154,1,0
288,192,122348,1,0
352,192,122541,1,0
416,192,122735,1,0
288,256,122928,1,0
352,256,123122,1,0
416,256,123315,1,0
416,256,123508,1,0
480,256,123702,5,0
416,256,123895,1,0
352,256,124089,1,0
288,256,124282,1,0
416,192,124476,1,0
352,192,124669,1,0
288,192,124862,1,0
224,192,125056,1,0
352,128,125249,1,0
288,128,125443,1,0
224,128,125636,1,0
160,128,125830,1,0
288,64,126023,1,0
224,64,126217,1,0
224,64,126313,1,0
160,64,126410,1,0
160,64,126507,1,0
96,64,126603,1,0
96,64,126700,1,0
256,192,126797,5,0
