osu file format v9

[General]
AudioFilename: Alice Game.mp3
AudioLeadIn: 993
PreviewTime: 24011
Countdown: 1
SampleSet: Normal
StackLeniency: 0.7
Mode: 0
LetterboxInBreaks: 1

[Editor]
DistanceSpacing: 1
BeatDivisor: 4
GridSize: 8

[Metadata]
Title:Alice Game
Artist:BeatMARIO
Creator:Patchouli
Version:Nonstop
Source:Touhou
Tags:Doll Maker of Bucuresti Alice Margatroid COOL&CREATE Perfect Cherry Blossom

[Difficulty]
HPDrainRate:5
CircleSize:4
OverallDifficulty:7
ApproachRate:8
SliderMultiplier:2
SliderTickRate:1

[Events]
//Background and Video events
0,0,"AliceBG.jpg"
//Break Periods
//Storyboard Layer 0 (Background)
//Storyboard Layer 1 (Fail)
//Storyboard Layer 2 (Pass)
//Storyboard Layer 3 (Foreground)
//Storyboard Sound Samples
//Background Colour Transformations
3,100,163,162,255

[TimingPoints]
697,342.857142857143,4,1,1,70,1,0
12269,-200,4,1,1,70,0,0
12783,-100,4,1,1,70,0,0
23411,-200,4,1,1,70,0,0
23926,-100,4,1,1,70,0,0
24011,-100,4,1,1,70,0,1
32840,-200,4,1,1,70,0,1
33354,-100,4,1,1,70,0,1
41069,-200,4,1,1,70,0,1
41583,-100,4,1,1,70,0,1
42440,-200,4,1,1,70,0,1
42954,-100,4,1,1,70,0,1
45954,-100,4,2,1,70,0,0
46811,-100,4,1,1,70,0,0
79811,-200,4,1,1,70,0,0
80154,-100,4,1,1,70,0,0
101754,-200,4,1,1,70,0,0
102269,-100,4,1,1,70,0,0
124126,-100,4,1,1,70,0,1
126097,-200,4,1,1,70,0,1
126697,-100,4,1,1,70,0,1
131583,-200,4,1,1,70,0,1
132097,-100,4,1,1,70,0,1
134326,-200,4,1,1,70,0,1
134840,-100,4,1,1,70,0,1
142554,-200,4,1,1,70,0,1
143069,-100,4,1,1,70,0,1
146069,-100,4,1,1,70,0,0
211897,-100,4,1,1,70,0,1
213869,-200,4,1,1,70,0,1
214383,-100,4,1,1,70,0,1
219354,-200,4,1,1,70,0,1
219869,-100,4,1,1,70,0,1
222097,-200,4,1,1,70,0,1
222611,-100,4,1,1,70,0,1
224840,-200,4,1,1,70,0,1
225354,-100,4,1,1,70,0,1
230326,-200,4,1,1,70,0,1
230840,-100,4,1,1,70,0,1
233840,-100,4,1,1,70,0,0
233883,-100,4,1,1,70,0,1
242669,-200,4,1,1,70,0,1
243183,-100,4,1,1,70,0,1
250897,-200,4,1,1,70,0,1
251411,-100,4,1,1,70,0,1
252269,-200,4,1,1,70,0,1
252783,-100,4,1,1,70,0,1
255011,-200,4,1,1,70,0,1
255526,-100,4,1,1,70,0,1
256383,-200,4,1,1,70,0,1
257154,-200,4,1,1,70,0,0
257240,-100,4,1,1,70,0,0
267097,1367.52136752137,4,1,1,70,1,0
267951,-100,4,1,1,10,0,0

[Colours]
Combo1 : 255,128,0
Combo2 : 128,255,0
Combo3 : 0,255,255
Combo4 : 255,0,0
Combo5 : 0,0,255

[HitObjects]
64,128,2068,2,0,B|104:88|168:96,1,100,4|0
256,112,2411,2,0,B|240:184|168:192,1,100,8|0
192,288,2754,2,0,B|128:288|104:232,1,100
192,192,3097,2,0,B|304:192,1,100,8|0
384,240,3440,5,0
440,320,3611,1,0
384,240,3783,2,0,B|352:184|400:112,1,100,8|0
432,56,4126,1,0
382,143,4297,1,8
296,192,4469,1,0
200,176,4640,1,8
56,40,4811,6,0,B|88:120|152:104,1,100,4|0
56,344,5154,2,0,B|88:264|152:280,1,100,8|0
248,192,5497,2,0,B|360:192,2,100,0|0|8
48,192,6011,1,0
160,80,6183,6,0,B|264:32|368:88,1,200,0|8
256,192,6697,1,0
352,304,6869,2,0,B|248:352|144:296,1,200,0|8
256,192,7383,1,0
48,192,7554,6,0,B|176:192,1,100,4|0
464,192,7897,2,0,B|336:192,1,100,8|0
304,112,8240,5,0
208,272,8411,1,0
304,272,8583,1,8
208,112,8754,1,0
64,64,8926,6,0,B|88:128|168:128,1,100,4|0
64,192,9269,2,0,B|120:224|176:184,1,100,8|0
128,288,9611,2,0,B|184:288|224:232,1,100
248,336,9954,2,0,B|288:304|288:240,1,100,8|0
256,128,10297,5,4
120,64,10811,1,8
256,128,10983,1,4
392,64,11497,1,8
256,128,11669,1,4
256,128,12011,1,4
256,328,12354,2,4,B|256:232,1,75,4|8
256,224,12697,1,4
256,224,12868,1,4
344,272,13040,6,0,B|408:256|424:176,1,100
424,104,13383,1,8
368,24,13554,1,0
320,112,13726,2,0,B|288:176|200:184,1,100
56,104,14068,2,0,B|120:128|144:200,1,100,8|0
168,296,14411,5,0
230,216,14583,1,0
168,296,14754,5,8
277,192,14926,1,0
168,296,15097,5,0
331,181,15268,1,0
168,296,15440,5,8
387,177,15611,1,0
448,256,15783,6,0,B|424:320|360:320,1,100
280,304,16126,1,8
208,240,16297,1,0
160,152,16469,2,0,B|112:120|48:136,1,100
160,152,16811,2,0,B|208:184|272:168,1,100,8|0
344,128,17154,6,0,B|448:128,2,100,0|0|8
272,56,17669,2,0,B|160:56,1,100
104,128,18011,2,0,B|0:128,2,100,8|0|8
448,240,18526,5,0
368,296,18697,1,0
272,328,18869,2,0,B|184:224,1,100,8|0
56,40,19211,5,0
144,88,19382,1,0
240,56,19554,2,0,B|328:160,1,100,8|0
400,168,19897,5,0
304,132,20069,1,0
208,152,20240,1,8
136,224,20411,1,0
208,296,20583,2,0,B|312:296,1,100
480,296,20926,2,0,B|352:296,1,100,8|0
64,296,21269,5,4
440,48,21783,1,8
376,184,21954,1,4
72,48,22469,1,8
136,184,22640,1,4
464,192,22983,5,4
48,192,23326,1,4
256,40,23497,6,0,B|256:160,1,100,2|2
304,224,24011,6,0,B|344:288|416:280,1,100,4|0
304,224,24354,1,8
208,192,24526,1,0
128,128,24697,2,0,B|128:16,2,100,0|0|8
128,232,25211,1,0
96,328,25383,6,0,B|224:280,1,100,0|0
416,256,25726,2,0,B|288:208,1,100,8|0
96,184,26069,2,0,B|224:136,1,100,0|0
416,120,26411,2,0,B|288:72,1,100,8|0
256,8,26754,5,4
256,360,27097,1,12
336,296,27269,2,0,B|368:272|392:272,2,50
240,272,27611,1,0
152,224,27783,2,0,B|192:176|240:176,1,100,8|0
328,216,28126,5,0
152,312,28297,1,0
328,216,28469,1,8
152,120,28640,1,0
328,24,28811,2,0,B|328:88|264:128,1,100
112,216,29154,2,0,B|48:216,2,50,8|0|0
216,216,29497,5,4
264,304,29669,1,0
360,304,29840,1,8
312,216,30011,1,0
264,128,30183,2,0,B|320:96|384:144,1,100
64,80,30526,2,0,B|120:112|184:80,1,100,8|0
448,80,30869,6,0,B|392:112|328:80,1,100
351,89,31211,1,8
256,64,31383,1,0
176,128,31554,2,0,B|216:176|280:160,1,100
352,216,31897,2,0,B|312:264|248:248,1,100,8|0
192,336,32240,5,2
112,152,32411,1,0
32,336,32583,1,10
200,232,32754,1,0
380,322,32926,2,0,B|328:328|328:328|280:288,1,100,2|8
352,216,33440,5,2
352,216,33526,1,0
352,216,33611,1,0
464,48,33783,1,0
272,104,33954,1,10
72,120,34126,1,0
152,304,34297,2,0,B|176:248|144:200,1,100,2|0
168,8,34640,2,0,B|152:72|200:112,1,100,10|2
280,280,34983,5,2
368,328,35154,2,0,B|392:352|432:344,2,50,0|0|8
392,232,35497,2,0,B|416:240|440:232,2,50
304,184,35840,2,0,B|248:168|208:216,1,100,0|8
144,280,36183,1,0
64,344,36354,6,0,B|64:232,1,100
64,40,36697,2,0,B|64:152,1,100,8|0
176,280,37040,1,0
208,240,37126,1,0
224,192,37211,1,0
208,144,37297,1,0
176,104,37383,1,8
128,192,37554,1,0
328,192,37726,6,0,B|448:192,2,100,2|0|10
272,104,38240,1,2
320,88,38326,1,0
368,72,38411,5,0
368,312,38583,1,4
368,72,38754,1,12
368,312,38926,1,4
272,320,39097,6,0,B|224:328|176:280,1,100
112,208,39440,2,0,B|80:216|72:248,2,50,8|0|0
152,184,39697,1,0
200,176,39783,1,0
248,184,39869,1,0
288,208,39954,1,0
336,224,40040,1,0
384,224,40126,2,0,B|440:224|472:176,1,100,8|0
376,152,40469,6,0,B|248:152,1,100
176,232,40811,2,0,B|296:232,1,100,10|0
176,152,41154,2,0,B|64:152,1,100,2|8
72,320,41669,5,0
72,320,41754,1,0
72,320,41840,2,0,B|184:320,1,100
272,72,42183,2,0,B|152:72,1,100,10|0
272,312,42526,2,0,B|376:312,1,100,2|8
384,112,43040,5,0
408,160,43126,1,0
448,192,43211,1,0
64,192,43554,1,10
312,192,43897,2,0,B|304:256|232:256,1,100,0|2
200,192,44240,2,0,B|208:128|280:128,1,100,8|2
256,344,44583,5,0
256,40,44926,1,10
256,192,45269,1,2
120,192,45526,1,0
120,192,45611,2,0,B|0:192,1,100,8|0
64,280,45954,2,2,B|64:344,8,50
96,56,46983,5,0
168,120,47154,1,0
264,152,47326,2,0,B|320:168|376:120,2,100,0|0|8
184,216,47840,2,0,B|248:272|328:272|408:224,1,200
370,242,48354,1,8
432,168,48526,1,0
360,96,48697,6,0,B|416:64|464:80,2,100,0|0|8
304,176,49211,2,0,B|272:96|216:72|112:96,1,200
56,136,49726,2,0,B|88:184|144:184,1,100,8|0
232,224,50069,5,0
144,272,50240,1,0
48,248,50411,1,8
80,344,50583,2,0,B|56:368|32:368,2,50
144,272,50926,1,0
112,176,51097,1,8
56,96,51269,6,0,B|152:16|248:96,1,200
416,176,51783,2,0,B|352:184|304:136,1,100,8|0
256,72,52126,1,0
256,168,52297,1,0
256,272,52469,2,0,B|256:376,1,100,8|0
344,328,52811,6,0,B|472:328,2,100,0|0|8
168,192,53326,2,0,B|64:192,2,100
344,56,53840,2,0,B|464:56,1,100,8|0
400,144,54183,5,0
368,184,54269,1,0
360,232,54354,1,0
296,152,54526,1,8
256,240,54697,2,0,B|280:320|352:320,2,100
208,152,55211,2,0,B|184:96|112:96,1,100,8|0
72,176,55554,6,0,B|80:304|208:320,1,200,0|8
440,176,56069,2,0,B|432:304|304:320,1,200
256,128,56583,1,8
168,80,56754,6,0,B|256:-8|352:88,1,200
304,240,57269,1,8
120,152,57440,1,0
208,240,57611,1,8
392,152,57783,1,0
256,352,57954,1,8
256,168,58126,1,8
192,88,58297,6,0,B|152:48|88:56,2,100,0|0|8
320,88,58811,2,0,B|360:48|424:56,2,100
256,168,59326,1,8
232,264,59497,1,0
144,88,59669,6,0,B|128:152|176:192,1,100
104,264,60012,1,8
72,168,60183,1,0
168,184,60355,1,0
232,264,60526,1,0
320,304,60697,2,0,B|368:328|424:304,1,100,8|0
424,152,61040,5,0
376,168,61126,1,0
336,200,61212,1,0
256,256,61383,2,0,B|256:384,1,100,8|0
256,32,61726,2,0,B|256:144,1,100
192,208,62069,1,8
152,240,62154,1,0
104,256,62240,5,0
464,48,62583,1,0
272,112,62754,2,0,B|376:80,1,100,8|0
264,256,63097,2,0,B|336:160,2,100,0|0|8
208,344,63611,1,0
176,248,63783,5,0
168,48,63954,2,0,B|120:96|144:168,2,100,0|8|0
360,88,64469,2,0,B|312:120|240:80,1,100
360,272,64811,2,0,B|408:232|392:176,1,100,8|0
232,264,65154,6,0,B|304:352,1,100
232,264,65497,1,8
152,200,65668,2,0,B|96:176|40:216,1,100
112,288,66011,1,0
152,200,66182,1,8
248,160,66354,1,0
152,104,66526,6,0,B|248:8|352:112,1,200,0|8
432,120,67040,2,0,B|328:184|400:296,1,200
304,240,67554,1,8
256,232,67640,1,0
208,240,67726,1,0
208,240,67897,1,0
120,280,68069,1,0
56,208,68240,2,0,B|24:160|48:104,2,100,8|0|8
120,280,68754,1,0
208,320,68926,2,0,B|272:344|320:312,1,100,8|8
368,248,69269,5,0
408,344,69440,1,0
368,248,69611,2,0,B|320:192|256:192,1,100,8|0
184,184,69954,1,0
88,216,70126,1,0
184,184,70297,2,0,B|232:144|232:72,1,100,8|0
168,288,70640,5,0
360,232,70811,1,0
240,72,70983,1,8
440,48,71154,2,0,B|496:32,2,50
240,72,71497,1,0
360,232,71669,1,8
168,288,71840,1,0
80,336,72011,6,0,B|80:224,1,100
144,64,72354,2,0,B|144:176,1,100,8|0
208,304,72697,2,0,B|208:184,1,100
280,88,73040,2,0,B|280:216,1,100,8|0
352,272,73383,2,0,B|352:168,1,100
424,120,73726,2,0,B|424:232,1,100,8|0
496,240,74069,1,0
496,160,74240,1,0
496,240,74411,1,8
496,160,74583,1,0
424,200,74754,6,0,B|360:200|328:152,1,100
240,144,75097,2,0,B|256:80|320:64,1,100,8|0
240,144,75440,2,0,B|224:216|168:240,1,100
144,144,75783,2,0,B|104:112|24:128,1,100,8|0
144,144,76126,5,0
216,216,76297,1,0
168,304,76469,1,8
216,320,76554,1,0
264,312,76640,1,0
328,232,76811,2,0,B|336:200|320:176,2,50
376,320,77154,2,0,B|432:336|480:312,1,100,8|0
408,128,77497,6,0,B|352:144|304:88,1,100
256,184,77840,1,8
256,184,78011,1,0
104,128,78183,2,0,B|160:144|208:88,1,100
256,184,78526,1,8
256,280,78697,1,0
168,336,78869,5,0
88,296,79040,1,0
88,216,79211,1,8
120,152,79383,1,0
176,128,79554,1,0
224,144,79726,1,0
256,184,79897,2,0,B|256:248,1,50,8|0
256,234,80240,5,0
328,296,80411,2,0,B|384:336|432:304,2,100,0|8|0
184,296,80926,2,0,B|128:336|80:304,2,100,0|0|8
256,368,81440,1,0
344,328,81611,5,0
448,328,81783,1,0
376,256,81954,2,0,B|312:224|312:176,1,100,8|0
120,120,82297,2,0,B|192:88|248:160,1,100
400,56,82640,2,0,B|368:112|304:120,1,100,8|0
256,192,82983,6,0,B|256:248,2,50
192,120,83326,2,0,B|192:16,2,100,8|0|0
120,192,83840,2,0,B|120:248,2,50,0|0|8
64,104,84183,6,0,B|160:40|264:112,1,200
432,192,84697,2,0,B|384:224|320:192,1,100,8|0
336,199,85040,2,0,B|384:248|360:304,1,100
280,336,85383,1,8
184,320,85554,1,0
88,352,85726,6,0,B|88:232,1,100
128,160,86069,1,8
88,252,86240,1,0
184,288,86411,1,0
224,200,86583,1,0
208,104,86754,2,0,B|192:48|128:32,1,100,8|0
208,104,87097,6,0,B|224:160|288:176,1,100
376,176,87440,2,0,B|368:240|304:264,1,100,8|0
224,256,87783,5,0
336,96,87954,1,0
424,272,88126,1,8
224,256,88297,1,0
144,312,88469,5,0
48,288,88640,1,0
144,312,88811,1,8
112,216,88983,1,0
120,120,89154,2,0,B|152:64|224:64,1,100
296,96,89497,2,0,B|256:152|208:152,1,100,8|0
336,312,90011,5,0
136,336,90183,1,8
272,192,90354,1,0
456,112,90526,1,0
264,72,90697,1,0
80,152,90869,5,8
136,232,91040,1,0
224,280,91211,2,0,B|304:296|360:256,1,100
264,200,91554,1,8
322,275,91726,1,0
352,368,91897,1,0
416,288,92069,1,0
496,224,92240,2,0,B|432:224|392:168,1,100,8|0
256,56,92583,5,0
168,96,92754,2,0,B|192:152|272:152,1,100,0|8
152,176,93097,1,0
64,120,93269,2,0,B|48:48|120:8,2,100,0|0|8
16,208,93783,1,0
72,288,93954,6,0,B|248:160,1,200,0|8
432,128,94469,2,0,B|256:256,1,200
270,245,94983,1,8
160,80,95154,6,0,B|256:144|360:80,1,200
168,176,95669,2,0,B|144:208|104:200,2,50,8|0|0
344,176,96011,2,0,B|368:208|408:200,2,50,8|0|0
256,120,96354,1,8
256,16,96526,1,8
256,216,96697,6,0,B|288:272|368:280,1,100
432,272,97040,2,0,B|424:336|368:360,1,100,8|0
432,272,97383,1,0
432,176,97554,1,0
368,96,97726,1,8
272,64,97897,1,0
368,96,98069,6,0,B|272:144,1,100
144,288,98411,2,0,B|240:240,1,100,8|0
416,328,98754,2,0,B|320:280,1,100
96,56,99097,2,0,B|192:104,1,100,8|0
272,144,99440,5,0
336,224,99611,1,0
240,240,99783,2,0,B|176:216|176:152,1,100,8|0
200,72,100126,1,0
176,168,100297,1,0
80,192,100469,2,0,B|16:200,2,50,8|0|0
224,328,100983,5,0
408,248,101154,1,8
352,56,101326,1,0
296,248,101497,1,8
128,136,101669,1,0
328,160,101840,2,0,B|280:144|280:144|232:168,1,100,8|4
234,165,102354,5,0
176,248,102526,2,0,B|184:312|264:312,1,100,8|0
176,248,102869,2,0,B|120:208|64:248,1,100
40,152,103211,1,8
104,80,103383,1,0
200,48,103554,6,0,B|328:112,1,100
288,352,103897,2,0,B|160:288,1,100,8|0
200,136,104240,2,0,B|304:184,1,100
288,264,104583,2,0,B|184:216,1,100,8|0
104,192,104926,5,0
104,192,105097,1,0
104,88,105269,2,0,B|176:88|200:152,1,100,8|0
104,296,105611,2,0,B|176:296|200:232,1,100
384,192,105954,2,0,B|256:192,1,100,8|0
208,128,106297,5,0
392,48,106469,1,0
472,232,106640,1,8
280,176,106811,1,0
160,336,106983,1,0
48,168,107154,1,0
224,264,107326,1,8
160,80,107497,1,0
352,72,107669,6,0,B|304:96|256:72,1,100
128,160,108011,2,0,B|176:184|224:160,1,100,8|0
416,248,108354,2,0,B|368:272|320:248,1,100
64,336,108697,2,0,B|112:360|160:336,1,100,8|0
240,272,109040,5,0
280,176,109211,1,0
248,80,109383,2,0,B|216:24|152:32,1,100,8|0
160,128,109726,1,0
248,80,109897,1,0
344,88,110069,2,0,B|400:96|432:160,1,100,8|0
368,232,110411,6,0,B|424:256|464:232,1,100
272,184,110754,2,0,B|248:240|288:296,1,100,8|0
360,336,111097,1,0
277,280,111269,1,0
184,312,111440,1,8
104,256,111611,1,0
32,192,111783,5,4
480,192,112126,1,4
256,24,112469,1,4
256,360,112811,1,4
168,184,113154,6,0,B|224:232|288:192,1,100,4|0
304,184,113411,1,0
352,176,113497,2,0,B|424:160|472:216,2,100,8|0|0
264,120,114011,1,0
264,232,114183,1,8
176,72,114354,1,0
176,288,114526,5,0
96,232,114697,1,0
184,184,114869,2,0,B|168:128|104:128,2,100,8|0|0
264,232,115383,1,0
304,264,115469,1,0
352,280,115554,2,0,B|424:288|456:256,1,100,8|0
456,160,115897,6,0,B|424:112|368:112,1,100,4|0
280,144,116240,2,0,B|320:200|376:192,1,100,8|0
440,256,116583,5,0
344,80,116754,1,0
248,256,116926,1,8
152,80,117097,1,0
120,280,117269,6,0,B|88:240|96:176,2,100,0|0|8
184,200,117783,2,0,B|176:152|216:104,2,100
280,168,118297,2,0,B|304:120|360:112,1,100,8|0
424,192,118640,6,0,B|480:192,2,50,4|0|0
376,280,118983,2,0,B|256:280,1,100,8|0
224,192,119326,2,0,B|96:192,1,100
124,192,119669,1,8
224,192,119840,1,0
304,136,120011,6,0,B|344:104|344:48,1,100,4|0
248,72,120354,1,8
152,64,120526,1,0
64,120,120697,2,0,B|112:168|184:160,1,100
224,232,121040,1,8
152,160,121211,1,0
48,48,121383,5,4
464,336,121726,1,4
464,48,122069,1,4
48,336,122411,1,4
360,192,122754,5,6
152,192,122926,1,4
256,88,123097,1,6
256,296,123269,1,4
256,192,123440,2,2,B|256:224,8,25,2|0|0|0|0|0|0|0|2
88,80,124126,6,0,B|120:144|200:144,1,100,6|0
88,304,124469,2,0,B|120:240|200:240,1,100,8|0
248,192,124811,1,0
352,192,124983,2,0,B|400:192,2,50,0|0|8
296,112,125326,1,0
256,24,125497,5,2
256,360,125840,1,10
256,24,126183,2,0,B|256:144,1,100,2|8
256,124,126697,6,0,B|304:224|424:192,1,200,6|0
328,224,127211,2,0,B|272:256|272:320,1,100,8|0
208,232,127554,1,0
120,192,127726,2,0,B|64:192,2,50,0|0|8
208,144,128069,1,8
296,96,128240,6,0,B|256:32|184:48,1,100
168,56,128497,1,0
120,72,128583,2,0,B|72:72|32:32,1,100,8|0
120,72,128926,5,0
216,248,129097,1,2
16,224,129269,2,0,B|80:224|136:184,1,100,8|2
208,176,129611,5,2
312,184,129783,1,0
400,240,129954,1,8
312,184,130126,1,0
288,88,130297,2,0,B|352:72|400:136,1,100,8|0
232,256,130640,2,0,B|264:304|336:288,1,100,8|8
408,344,130983,5,2
104,344,131326,1,2
256,48,131669,2,0,B|256:152,1,100,2|0
256,148,132183,6,0,B|184:240|72:176,1,200,2|0
0,120,132697,2,0,B|48:72|104:96,1,100,8|0
160,160,133040,1,8
232,232,133211,2,0,B|264:248|296:240,2,50,0|0|8
136,208,133554,1,8
48,160,133726,5,2
168,320,133897,1,0
232,128,134069,1,10
432,88,134240,1,0
352,272,134411,2,0,B|304:280|304:280|256:248,1,100,2|8
200,168,134926,5,0
168,136,135011,1,0
128,112,135097,2,0,B|72:104|24:144,2,100,2|0|8
224,96,135611,1,0
312,48,135783,2,0,B|336:96|304:152,1,100
296,192,136040,1,0
296,240,136126,1,8
296,240,136297,1,0
376,304,136469,6,0,B|336:360|256:320,1,100,2|0
208,272,136811,2,0,B|144:272|128:328,2,100,10|0|2
208,272,137497,1,8
104,264,137669,6,0,B|24:168|112:72,1,200,2|0
192,40,138183,1,8
102,82,138354,1,0
16,32,138526,1,0
102,82,138697,1,0
168,160,138869,2,0,B|200:224|168:272,1,100,8|0
96,312,139211,6,0,B|152:368|216:328,1,100
232,320,139469,1,0
264,288,139554,2,0,B|288:264|288:216,2,50,8|0|0
232,192,139897,1,0
264,96,140069,2,0,B|328:120|328:192,2,100,10|0|10
176,56,140583,6,0,B|64:24,1,100,2|0
79,28,140926,2,0,B|80:144,1,100,8|0
80,328,141269,2,0,B|192:360,1,100
176,355,141612,2,0,B|175:239,1,100,8|0
104,192,141954,5,2
288,112,142126,1,0
216,296,142297,1,10
408,256,142469,1,0
216,192,142640,2,0,B|264:216|264:216|320:200,1,100,2|8
384,152,143154,6,0,B|432:88|408:32|352:8|296:32,1,200,2|0
232,88,143669,1,8
136,88,143840,1,0
184,176,144011,2,0,B|272:224,1,100
184,272,144354,2,0,B|96:328,1,100,8|0
56,232,144697,5,0
120,160,144869,1,0
152,192,144954,1,0
192,224,145040,2,0,B|240:256|296:240,1,100,8|0
384,232,145383,5,2
208,328,145554,1,0
384,232,145726,1,10
208,136,145897,1,2
32,32,146069,6,0,B|32:88|104:112,1,100
232,152,146412,2,0,B|232:96|160:72,1,100,8|0
280,232,146755,2,0,B|280:288|352:312,1,100
480,352,147098,2,0,B|480:296|408:272,1,100,8|0
320,272,147440,5,0
232,312,147611,1,0
136,288,147783,2,0,B|80:248|88:192,1,100,8|0
16,136,148126,1,0
87,205,148297,1,0
184,224,148469,2,0,B|256:224|296:168,1,100,8|0
440,72,148811,5,0
352,112,148983,2,0,B|304:128|240:104,2,100,0|8|0
432,168,149497,2,0,B|400:224|336:232,2,100,0|0|8
440,72,150011,1,0
344,80,150183,6,0,B|344:24,2,50
352,280,150526,1,8
256,320,150697,1,0
264,224,150869,2,0,B|288:272,2,50
168,48,151211,1,8
72,80,151382,1,0
152,136,151554,6,0,B|200:160|256:120,1,100
64,176,151897,2,0,B|96:240|184:224,1,100,8|0
144,320,152240,2,0,B|208:320|232:256,1,100
280,184,152583,2,0,B|312:136|368:136,1,100,8|0
456,104,152926,5,0
363,136,153097,1,0
272,88,153269,1,8
192,144,153440,1,0
96,120,153611,2,0,B|104:64|168:48,1,100
192,144,153954,2,0,B|168:208|232:256,1,100,8|0
288,296,154297,6,0,B|320:312|360:296,2,50
192,256,154640,2,0,B|136:232|80:272,1,100,8|0
280,192,154983,2,0,B|328:240|392:208,1,100
464,256,155326,1,8
384,312,155497,1,0
384,112,155669,6,0,B|280:40,1,100
296,152,156012,2,0,B|176:120,1,100,8|0
224,224,156355,2,0,B|112:240,1,100
176,320,156698,2,0,B|80:368,1,100,8|0
176,320,157040,6,0,B|232:288|296:320,1,100
472,320,157383,2,0,B|408:344|352:304,1,100,8|0
288,264,157726,1,0
240,176,157897,1,0
112,16,158069,2,0,B|176:48|192:104,1,100,8|0
168,184,158411,5,0
200,280,158583,1,0
240,184,158754,1,8
272,280,158926,1,0
288,120,159097,5,0
344,312,159269,1,0
400,120,159440,1,8
456,312,159611,1,0
392,240,159783,6,0,B|288:168|184:256,1,200,0|8
205,239,160297,1,0
160,328,160469,2,0,B|56:256|120:144,1,200,0|8
114,154,160983,1,0
184,88,161154,2,0,B|264:176|368:128,2,200,0|8|0
88,64,162011,2,0,B|48:24|-8:32,2,100,0|8|0
144,152,162526,5,0
168,200,162611,1,0
192,248,162697,1,0
296,256,162869,2,0,B|288:320|232:336,1,100,8|0
248,168,163211,2,0,B|304:144|352:176,1,100
400,256,163554,5,8
112,336,163726,1,0
72,248,163897,6,0,B|56:272|24:272,2,50
144,184,164240,1,8
192,96,164411,2,0,B|176:40|120:24,1,100
80,112,164754,5,8
256,208,164926,1,0
432,112,165097,1,8
256,16,165269,1,4
136,144,165783,5,8
376,240,165954,1,4
376,144,166469,1,8
136,240,166640,1,4
200,216,166983,5,4
264,192,167326,1,4
256,96,167497,6,0,B|256:-16,2,100,0|8|0
256,296,168011,1,0
352,328,168182,1,0
440,280,168354,2,0,B|408:224|344:232,1,100,8|0
264,192,168697,2,0,B|312:152|296:96,1,100
200,112,169039,2,0,B|152:152|168:208,1,100,8|0
32,352,169383,6,0,B|80:312,2,50
152,192,169726,1,8
152,192,169898,1,0
32,32,170069,2,0,B|80:72,2,50
152,192,170411,2,0,B|272:192,1,100,8|0
336,240,170754,5,0
392,320,170926,1,0
336,240,171097,2,0,B|400:200|368:128,1,100,8|0
336,64,171440,1,0
376,152,171611,1,0
272,152,171783,2,0,B|160:152,1,100,8|0
172,152,172297,5,0
120,296,172469,1,8
264,248,172640,1,0
256,96,172811,1,0
400,136,172983,1,0
424,288,173154,1,8
320,184,173326,1,0
152,80,173497,6,0,B|216:184|120:264,1,200,0|8
152,80,174011,1,0
64,128,174183,2,0,B|160:200,1,100
224,344,174526,2,0,B|128:272,1,100,8|0
48,280,174869,5,0
144,284,175040,1,0
240,248,175211,1,8
312,176,175383,2,0,B|344:128|336:64,2,100
336,272,175897,2,0,B|376:336|440:336,1,100,8|0
464,224,176240,6,0,B|368:160|264:224,1,200,0|8
464,128,176754,2,0,B|368:64|264:128,1,200
464,32,177269,1,8
272,32,177440,1,0
272,32,177783,5,0
408,176,177954,1,8
288,336,178126,1,0
192,160,178297,1,8
32,280,178469,1,0
112,96,178640,1,8
280,208,178811,1,8
352,280,178983,6,0,B|392:320|456:312,2,100,0|0|8
160,280,179497,2,0,B|120:320|56:312,2,100
256,248,180011,2,0,B|256:128,1,100,8|0
256,48,180354,5,0
168,96,180526,1,0
128,192,180697,2,0,B|64:192,2,50,8|0|0
384,192,181040,2,0,B|448:192,2,50
344,288,181383,1,8
256,336,181554,1,0
152,312,181726,5,0
176,264,181811,1,0
216,232,181897,1,0
200,136,182069,2,0,B|272:136|296:184,2,100,8|0|0
104,168,182583,5,0
264,40,182754,1,8
304,240,182926,6,0,B|360:280|432:240|416:112,1,200
336,160,183440,2,0,B|272:136|232:192,1,100,8|0
216,256,183783,1,0
304,240,183954,1,0
336,160,184126,1,8
320,72,184297,1,0
168,88,184469,6,0,B|136:136|80:136,1,100
168,296,184811,2,0,B|136:248|80:248,1,100,8|0
168,192,185154,2,0,B|288:192,1,100
472,192,185497,2,0,B|352:192,1,100,8|0
272,192,185840,5,0
320,104,186011,2,0,B|264:80|216:112,2,100,0|8|0
223,107,186526,1,0
272,192,186697,1,0
248,288,186869,2,0,B|208:328|136:336,1,100,8|0
56,288,187211,6,0,B|32:344,2,50
256,64,187725,1,0
256,64,187811,1,0
256,64,187897,1,0
168,112,188069,1,0
72,128,188240,1,8
72,128,188411,2,0,B|80:208|184:240|240:184,1,200
328,200,188926,2,0,B|320:264|256:280,1,100,8|0
72,296,189269,2,0,B|192:296,1,100,8|0
376,296,189611,1,8
176,336,189954,6,0,B|88:232,1,100
208,256,190297,2,0,B|168:152,1,100,8|0
264,192,190640,2,0,B|256:80,1,100
336,152,190983,2,0,B|360:32,1,100,8|0
432,120,191326,5,0
336,152,191497,1,0
232,152,191669,2,0,B|176:136|168:64,1,100,8|0
232,152,192011,2,0,B|240:216|192:256,1,100
120,304,192354,1,8
120,304,192526,1,0
216,328,192697,6,0,B|256:368,2,50
104,160,193040,2,0,B|56:112,2,50,8|0|0
240,216,193383,5,0
104,280,193554,1,0
240,216,193726,1,8
104,280,193897,1,0
248,312,194069,6,0,B|368:312,1,100
348,312,194411,1,8
344,208,194583,2,0,B|464:208,1,100
444,208,194926,1,0
440,112,195097,2,0,B|320:112,1,100,8|0
248,152,195440,5,0
208,120,195526,1,0
160,104,195611,1,0
112,120,195697,1,0
72,152,195783,1,8
160,192,195954,1,0
160,296,196126,2,0,B|96:288|72:240,1,100
160,296,196469,2,0,B|224:288|248:240,1,100,8|0
312,56,196811,6,0,B|240:144,1,100
344,160,197154,1,8
288,240,197326,1,0
384,256,197497,2,0,B|448:224|472:136|408:80,2,200,0|8|0
384,256,198354,5,0
296,304,198526,1,8
264,264,198611,1,0
216,240,198697,2,0,B|168:216|112:240,2,100
256,144,199211,2,0,B|320:152|352:56,1,100,8|0
256,40,199554,5,4
256,344,199897,1,4
256,40,200240,1,4
256,344,200583,1,4
256,248,200754,1,0
192,168,200926,6,0,B|80:168,1,100
320,168,201269,2,0,B|432:168,1,100,8|0
144,272,201611,2,0,B|32:272,1,100
368,272,201954,2,0,B|480:272,1,100,8|0
368,272,202297,5,0
280,232,202469,1,0
288,328,202640,1,8
368,272,202811,1,0
400,176,202983,1,0
352,88,203154,1,0
256,48,203326,2,0,B|256:160,1,100,8|0
256,352,203668,5,0
256,352,203754,1,0
256,352,203839,1,0
184,280,204011,2,0,B|128:256|72:288,2,100,8|0|0
280,264,204526,1,0
352,200,204697,2,0,B|392:160|376:104,1,100,8|0
288,64,205040,6,0,B|160:64,2,100,0|0|8
32,64,205554,2,0,B|136:64,2,100
160,112,206069,1,8
160,248,206240,1,0
256,264,206411,6,0,B|304:304|360:256,1,100
344,168,206754,2,0,B|296:128|240:176,1,100,8|0
168,216,207097,5,0
304,344,207269,1,0
432,216,207440,1,8
296,88,207611,1,0
200,120,207782,6,0,B|144:136|120:184,1,100
216,208,208125,2,0,B|224:256|288:272,1,100,8|0
288,152,208468,1,0
200,120,208639,1,0
128,184,208811,2,0,B|64:208|0:176,1,100,8|0
96,32,209154,6,0,B|96:88|144:120,1,100,4|0
416,32,209497,2,0,B|360:32|328:80,1,100,4|0
416,352,209840,2,0,B|416:296|368:264,1,100,4|0
96,352,210183,2,0,B|152:352|184:304,1,100,4|0
352,192,210526,5,2
256,96,210697,1,4
160,192,210869,1,2
256,288,211040,1,4
256,192,211211,2,2,B|256:168,8,25
184,264,211898,5,2
96,216,212069,1,0
80,120,212241,1,8
144,40,212412,1,0
240,56,212583,2,0,B|232:112|176:128,1,100
256,192,212926,2,0,B|296:224|288:288,1,100,8|0
288,281,213269,6,0,B|392:224,1,100,2|0
464,280,213611,2,0,B|360:222,1,100,10|0
376,231,213954,2,0,B|376:120,1,100,2|8
368,32,214469,6,0,B|296:112|152:64,1,200,2|0
96,256,214983,2,0,B|208:224,1,100,8|0
136,144,215326,2,0,B|24:176,1,100
144,344,215669,2,0,B|256:312,1,100,8|0
336,328,216011,6,0,B|368:272|328:224,1,100
304,192,216269,1,0
272,152,216354,2,0,B|232:104|272:40,1,100,8|0
352,96,216697,5,0
240,264,216869,1,2
48,208,217040,2,0,B|112:224|160:176,1,100,8|2
192,104,217383,6,0,B|304:104,1,100,2|0
88,104,217726,2,0,B|32:104,2,50,8|0|0
192,104,218069,1,0
128,184,218240,1,0
168,272,218411,2,0,B|224:240|224:184,1,100,8|0
320,80,218754,6,0,B|368:48|424:88,1,100,2|0
416,280,219097,2,0,B|368:312|312:272,1,100,10|0
368,192,219440,2,0,B|416:176|416:176|472:192,1,100,2|8
461,190,219954,6,0,B|376:256|256:184,1,200,2|0
176,80,220469,2,0,B|160:24,2,50,8|0|0
200,176,220811,1,0
192,224,220897,1,0
160,264,220983,2,0,B|112:296|56:272,1,100,0|8
104,184,221326,1,8
272,296,221497,6,0,B|392:344,1,100,2|0
328,240,221840,2,0,B|440:240,1,100,10|2
368,168,222182,2,0,B|416:152|416:152|448:112,1,100,2|0
264,192,222698,5,0
216,200,222783,1,0
168,192,222869,2,0,B|104:176|88:120,2,100,2|0|8
256,264,223383,2,0,B|320:288|368:256,1,100
440,216,223726,2,0,B|464:168,2,50,0|0|8
440,320,224069,1,0
296,352,224240,5,2
152,312,224411,1,0
64,192,224583,1,10
152,72,224754,1,0
296,32,224926,2,0,B|352:32|352:32|392:56,1,100,2|8
456,192,225440,5,2
256,192,225783,1,0
304,112,225954,2,0,B|256:80|200:112,1,100,8|0
304,272,226297,2,0,B|352:248|352:184,1,100
160,192,226640,2,0,B|160:256|224:280,1,100,8|0
96,304,226983,5,0
96,304,227154,2,8,B|96:360,2,50,8|8|8
96,104,227497,1,0
96,200,227669,2,0,B|48:224|0:200,1,100,0|2
96,200,228011,2,0,B|160:176|208:224,1,100,8|2
280,264,228354,5,0
280,120,228526,1,0
328,280,228697,1,8
328,104,228869,1,0
376,296,229040,1,0
376,88,229211,1,0
424,312,229383,1,8
424,72,229554,1,0
472,328,229726,5,2
472,56,230069,1,10
256,192,230411,2,0,B|368:192,1,100,2|8
356,192,230926,6,0,B|256:272|144:168,1,200
48,40,231440,2,0,B|104:56|136:112,1,100,8|0
176,192,231783,1,0
136,280,231954,1,0
72,200,232126,2,0,B|56:224|32:232,2,50,8|0|0
216,64,232469,5,0
216,64,232640,2,0,B|200:32|152:32,2,50,0|0|8
408,128,232983,1,0
320,304,233154,1,8
160,184,233326,1,2
32,336,233497,1,8
64,136,233669,1,10
256,192,233839,6,0,B|312:160|312:96,1,100,2|0
208,272,234183,2,0,B|208:216|272:184,1,100,8|0
184,376,234526,1,0
120,304,234697,2,0,B|96:248|136:208,1,100,0|8
248,48,235040,6,0,B|304:32,2,50
152,64,235383,1,0
56,48,235554,1,8
56,96,235640,1,0
72,144,235726,1,0
104,176,235811,1,0
152,192,235897,2,0,B|208:216|272:168,1,100
448,176,236240,2,0,B|408:144|336:160,1,100,8|0
296,240,236583,5,0
392,264,236754,1,0
296,240,236926,1,8
216,296,237097,1,0
216,296,237183,1,0
216,296,237269,1,0
160,216,237440,2,0,B|120:256|128:312,1,100,0|8
48,120,237783,5,0
96,136,237869,1,0
144,136,237954,2,0,B|192:136|232:96,1,100
328,56,238297,2,0,B|320:32|288:16,2,50,8|0|0
344,104,238554,1,0
336,152,238640,1,0
304,192,238726,1,0
264,216,238811,1,0
224,248,238897,1,0
192,288,238983,2,0,B|160:328|176:384,1,100,8|0
256,320,239326,6,0,B|320:328|344:272,2,100,0|0|8
256,216,239840,1,0
256,120,240011,2,0,B|192:112|168:168,2,100,0|0|8
184,48,240526,5,0
136,64,240611,1,0
104,104,240697,2,0,B|72:152|112:208,1,100
104,296,241040,2,0,B|168:288|192:240,1,100,8|0
200,152,241383,2,0,B|264:168|272:224,1,100
272,312,241726,2,0,B|336:304|360:240,1,100,8|0
368,160,242069,5,2
448,224,242240,1,0
368,160,242411,2,0,B|336:112|360:56,1,100,10|0
272,120,242754,2,0,B|224:104|224:104|176:128,1,100,2|8
80,136,243269,5,0
104,176,243354,1,0
144,208,243440,2,0,B|232:272|336:224,2,200,2|10|2
152,304,244297,5,8
248,128,244469,1,0
344,304,244640,1,8
328,208,244811,6,0,B|432:168,1,100,2|0
184,208,245154,2,0,B|80:168,1,100,8|0
256,288,245497,2,0,B|256:368,4,50,0|0|0|0|8
264,184,246011,5,0
288,136,246097,1,0
328,104,246183,2,0,B|376:80|432:104,1,100
376,192,246526,1,8
328,104,246697,1,0
240,56,246869,2,0,B|264:32|288:24,2,50
160,120,247211,2,0,B|104:152|48:128,1,100,8|0
104,224,247554,5,0
184,288,247726,1,0
256,224,247897,1,8
256,120,248069,2,0,B|256:72,2,50
256,224,248411,1,0
336,288,248583,1,8
416,224,248754,1,0
448,128,248926,5,0
256,64,249097,1,0
344,112,249268,1,8
304,144,249354,1,0
256,160,249439,1,0
208,144,249525,1,0
168,112,249611,1,0
72,96,249783,2,0,B|56:48|-8:16,2,100,0|8|0
56,296,250297,6,0,B|104:328|160:296,1,100,2|0
200,216,250640,2,0,B|152:184|96:216,1,100,10|0
248,304,250983,2,0,B|296:328|296:328|344:304,1,100,2|8
304,160,251497,5,0
304,160,251583,1,0
304,160,251669,2,0,B|256:128|256:64,1,100,2|0
360,80,252011,2,0,B|408:48|456:80,1,100,10|0
408,168,252354,2,0,B|408:224|408:224|368:256,1,100,2|8
256,328,252869,5,0
256,328,252954,1,0
256,328,253040,2,0,B|152:328,1,100,2|0
96,248,253383,2,0,B|224:248,1,100,10|0
312,168,253726,2,0,B|184:168,1,100,2|2
0,88,254069,2,0,B|112:88,1,100,8|2
256,40,254411,6,0,B|232:88|256:144,1,100
256,344,254754,2,0,B|280:296|256:248,1,100,10|0
336,192,255097,2,0,B|384:208|384:208|432:192,2,100,2|8|0
256,240,255954,5,2
256,344,256125,1,2
256,240,256297,1,2
176,192,256469,2,0,B|128:208|128:208|80:192,2,100,0|10|2
264,136,257326,5,0
312,48,257497,2,0,B|368:88|352:144,1,100,8|0
360,232,257840,2,0,B|416:280|472:256,2,100,0|0|8
256,240,258354,1,0
200,328,258526,6,0,B|104:280,1,100
24,232,258869,2,0,B|120:288,1,100,8|0
200,248,259211,1,0
240,152,259383,1,0
200,56,259554,1,8
160,152,259726,1,0
256,264,259897,6,0,B|312:264|336:320,1,100
328,192,260240,2,0,B|432:192,1,100,8|0
256,120,260583,2,0,B|312:120|336:64,1,100
176,192,260926,1,8
72,192,261097,1,0
104,288,261269,6,0,B|144:336|200:320,1,100
280,272,261611,1,8
192,321,261783,1,0
184,224,261954,1,0
272,168,262126,2,0,B|336:168|368:216,2,100,0|8|0
96,72,262640,6,0,B|120:136|176:136,1,100
248,80,262983,2,0,B|320:72|344:128,1,100,8|0
384,200,263326,1,0
344,288,263498,1,0
248,320,263669,1,8
152,296,263840,1,0
80,232,264011,6,0,B|128:136,1,100
224,112,264354,2,0,B|168:224,1,100,8|0
136,112,264697,2,0,B|32:80,1,100
168,224,265040,2,0,B|272:256,1,100,8|0
360,288,265383,6,0,B|392:320|432:312,2,66.6666666666667
328,224,265726,2,0,B|320:184|272:176,2,66.6666666666667
392,232,266069,2,0,B|432:240|464:208,2,66.6666666666667
368,168,266411,2,0,B|352:136|376:104,2,66.6666666666667
256,88,267097,6,0,B|256:272,1,150,4|0
