osu file format v5

[General]
AudioFilename: Beat Crusaders - Hit in the USA.mp3
AudioLeadIn: 507
PreviewTime: 0
Countdown: 0
SampleSet: Soft
StackLeniency: 1
Mode: 0
LetterboxInBreaks: 1
EditorDistanceSpacing: 1

[Metadata]
Title:Hit in the USA
Artist:Beat Crusaders
Creator:naruti
Version:Tieff in the USA
Source:
Tags:beck hit in the USA Beat crusaders

[Difficulty]
HPDrainRate:4
CircleSize:4
OverallDifficulty:6
SliderMultiplier:1.6
SliderTickRate:2

[Events]
//Background and Video events
0,0,"[AnimePaper]wallpapers_BECK_supermonchi_-edit237.jpg"
//Break Periods
//Storyboard Layer 0 (Background)
//Storyboard Layer 1 (Failing)
//Storyboard Layer 2 (Passing)
//Storyboard Layer 3 (Foreground)
//Storyboard Sound Samples
//Background Colour Transformations
3,100,163,162,255

[TimingPoints]
1150,352.941176470588,4,2,1,87,1,0
6268,-100,4,1,1,100,0,1
6798,352.941176470588,4,1,1,86,1,0
9380,-100,4,1,1,87,0,0
12092,-100,4,1,1,100,0,1
12445,-100,4,1,1,88,0,0
15268,-200,4,1,1,88,0,0
15621,-100,4,1,1,100,0,0
16792,-100,4,2,1,83,0,1
17915,-100,4,2,1,83,0,0
18356,-100,4,1,1,87,0,0
18533,-100,4,2,1,87,0,0
19062,-100,4,1,1,87,0,0
19239,-100,4,2,1,87,0,0
19768,-100,4,1,1,87,0,0
19945,-100,4,2,1,87,0,0
20121,-100,4,1,1,87,0,0
20739,-100,4,2,1,87,0,0
21180,-100,4,1,1,87,0,0
21356,-100,4,2,1,87,0,0
21886,-100,4,1,1,87,0,0
22062,-100,4,2,1,87,0,0
22592,-100,4,1,1,87,0,0
22768,-100,4,2,1,87,0,0
22945,-100,4,1,1,87,0,0
23562,-100,4,2,1,87,0,0
24003,-100,4,1,1,87,0,0
24180,-100,4,2,1,87,0,0
24709,-100,4,1,1,87,0,0
24886,-100,4,2,1,87,0,0
25415,-100,4,1,1,87,0,0
25592,-100,4,2,1,87,0,0
25768,-100,4,1,1,87,0,0
28150,-100,4,2,1,100,0,1
28680,-100,4,1,1,87,0,0
29650,-100,4,2,1,87,0,0
29827,-100,4,1,1,87,0,0
30268,-100,4,2,1,81,0,0
30533,-100,4,1,1,87,0,0
30709,-100,4,2,1,87,0,0
30886,-100,4,1,1,87,0,0
31062,-100,4,2,1,87,0,0
31239,-100,4,1,1,87,0,0
32474,-100,4,2,1,87,0,0
32650,-100,4,1,1,87,0,0
33003,-100,4,2,1,87,0,0
33356,-100,4,1,1,87,0,0
33533,-100,4,2,1,87,0,0
33709,-100,4,1,1,87,0,0
33886,-100,4,2,1,87,0,0
34062,-100,4,1,1,87,0,0
35121,-100,4,1,1,87,0,0
35297,-100,4,2,1,87,0,0
35474,-100,4,1,1,87,0,0
37680,-100,4,1,1,100,0,0
39445,-100,4,2,1,100,0,0
40680,-100,4,1,1,92,0,1
43503,-100,4,1,1,68,0,0
46327,-100,4,1,1,94,0,0
49150,-100,4,1,1,85,0,0
51974,-100,4,1,1,93,0,0
54798,-100,4,1,1,100,0,0
54798,-100,4,1,1,87,0,0
55150,-100,4,1,1,81,0,1
55503,-100,4,1,1,81,0,0
55856,-100,4,1,1,81,0,1
56209,-100,4,1,1,81,0,0
56209,-100,4,1,1,81,0,0
56562,-100,4,1,1,81,0,1
56915,-100,4,1,1,81,0,0
57268,-100,4,1,1,81,0,0
57621,-100,4,1,1,81,0,0
57974,-100,4,1,1,81,0,1
58327,-100,4,1,1,81,0,0
58680,-100,4,1,1,81,0,1
59033,-100,4,1,1,81,0,0
59386,-100,4,1,1,81,0,0
59650,-100,4,1,1,100,0,1
64150,-100,4,1,1,93,0,0
65871,352.941176470588,4,1,1,100,1,1
66974,352.941176470588,4,1,1,93,1,0
73326,-100,4,2,1,94,0,0
74562,-100,4,1,1,100,0,1
77190,-100,4,1,1,100,0,0
80033,-100,4,1,1,100,0,0
86209,-50,4,1,1,100,0,0
89827,-100,4,1,1,100,0,0
91856,-100,4,1,1,100,0,0

[Colours]
Combo1 : 255,255,0
Combo2 : 255,0,128
Combo3 : 128,0,255
Combo4 : 255,255,255

[HitObjects]
96,64,1502,1,8
416,64,2208,1,8
256,344,2914,1,8
256,104,3444,1,0
256,104,3620,1,0
432,344,4326,5,0
112,344,5032,1,0
256,56,5738,1,0
256,296,6267,2,0,B|256:200,1,80
120,128,6798,6,0,B|288:128,1,160,2|8
360,128,7327,1,2
440,128,7503,1,2
440,288,7856,1,8
360,288,8033,5,2
216,216,8386,1,2
240,144,8562,1,8
280,64,8739,2,0,B|328:48|392:48,2,80,2|2|0
280,64,9268,1,10
120,72,9621,6,0,B|216:72,1,80,0|2
200,152,9974,2,0,B|112:152,1,80,8|2
120,232,10327,2,0,B|296:232,1,160,2|10
336,176,10856,1,2
440,56,11209,1,2
432,216,11562,1,2
392,288,11739,1,0
320,320,11915,2,0,B|264:352|216:320,1,80,2|8
296,184,12445,6,0,B|208:176|176:72,1,160,0|8
96,88,12974,2,0,B|96:184,1,80,0|2
96,248,13327,1,0
96,328,13503,1,8
176,328,13680,6,0,B|240:272,1,80,2|0
296,328,14033,2,0,B|232:272,1,80,0|2
176,224,14386,2,0,B|240:280,1,80,2|2
296,216,14739,2,0,B|232:280,1,80,2|2
320,272,15092,6,0,B|360:272|392:208,1,80
408,64,15621,1,4
336,104,15797,1,4
264,136,15974,1,4
184,152,16150,1,4
104,144,16327,2,0,B|48:144|24:104,1,80
104,256,16856,6,0,B|192:256,1,80,2|2
344,264,17386,2,0,B|432:88,1,160,2|2
360,64,18092,5,0
296,112,18268,1,0
232,160,18445,2,0,B|184:192|128:192,1,80
160,112,18797,1,0
224,64,18974,1,0
296,112,19150,1,0
232,160,19327,1,0
296,208,19503,5,0
368,168,19680,1,0
432,216,19856,1,0
400,288,20033,1,0
320,288,20209,2,0,B|224:288,1,80
104,88,20915,5,0
152,152,21092,1,0
208,96,21268,2,0,B|248:64|296:104,1,80
336,152,21621,1,0
400,112,21797,1,0
432,184,21974,2,0,B|440:256|376:264,1,80
328,264,22327,1,0
248,240,22503,1,0
184,288,22680,1,0
120,240,22856,1,0
64,176,23033,2,0,B|48:128|120:104,2,80
224,152,23739,6,0,B|320:152,1,80
384,152,24092,2,0,B|296:152,1,80
224,152,24445,2,0,B|224:64,1,80
144,72,24797,2,0,B|232:72,1,80
304,72,25150,1,0
384,72,25327,1,0
384,152,25503,2,0,B|384:240,1,80
304,232,25856,2,0,B|200:232,1,80
224,232,26209,2,0,B|120:232,1,80
80,176,26562,2,0,B|80:128|160:88|208:88|208:88|200:104|200:104,1,160
280,112,27092,5,0
344,160,27268,1,0
392,224,27445,1,0
392,304,27621,2,0,B|352:352|304:328,1,80
144,168,28856,6,0,B|144:64,1,80
304,64,29386,6,0,B|408:64,1,80,2|2
384,144,29739,1,0
384,224,29915,2,0,B|272:224,1,80,2|2
224,224,30268,1,0
144,224,30445,1,0
64,224,30621,2,0,B|64:136,1,80,2|0
64,64,30974,1,2
144,64,31150,1,0
224,64,31327,2,0,B|328:64,3,80,2|2|2|2
440,144,32209,5,2
408,216,32386,1,2
352,272,32562,1,0
280,304,32739,2,0,B|240:328|192:328,2,80,2|2|0
352,272,33268,1,0
408,216,33445,1,2
440,144,33621,1,0
392,80,33797,1,2
312,64,33974,2,0,B|256:48|224:88,1,80,0|2
160,96,34327,1,2
112,160,34503,1,2
160,224,34680,1,2
200,296,34856,6,0,B|256:304|256:240,1,80,2|2
256,176,35209,1,2
256,96,35386,1,0
336,96,35562,2,0,B|376:144|320:184,1,80,2|2
256,176,35915,1,0
256,96,36092,1,0
176,96,36268,1,2
112,144,36445,1,0
104,240,36621,1,2
160,296,36797,2,0,B|200:328|256:280,1,80
312,296,37150,2,0,B|368:232,1,80
368,152,37503,2,0,B|368:72|320:64|248:96,1,160
96,88,38209,5,0
144,152,38386,1,0
208,192,38562,1,0
288,208,38739,1,0
368,200,38915,2,0,B|416:176|424:136,1,80
112,80,40680,5,2
112,240,41033,1,8
192,240,41209,2,0,B|288:240,1,80,2|2
432,240,41739,1,8
432,160,41915,1,2
296,80,42268,1,2
216,80,42445,1,8
136,80,42621,2,0,B|48:80,1,80,2|2
136,80,42974,2,0,B|232:80,1,80,2|2
400,304,43503,5,2
400,144,43856,1,8
320,144,44032,2,0,B|224:144,1,80,2|2
80,144,44562,1,8
80,224,44738,1,2
216,304,45091,1,2
296,304,45268,1,8
376,304,45444,2,0,B|464:304,1,80,2|2
376,304,45797,2,0,B|280:304,1,80,2|2
360,160,46327,6,0,B|360:72,1,80,2|0
280,80,46680,2,0,B|280:168,1,80,8|2
200,152,47033,2,0,B|200:64,1,80,2|0
120,72,47386,2,0,B|120:168,1,80,8|2
120,312,47915,1,2
200,312,48092,1,0
280,312,48268,2,0,B|280:224,1,80,2|2
280,152,48621,2,0,B|280:240,1,80,2|2
376,104,49150,6,0,B|376:200,1,80
376,104,49503,1,0
376,184,49680,2,0,B|376:296,1,80
376,184,50033,1,0
376,264,50209,2,0,B|376:352,1,80
272,280,50650,5,0
272,280,50739,2,0,B|216:280|160:248,1,80
128,216,51092,1,0
128,216,51180,1,0
128,216,51268,2,0,B|80:160|80:128,1,80
84,149,51621,1,4
304,64,51974,6,0,B|400:64,1,80
304,64,52327,2,0,B|304:240,1,160,2|0
304,224,52856,1,0
304,224,53033,2,0,B|112:224,1,160,2|0
144,144,53562,1,0
144,64,53739,2,0,B|320:64,2,160,2|0|2
144,224,54797,5,0
224,224,54974,1,0
304,224,55150,2,8,B|488:224,1,160,2|0
464,144,55680,1,0
384,144,55856,2,0,B|200:144,1,160,2|0
192,64,56386,5,0
128,112,56562,1,2
72,176,56739,2,0,B|40:240|80:280,3,80
216,288,57621,5,0
296,288,57797,1,0
296,208,57974,2,0,B|472:208,1,160,2|0
456,288,58503,1,0
456,208,58680,2,0,B|456:32,1,160,2|0
376,48,59209,1,0
296,48,59386,2,0,B|296:216,1,160,2|0
296,208,59915,5,0
224,248,60092,1,0
160,200,60268,1,0
160,128,60445,6,0,B|192:96|248:40|296:48|328:48,1,160
376,48,60974,1,0
376,128,61150,1,0
376,208,61327,1,0
376,288,61503,2,0,B|376:376,1,80
112,72,63268,5,2
192,72,63445,1,0
272,72,63621,1,2
328,128,63797,1,0
272,184,63974,1,2
192,184,64150,1,0
112,184,64327,1,2
56,240,64503,1,0
112,296,64680,5,2
192,296,64856,1,0
272,296,65033,1,2
328,240,65209,1,0
272,184,65386,1,2
328,240,65562,1,0
272,296,65739,6,0,B|168:296,1,80,2|0
192,232,66091,2,0,B|280:232,1,80,2|0
192,232,66444,2,0,B|104:232,1,80,2|0
112,152,66797,2,0,B|112:240,1,80,2|0
112,152,67150,2,0,B|112:64,1,80,2|0
192,64,67503,5,2
272,64,67679,1,0
272,144,67856,1,2
352,144,68032,1,0
352,224,68209,1,2
432,224,68385,1,0
352,224,68562,1,2
352,304,68738,1,0
272,304,68915,6,0,B|184:304,1,80,2|0
112,304,69268,2,2,B|200:304,1,80,2|0
192,224,69621,2,0,B|280:224,1,80,2|0
192,224,69974,2,0,B|104:224,1,80,2|0
112,144,70326,2,0,B|208:144,1,80,2|0
272,144,70679,2,0,B|184:144,1,80,2|0
192,64,71032,2,0,B|288:64,1,80
192,64,71385,2,0,B|104:64,1,80
112,64,71738,6,0,B|24:56|32:152|40:216|40:216,1,160
72,248,72268,1,0
136,288,72444,1,0
216,296,72621,1,0
296,296,72797,2,0,B|384:296,1,80
112,80,74562,5,2
112,240,74915,1,8
192,240,75091,2,0,B|288:240,1,80,2|2
432,240,75621,1,8
432,160,75797,1,2
296,80,76150,1,2
216,80,76327,1,8
136,80,76503,2,0,B|48:80,1,80,2|2
136,80,76856,2,0,B|232:80,1,80,2|2
400,304,77385,5,2
400,144,77738,1,8
320,144,77914,2,0,B|224:144,1,80,2|2
80,144,78444,1,8
80,224,78620,1,2
216,304,78973,1,2
296,304,79150,1,8
376,304,79326,2,0,B|464:304,1,80,2|2
376,304,79679,2,0,B|280:304,1,80,2|2
360,160,80209,6,0,B|360:72,1,80,2|0
280,80,80562,2,0,B|280:168,1,80,8|2
200,152,80915,2,0,B|200:64,1,80,2|0
120,72,81268,2,0,B|120:168,1,80,8|2
120,312,81797,1,2
200,312,81974,1,0
280,312,82150,2,0,B|280:224,1,80,2|2
280,152,82503,2,0,B|280:240,1,80,2|2
120,72,83032,5,0
120,72,83209,1,0
120,72,83385,1,0
320,72,83562,1,0
448,160,83915,1,0
408,224,84091,1,0
352,280,84268,1,0
280,304,84444,2,0,B|176:304,1,80
144,240,84797,5,0
144,160,84973,1,0
384,64,86209,6,0,B|384:232,1,160
128,320,86915,6,0,B|128:152,1,160
224,64,87621,6,0,B|424:64,1,160
288,320,88326,6,0,B|88:320,1,160
128,88,89915,5,2
208,88,90091,1,2
208,168,90268,1,0
288,168,90444,1,2
288,248,90621,1,2
368,248,90797,1,0
448,248,90973,2,0,B|448:72,1,160,2|2
368,88,91503,6,0,B|280:88,1,80
208,88,91856,2,0,B|112:88,1,80
88,160,92209,2,0,B|192:160,1,80
256,160,92562,2,0,B|344:160,1,80
376,232,92915,2,0,B|288:232,1,80
216,232,93268,2,0,B|128:232,1,80
104,304,93621,2,0,B|192:304,1,80
264,304,93973,2,0,B|360:304,1,80
424,304,94326,2,0,B|424:48,1,240
80,192,95738,5,0
256,192,95915,1,4
432,192,96444,5,0
256,192,96621,1,4
256,192,97150,5,4
