osu file format v5

[General]
AudioFilename: Beat Crusaders - Hit in the USA.mp3
AudioLeadIn: 0
PreviewTime: -1
Countdown: 0
SampleSet: Normal
StackLeniency: 0.7
Mode: 1
LetterboxInBreaks: 1

[Metadata]
Title:Hit in the USA
Artist:Beat Crusaders
Creator:naruti
Version:Taiko in Japan
Source:
Tags:beck hit in the USA Beat crusaders

[Difficulty]
HPDrainRate:5
CircleSize:4
OverallDifficulty:6
SliderMultiplier:1.6
SliderTickRate:4

[Events]
//Background and Video events
0,0,"[AnimePaper]wallpapers_BECK_supermonchi_-edit237.jpg"
//Break Periods
//Storyboard Layer 0 (Background)
//Storyboard Layer 1 (Failing)
//Storyboard Layer 2 (Passing)
//Storyboard Layer 3 (Foreground)
//Storyboard Sound Samples
//Background Colour Transformations
3,100,163,162,255

[TimingPoints]
1151,352.941176470588,4,1,1,69,1,0

[Colours]
Combo1 : 0,213,0
Combo2 : 213,181,0
Combo3 : 0,0,213
Combo4 : 213,0,0

[HitObjects]
64,288,1151,1,0
256,288,1680,1,0
256,288,1856,1,8
448,288,2386,1,0
448,160,2739,1,0
320,160,3092,1,0
320,160,3268,1,2
192,160,3621,1,0
64,160,3974,5,0
256,160,4503,1,0
256,160,4680,1,8
448,160,5210,1,0
448,160,5562,1,0
256,160,6092,1,0
256,160,6268,5,12
256,160,6445,1,4
256,32,6798,5,4
128,160,7327,1,4
128,160,7503,1,12
192,352,8033,1,4
320,352,8386,1,4
416,256,8739,1,4
416,256,8915,1,12
352,128,9268,1,4
448,32,9621,5,4
256,32,10150,1,4
256,32,10326,1,12
64,32,10856,1,4
160,128,11209,1,4
128,256,11562,1,4
128,256,11738,1,12
256,192,12092,5,4
448,128,12445,5,4
256,128,12974,1,4
256,128,13150,1,12
64,128,13680,1,4
160,224,14033,1,4
128,352,14386,1,4
128,352,14562,1,12
256,320,14915,1,4
288,256,15268,6,12,B|303:223|354:119,1,80
352,128,15798,5,4
352,128,15974,1,4
352,128,16150,1,12
352,128,16327,1,12
352,128,16503,1,4
352,256,16856,5,4
352,192,17033,1,12
352,256,17386,1,12
352,256,17562,1,4
352,256,17739,1,12
480,32,18974,5,8
480,96,19150,1,0
480,160,19327,1,0
480,224,19503,1,0
480,224,19856,2,0,B|480:32,2,160,0|0|0
160,96,21798,5,8
224,64,21974,1,0
256,128,22150,1,0
192,160,22327,1,0
128,32,22680,2,0,B|256:192,2,160
448,256,24621,5,8
384,256,24798,1,0
416,192,24974,1,0
352,192,25151,1,0
352,192,25504,2,0,B|502:323,2,160
288,160,26562,5,8
288,160,26739,1,8
256,128,27092,5,4
256,128,27268,1,4
256,128,27445,1,12
256,128,27621,1,12
256,128,27798,1,4
128,96,28150,5,4
192,96,28327,1,12
320,96,28680,1,12
384,96,28856,1,4
448,96,29033,1,12
32,288,30268,5,8
96,256,30445,1,0
128,320,30621,1,0
64,352,30798,1,0
160,256,31150,2,0,B|32:320|-4:338,2,160
256,256,33092,5,8
320,224,33268,1,0
384,256,33445,1,0
448,224,33621,1,0
448,224,33974,2,0,B|256:256,2,160
354,30,35915,5,8
289,30,36092,1,0
225,32,36268,1,0
160,32,36445,1,0
160,32,36798,2,0,B|325:34,2,160,0|0|0
288,224,37856,5,12
288,224,38033,1,12
352,128,38386,5,4
352,128,38562,1,4
352,128,38738,1,12
352,128,38915,1,12
352,128,39091,1,4
224,288,39445,5,4
288,288,39621,1,12
160,288,39974,1,12
224,288,40150,1,4
288,288,40327,1,12
256,192,40680,5,0
128,224,41033,1,0
32,128,41386,1,8
128,64,41739,1,4
128,64,41915,1,12
256,64,42268,1,0
256,192,42621,1,0
256,192,42798,1,0
256,192,42974,1,8
256,192,43150,1,0
256,192,43503,5,0
128,224,43856,1,0
32,128,44209,1,8
128,64,44562,1,4
128,64,44738,1,12
256,64,45091,1,0
256,192,45444,1,0
256,192,45621,1,0
256,192,45797,1,8
256,192,45973,1,0
256,192,46327,5,0
128,224,46680,1,0
32,128,47033,1,8
128,64,47386,1,4
128,64,47562,1,12
256,64,47915,1,0
256,192,48268,1,0
256,192,48445,1,0
256,192,48621,1,8
256,192,48797,1,0
167,286,49150,5,0
230,280,49327,1,8
289,258,49503,1,0
314,199,49680,1,8
295,137,49856,1,0
234,115,50033,1,0
169,130,50209,1,8
128,179,50386,1,8
145,240,50562,1,0
130,177,50739,5,0
170,127,50915,1,8
233,116,51092,1,8
293,135,51268,1,0
311,196,51445,1,0
288,255,51621,1,0
224,192,51974,5,8
224,192,52062,1,8
224,192,52150,1,8
224,192,52327,1,4
224,192,52680,5,8
224,192,52768,1,8
224,192,52856,1,8
224,192,53033,1,4
224,192,53386,5,8
224,192,53474,1,8
224,192,53562,1,8
224,192,53739,1,4
224,192,54092,5,8
224,192,54180,1,8
224,192,54268,1,8
224,192,54445,1,4
96,96,54798,5,0
128,32,54974,1,8
192,64,55150,1,0
96,96,55503,5,0
128,32,55679,1,8
192,64,55855,1,0
96,96,56209,5,0
128,32,56385,1,8
192,64,56561,1,0
96,96,56915,5,0
128,32,57091,1,8
192,64,57267,1,0
96,96,57621,5,0
128,32,57797,1,8
192,64,57973,1,0
96,96,58327,5,0
128,32,58503,1,8
192,64,58679,1,0
96,96,59033,5,0
128,32,59209,1,8
192,64,59385,1,0
320,256,59739,5,12
320,256,59915,1,4
347,179,60269,5,4
347,179,60445,5,4
347,179,60621,5,12
347,179,60798,5,12
347,179,60974,5,4
347,179,61150,5,4
347,179,61327,5,12
347,179,61503,5,12
347,179,61680,5,4
320,288,62033,5,4
256,288,62209,1,12
384,288,62562,1,12
320,288,62739,1,4
256,288,62915,1,12
288,224,64150,5,0
224,224,64326,1,0
224,160,64503,1,0
288,160,64679,1,8
256,32,65032,2,0,B|256:224,2,160
256,32,65915,5,0
32,320,66974,5,0
32,256,67150,1,0
32,320,67327,1,0
32,256,67503,1,8
32,128,67856,2,0,B|32:320,2,160
256,96,69798,5,0
224,32,69975,1,0
192,96,70151,1,0
160,32,70328,1,8
160,32,70681,2,0,B|325:34,2,160,0|0|0
256,224,71739,5,8
256,224,71827,1,8
256,224,71915,1,8
256,224,72003,1,8
352,128,72269,5,4
352,128,72445,1,4
352,128,72621,1,12
352,128,72798,1,4
352,128,72974,1,4
32,160,73327,5,4
96,160,73503,1,12
224,160,73856,1,12
288,160,74033,1,4
352,160,74209,1,12
256,192,74562,5,0
128,224,74915,1,0
32,128,75268,1,0
128,64,75621,1,4
128,64,75797,1,12
256,64,76150,1,8
256,192,76503,1,0
256,192,76680,1,0
256,192,76856,1,8
256,192,77032,1,0
360,117,77385,5,8
256,191,77738,1,8
154,113,78091,1,8
102,230,78444,1,4
105,231,78620,1,12
155,113,78973,1,8
255,192,79326,1,8
256,192,79503,1,8
256,192,79679,1,0
256,192,79855,1,8
256,192,80209,5,0
128,224,80562,1,0
32,128,80915,1,0
128,64,81268,1,4
128,64,81444,1,12
256,64,81797,1,8
256,192,82150,1,0
256,192,82327,1,0
256,192,82503,1,8
256,192,82680,12,8,84092
256,192,84445,12,4,85856
256,192,86209,5,0
256,192,86298,1,0
256,192,86386,1,0
256,192,86474,1,0
32,192,86739,1,0
96,192,86915,1,0
96,192,87092,1,8
96,192,87268,1,8
256,192,87621,5,0
256,192,87710,1,0
256,192,87798,1,0
256,192,87886,1,0
288,224,88327,1,0
288,288,88503,2,0,B|32:288|32:32|352:32,1,480
416,32,89915,5,8
416,96,90092,1,8
416,224,90445,1,0
416,224,90621,1,0
416,224,90798,1,8
416,224,90974,1,0
416,224,91150,1,8
416,224,91327,1,0
288,160,91680,5,8
288,160,91856,1,8
288,160,92033,1,0
288,160,92209,1,8
288,256,92386,1,8
288,320,92562,2,0,B|96:320,1,160
288,160,93092,5,0
288,160,93268,1,0
288,160,93445,1,0
288,160,93621,1,8
288,256,93798,1,8
256,192,93974,12,0,95386
64,64,95562,5,12
128,64,95739,1,4
256,64,96092,1,4
384,64,96445,1,12
320,64,96621,1,4
384,64,96798,1,12
416,192,97150,5,8
256,288,97679,1,0
256,288,97855,1,8
64,288,98385,1,8
64,160,98738,1,8
192,160,99091,1,0
192,160,99267,1,8
320,160,99620,1,8
416,192,99974,5,8
256,288,100503,1,0
256,288,100679,1,8
64,288,101209,1,8
64,160,101562,1,8
192,160,101915,1,0
192,160,102091,1,8
320,160,102444,5,12
416,192,102798,5,12
256,288,103327,1,4
256,288,103503,1,12
64,288,104033,1,12
64,160,104386,1,12
192,160,104739,1,4
192,160,104915,1,12
320,160,105268,1,12
416,192,105621,5,12
256,288,106150,1,4
256,288,106326,1,12
64,288,106856,1,12
64,160,107209,1,12
192,160,107562,1,4
192,160,107738,1,12
320,160,108091,1,12
256,160,108356,5,0
256,160,108445,1,0
256,160,108533,1,0
256,160,108621,1,0
256,160,108709,1,0
256,160,108798,1,0
256,160,108974,5,0
256,160,109062,1,0
256,160,109150,1,0
256,160,109239,1,0
256,160,109327,1,0
256,160,109415,1,0
256,160,109503,1,0
256,160,109680,5,12
256,160,110033,5,4
256,160,110209,1,4
256,160,110386,1,4
256,160,110562,1,12
256,160,110739,1,12
256,160,110915,1,12
128,160,111268,5,0
128,160,111445,1,0
128,160,111621,1,0
128,160,111798,1,8
128,160,112150,1,4
128,160,112327,1,12
128,160,112680,5,0
128,160,112857,1,0
128,160,113033,1,0
128,160,113210,1,8
128,160,113562,1,4
128,160,113739,1,12
64,64,114445,5,8
448,64,115151,1,8
448,320,115856,1,8
256,192,116386,5,4
256,192,116562,1,12
64,320,117268,5,8
64,64,117973,1,8
448,64,118680,1,8
256,192,119209,5,4
256,192,119386,1,12
448,320,120092,5,8
64,320,120797,1,8
64,64,121503,1,8
256,192,122033,5,4
256,192,122209,1,12
64,320,122915,5,8
448,320,123620,1,8
448,64,124327,1,8
256,192,124856,5,4
256,192,125033,1,12
64,320,125739,5,8
448,320,126444,1,8
448,64,127151,1,8
256,192,127680,5,4
256,192,127857,1,12
64,320,128562,5,8
448,320,129267,1,8
448,64,129974,1,8
256,192,130503,5,4
256,192,130680,1,12
224,64,131033,1,8
224,64,131209,1,8
224,64,131386,1,8
224,64,131562,1,8
224,64,131739,1,8
224,64,131915,1,8
224,64,132092,1,8
224,64,132268,1,8
224,64,132445,1,8
224,64,132621,1,8
224,64,132798,1,8
224,64,132974,1,8
224,64,133327,1,4
224,64,133503,1,4
256,192,133856,5,4
256,192,134209,1,4
256,192,134562,1,4
256,192,134915,1,4
256,192,135268,1,4
256,192,135621,1,4
256,192,135974,1,4
256,192,136327,1,4
256,192,136680,5,0
128,224,137033,1,0
32,128,137386,1,0
128,64,137739,1,4
128,64,137915,1,12
256,64,138268,1,8
256,192,138621,1,0
256,192,138798,1,0
256,192,138974,1,8
256,192,139150,1,0
360,117,139503,5,8
256,191,139856,1,8
154,113,140209,1,8
102,230,140562,1,4
105,231,140738,1,12
155,113,141091,1,8
255,192,141444,1,8
256,192,141621,1,8
256,192,141797,1,0
256,192,141973,1,8
256,192,142327,5,0
128,224,142680,1,0
32,128,143033,1,0
128,64,143386,1,4
128,64,143562,1,12
256,64,143915,1,8
256,192,144268,1,0
256,192,144445,1,0
256,192,144621,1,8
256,192,144797,1,0
256,192,146562,5,8
256,192,146739,5,0
256,192,146915,5,0
256,192,147003,1,0
256,192,147092,1,0
256,192,147180,1,0
256,192,147268,1,0
256,192,147356,1,0
256,192,147445,1,0
256,192,147533,1,0
256,192,147621,1,0
256,192,147974,5,0
128,224,148327,1,0
32,128,148680,1,0
128,64,149033,1,4
128,64,149209,1,12
256,64,149562,1,8
256,192,149915,1,0
256,192,150092,1,0
256,192,150268,1,8
256,192,150444,1,0
384,192,150798,5,8
288,96,151151,5,8
192,192,151503,5,0
288,288,151856,5,0
384,192,152209,5,8
288,96,152562,5,8
192,192,152915,5,0
288,288,153268,5,0
256,192,153621,5,0
128,224,153974,1,0
32,128,154327,1,0
128,64,154680,1,4
128,64,154856,1,12
256,64,155209,1,8
256,192,155562,1,0
256,192,155739,1,0
256,192,155915,1,8
256,192,156091,1,0
288,128,156445,5,8
224,128,156798,1,8
224,192,157150,1,0
288,192,157503,1,0
288,64,157856,5,8
160,64,158209,1,8
160,192,158562,1,0
288,192,158915,1,0
256,192,159268,5,0
128,224,159621,1,0
32,128,159974,1,0
128,64,160327,1,4
128,64,160503,1,12
256,64,160856,1,8
256,192,161209,1,0
256,192,161386,1,0
256,192,161562,1,8
256,192,161738,1,0
288,128,162092,5,8
224,128,162445,1,8
224,192,162797,1,0
288,192,163150,1,0
288,64,163503,5,8
160,64,163856,1,8
160,192,164209,1,0
288,192,164562,1,0
256,192,164915,5,0
128,224,165268,1,0
32,128,165621,1,0
128,64,165974,1,4
128,64,166150,1,12
256,64,166503,1,8
256,192,166856,1,0
256,192,167033,1,0
256,192,167209,1,8
256,192,167386,12,0,168798
256,192,169150,12,0,170033
256,192,170386,12,0,171974
