osu file format v5

[General]
AudioFilename: Beat Crusaders - Hit in the USA.mp3
AudioLeadIn: 507
PreviewTime: 0
Countdown: 0
SampleSet: Soft
StackLeniency: 1
Mode: 0
LetterboxInBreaks: 1
EditorDistanceSpacing: 0.800000011920929

[Metadata]
Title:Hit in the USA
Artist:Beat Crusaders
Creator:naruti
Version:Jump To USA
Source:
Tags:beck hit in the USA Beat crusaders

[Difficulty]
HPDrainRate:4
CircleSize:5
OverallDifficulty:6
SliderMultiplier:1.6
SliderTickRate:4

[Events]
//Background and Video events
0,0,"[AnimePaper]wallpapers_BECK_supermonchi_-edit237.jpg"
//Break Periods
2,129467,130283
//Storyboard Layer 0 (Background)
//Storyboard Layer 1 (Failing)
//Storyboard Layer 2 (Passing)
//Storyboard Layer 3 (Foreground)
//Storyboard Sound Samples
//Background Colour Transformations
3,100,163,162,255

[TimingPoints]
1150,352.941176470588,4,2,1,87,1,0
6268,-100,4,1,1,100,0,1
6798,352.941176470588,4,1,1,86,1,0
9380,-100,4,1,1,87,0,0
12092,-100,4,1,1,100,0,1
12445,-100,4,1,1,88,0,0
15268,-200,4,1,1,88,0,0
15621,-100,4,1,1,100,0,0
16792,-100,4,1,1,34,0,1
17915,-200,4,1,1,83,0,0
28150,-100,4,2,1,100,0,1
30268,-200,4,1,1,81,0,0
37680,-200,4,1,1,100,0,0
39445,-100,4,2,1,100,0,0
40680,-100,4,1,1,92,0,1
43503,-100,4,1,1,68,0,0
46327,-100,4,1,1,94,0,0
49150,-100,4,1,1,85,0,0
49856,-100,4,1,1,67,0,0
50562,-100,4,1,1,48,0,0
50739,-100,4,1,1,26,0,0
51974,-100,4,1,1,93,0,0
54798,-100,4,1,1,100,0,0
54798,-100,4,1,1,87,0,0
55150,-100,4,1,1,81,0,1
55503,-100,4,1,1,81,0,0
55856,-100,4,1,1,81,0,1
56209,-100,4,1,1,81,0,0
56209,-100,4,1,1,81,0,0
56562,-100,4,1,1,81,0,1
56915,-100,4,1,1,81,0,0
57268,-100,4,1,1,81,0,0
57621,-100,4,1,1,81,0,0
57974,-100,4,1,1,81,0,1
58327,-100,4,1,1,81,0,0
58680,-100,4,1,1,81,0,1
59033,-100,4,1,1,81,0,0
59386,-100,4,1,1,81,0,0
59650,-200,4,1,1,100,0,1
60092,-100,4,1,1,100,0,1
61856,-100,4,2,1,92,0,0
64150,-200,4,1,1,93,0,0
65915,-200,4,1,1,93,0,1
66974,352.941176470588,4,1,1,93,1,0
71562,-200,4,1,1,94,0,0
73326,-100,4,2,1,94,0,0
74562,-100,4,1,1,100,0,1
77190,-100,4,1,1,100,0,0
80033,-100,4,1,1,100,0,0
83209,-100,4,2,1,100,0,0
86209,-100,4,1,1,100,0,0
89827,-100,4,2,1,100,0,0
91856,-100,4,1,1,100,0,0
95562,-100,4,2,1,100,0,0
97150,-100,4,2,1,31,0,0
99973,-100,4,2,1,50,0,0
100326,-100,4,2,1,60,0,0
100679,-100,4,2,1,70,0,0
101032,-100,4,2,1,81,0,0
101385,-100,4,2,1,90,0,0
101738,-100,4,2,1,100,0,0
102091,-100,4,1,1,100,0,1
102621,-100,4,1,1,90,0,0
105445,-100,4,1,1,90,0,0
108445,-100,4,1,1,71,0,0
109680,-100,4,1,1,100,0,0
111092,-100,4,2,1,91,0,0
111974,-100,4,1,1,100,0,0
112680,-100,4,2,1,89,0,0
113386,-100,4,1,1,100,0,0
113915,-100,4,2,1,94,0,0
113915,-50,4,2,1,94,0,0
125386,-200,4,2,1,89,0,0
133856,-100,4,2,1,89,0,0
134385,-100,4,2,1,47,0,0
134738,-100,4,2,1,25,0,0
135444,-100,4,2,1,64,0,0
135797,-100,4,2,1,88,0,0
136150,-100,4,2,1,100,0,0
136679,-100,4,1,1,89,0,0
139503,-100,4,2,1,89,0,0
142327,-100,4,1,1,89,0,0
146386,-100,4,1,1,100,0,0
146386,-100,4,1,1,100,0,1
150798,-100,4,2,1,91,0,0
152209,-100,4,1,1,91,0,0
153445,-100,4,1,1,91,0,0
156445,-100,4,2,1,91,0,0
157856,-100,4,1,1,91,0,0
159268,-100,4,1,1,91,0,0
162092,-100,4,2,1,100,0,0
163503,-100,4,1,1,100,0,0
164915,-100,4,1,1,91,0,0
167562,-100,4,2,1,91,0,0
172768,-100,4,2,1,55,0,0

[Colours]
Combo1 : 0,213,0
Combo2 : 213,181,0
Combo3 : 0,0,213
Combo4 : 213,0,0

[HitObjects]
128,64,1151,1,0
256,192,1680,1,2
256,192,1856,1,2
416,64,2386,1,0
416,192,2739,1,0
256,192,3092,1,0
256,192,3268,1,2
128,192,3621,1,2
128,320,3974,5,2
256,192,4503,1,2
256,192,4680,1,2
384,320,5210,1,0
384,192,5562,1,0
256,64,6092,1,2
256,64,6268,5,0
256,64,6445,1,0
256,192,6798,5,4
64,192,7327,1,0
64,192,7503,1,2
256,192,8033,1,2
128,192,8386,1,2
256,192,8739,1,0
256,192,8915,1,2
384,192,9268,1,2
256,192,9621,5,2
256,64,10150,1,0
256,64,10326,1,2
128,192,10856,1,2
256,192,11209,1,2
128,192,11562,1,0
128,192,11738,1,2
128,64,12092,5,2
128,192,12445,5,2
320,192,12974,1,0
320,192,13150,1,2
128,192,13680,1,2
256,192,14033,1,2
256,320,14386,1,0
256,320,14562,1,2
384,320,14915,1,2
384,256,15268,6,0,B|416:224|352:192,1,80,2|2
288,192,15797,1,0
224,192,15974,1,2
160,192,16150,1,2
224,192,16327,1,2
288,192,16503,1,2
416,192,16856,5,2
352,192,17033,1,2
480,192,17386,2,2,B|480:160|448:128|416:128,2,80
224,192,18974,5,0
288,192,19150,1,0
352,192,19327,1,2
288,192,19503,1,2
160,192,19856,2,0,B|96:224|185:269,2,80,2|2|2
64,160,21798,5,0
64,224,21974,1,0
64,288,22150,1,2
64,224,22327,1,2
64,96,22680,2,0,B|128:64|160:96,2,80,2|2|2
352,256,24621,5,0
288,256,24798,1,0
224,256,24974,1,2
288,256,25150,1,2
416,256,25503,2,0,B|320:256,2,80,2|2|2
416,256,26386,2,0,B|288:224|352:352|96:160|64:288,1,320,4|4
160,128,28150,5,0
288,128,28327,1,0
32,128,28680,1,2
288,128,29033,1,0
32,288,30268,5,2
96,256,30445,1,0
128,320,30621,1,2
192,288,30798,1,2
192,288,31150,2,0,B|256:256|224:192,2,80,2|2|2
256,256,33092,5,2
320,224,33268,1,0
384,256,33445,1,2
448,224,33621,1,2
448,224,33974,2,0,B|480:160|448:128,2,80,2|2|2
384,128,35915,5,2
334,87,36092,1,0
293,136,36268,1,2
252,86,36445,1,2
252,86,36797,2,0,B|284:54|220:22,2,80,2|2|2
252,86,37680,2,0,B|153:134|338:157|368:229|252:342,1,320,4|4
256,224,39445,5,0
384,224,39621,1,0
128,224,39974,1,2
384,224,40327,1,0
256,288,40680,5,2
192,160,41033,1,8
320,160,41386,1,2
256,64,41739,1,8
256,64,41915,1,2
256,192,42268,1,2
256,64,42621,1,2
256,64,42798,1,0
256,64,42974,1,10
256,64,43150,1,10
416,256,43503,5,2
160,256,43856,1,8
416,256,44209,1,2
160,256,44562,1,8
160,256,44738,1,2
416,256,45091,1,0
160,256,45444,1,2
161,256,45621,1,0
161,256,45797,1,10
161,256,45973,1,10
160,128,46327,5,2
256,64,46680,1,8
352,128,47033,1,2
352,256,47386,1,8
352,256,47562,1,2
224,256,47915,1,0
352,256,48268,1,0
352,256,48445,1,2
352,256,48621,1,8
352,256,48798,1,10
256,160,49150,6,0,B|352:160,9,80,0|0|0|0|0|0|0|0|0|2
384,160,50915,1,2
384,160,51092,1,2
448,160,51268,1,2
448,160,51445,1,2
384,160,51621,1,2
448,256,51974,5,0
448,256,52150,2,0,B|352:256,1,80,0|2
224,256,52680,5,0
224,256,52856,2,0,B|96:256,1,80,0|2
128,128,53386,5,0
128,128,53562,2,0,B|224:128,1,80,0|2
320,128,54092,5,0
320,128,54268,2,0,B|416:128,1,80,0|2
256,128,54798,6,0,L|256:64,2,40
256,128,55150,1,2
256,256,55503,6,0,L|256:320,2,40
256,256,55855,1,2
128,192,56209,6,0,L|64:192,2,40
128,192,56561,1,2
256,128,56915,6,0,L|256:64,2,40
256,128,57267,1,2
353,44,57621,5,2
391,68,57709,1,0
406,96,57798,1,0
433,153,57974,5,2
413,285,58327,5,2
393,310,58415,1,0
361,318,58504,1,0
297,321,58680,5,2
169,318,59033,5,2
142,299,59121,1,0
122,273,59210,1,0
100,212,59386,5,2
92,148,59739,6,0,B|67:71|131:59,1,80,0|2
224,43,60445,6,0,B|206:-2|146:47,7,80,0|0|0|0|0|0|0|4
192,320,62033,5,0
64,320,62209,1,0
320,320,62562,1,2
64,320,62915,1,2
288,256,64150,5,0
288,192,64326,1,0
224,224,64503,1,0
224,160,64679,1,2
224,160,65033,2,0,B|224:64,2,80,0|2|0
224,160,65915,5,2
32,320,66974,5,0
32,256,67150,1,0
32,192,67327,1,0
32,256,67503,1,2
32,192,67856,2,0,B|32:96,2,80,0|2|2
320,96,69798,5,0
256,96,69975,1,0
288,32,70151,1,0
224,32,70328,1,2
224,32,70681,2,0,B|320:32,2,80,0|2|0
224,32,71562,2,0,B|128:96|384:192|224:320|224:320,1,320,4|4
32,128,73327,5,0
160,128,73503,1,0
416,128,73856,1,2
160,128,74209,1,2
256,192,74562,5,2
192,288,74915,1,8
64,224,75268,1,2
128,96,75621,1,8
128,96,75797,1,2
256,96,76150,1,0
128,96,76503,1,0
128,96,76680,1,2
128,96,76856,1,8
128,96,77032,1,10
384,96,77385,5,2
224,288,77738,1,8
160,32,78091,1,2
320,224,78444,1,8
320,224,78620,1,2
160,32,78973,1,0
319,224,79326,1,0
320,224,79503,1,2
320,224,79679,1,8
320,224,79855,1,10
192,224,80209,5,2
96,128,80562,1,8
192,64,80915,1,2
320,128,81268,1,8
320,128,81444,1,2
192,64,81797,1,0
320,128,82150,1,0
320,128,82327,1,2
320,128,82503,1,8
320,128,82679,1,10
256,192,82856,12,2,84091
256,192,84445,12,4,85856
256,192,86209,6,0,B|96:192,2,80,2|2|0
128,192,86915,2,0,B|224:192,2,80,2|2|0
256,192,87621,6,0,B|256:64,2,80,2|2|2
256,320,88328,1,2
256,320,88503,2,2,B|0:320|0:64|320:64,1,480,2|6
384,64,89915,5,0
384,128,90092,1,6
384,256,90445,1,0
384,256,90621,2,0,B|384:352,2,80,2|0|2
288,256,91856,6,0,B|288:128,2,80,0|2|2
288,320,92386,1,0
288,320,92562,2,0,B|192:320,2,80
192,256,93268,6,0,B|192:128,2,80,0|2|2
192,320,93798,2,0,B|320:320,1,80,2|2
256,192,94150,12,4,95386
64,64,95562,5,0
128,64,95739,1,0
256,64,96092,1,0
256,64,96268,2,0,B|384:64,3,80
448,128,97150,5,4
448,320,97679,1,0
448,320,97855,1,2
256,320,98385,1,2
256,192,98738,1,0
256,320,99091,1,0
256,320,99267,1,0
256,192,99620,1,0
32,32,99973,5,2
256,160,100326,1,0
480,32,100679,1,0
256,160,101032,1,0
480,288,101385,1,4
256,160,101738,1,4
32,288,102091,6,0,B|32:352,2,40
32,288,102445,5,0
32,32,102798,5,2
416,32,103327,1,0
416,32,103504,1,2
32,32,104034,1,2
32,288,104386,1,2
32,32,104739,1,0
32,32,104916,1,2
32,288,105268,1,2
288,288,105621,5,2
288,32,106150,1,0
288,32,106327,1,2
32,32,106857,1,2
32,288,107209,1,2
32,32,107562,1,0
32,32,107739,1,2
32,288,108091,1,2
96,192,108444,6,0,B|160:192,4,40,2|2|2|2|2
160,192,108973,6,0,B|192:224,1,40,2|0
192,192,109150,2,0,B|224:160,1,40
224,192,109326,2,0,B|256:224,1,40,2|2
256,192,109503,2,0,B|288:160,1,40,0|2
288,192,109680,5,0
416,192,110032,6,0,B|320:192,5,80
256,224,111268,6,0,B|256:320,3,80,4|0|0|0
256,160,112150,1,0
256,160,112327,1,2
256,288,112680,6,0,B|256:384,3,80,4|0|0|0
256,224,113562,1,2
256,224,113739,1,2
32,32,114445,5,2
480,352,115151,1,2
32,352,115856,1,2
256,192,116386,5,2
256,192,116562,1,2
480,32,117268,5,2
32,32,117973,1,2
480,352,118680,1,2
256,192,119209,5,2
256,192,119386,1,2
32,32,120092,5,2
32,352,120797,1,2
480,32,121503,1,2
256,192,122033,5,2
256,192,122209,1,2
32,352,122915,5,2
480,352,123620,1,2
32,32,124327,1,2
256,192,124856,5,2
256,192,125033,1,2
256,192,125386,6,4,B|256:288|416:288|416:192,1,240,4|0
416,128,126798,2,0,B|416:32|256:32|256:128|256:160,1,240,2|0
256,192,128209,2,0,B|256:288|96:288|96:160,1,240,2|0
256,192,131033,6,0,B|256:288|96:288|96:192,1,240,2|0
96,128,132445,2,0,B|96:32|256:32|256:128|256:160,1,240,2|0
256,256,133856,6,0,B|320:320|416:256,7,160,6|0|6|0|6|0|6|0
448,160,136680,5,6
352,64,137033,1,8
256,160,137386,1,2
352,256,137739,1,8
352,256,137915,1,2
256,160,138268,1,2
352,256,138621,1,0
352,256,138798,1,2
352,256,138974,1,8
352,256,139150,1,10
96,288,139503,5,4
96,32,139856,1,8
96,288,140209,1,0
320,192,140562,1,8
320,192,140738,1,2
96,288,141091,1,0
320,192,141444,1,0
320,192,141621,1,2
320,192,141797,1,8
320,192,141973,1,10
192,192,142327,5,4
128,320,142680,1,8
256,320,143033,1,2
192,192,143386,1,8
192,192,143562,1,2
256,320,143915,1,2
128,320,144268,1,2
128,320,144445,1,2
128,320,144621,1,10
128,320,144797,1,10
384,320,145150,5,4
384,64,145503,5,8
128,64,145856,5,2
128,320,146209,5,8
256,96,146562,5,2
256,96,146915,6,0,B|224:32,8,40,0|0|0|0|0|0|0|0|4
256,96,147973,5,2
320,192,148327,1,8
192,192,148680,1,2
320,192,149033,1,8
320,192,149209,1,2
192,192,149562,1,2
320,192,149915,1,0
320,192,150092,1,2
320,192,150268,1,8
320,192,150444,1,10
64,256,150798,5,4
224,64,151151,5,8
128,288,151503,5,2
288,96,151856,5,8
192,320,152209,5,2
352,128,152562,5,8
256,352,152915,5,2
416,160,153268,5,8
320,256,153621,5,4
352,128,153973,1,8
224,128,154327,1,2
96,128,154680,1,8
96,128,154856,1,2
224,128,155209,1,2
96,128,155562,1,0
96,128,155739,1,2
96,128,155915,1,8
96,128,156091,1,10
224,352,156445,5,6
224,96,156798,5,8
288,352,157150,5,2
288,96,157503,5,8
352,352,157856,5,2
352,96,158209,5,8
416,352,158562,5,2
416,96,158915,5,2
384,224,159268,5,4
256,224,159621,1,8
256,96,159974,1,2
128,96,160327,1,8
128,96,160503,1,2
256,96,160856,1,2
128,96,161209,1,2
128,96,161386,1,2
128,96,161562,1,10
128,96,161738,1,10
384,64,162092,5,4
128,64,162445,5,8
384,128,162798,5,2
128,128,163151,5,8
384,192,163504,5,2
128,192,163856,5,8
384,256,164209,5,2
128,256,164562,5,10
128,128,164915,5,4
256,128,165268,1,8
256,256,165621,1,2
256,128,165974,1,8
256,128,166150,1,2
384,128,166503,1,2
256,128,166856,1,2
256,128,167033,1,2
256,128,167209,1,2
256,128,167385,1,10
256,192,167562,12,2,168797
256,192,169150,12,2,170209
256,192,170562,12,4,171973
32,64,172503,5,0
64,64,172591,1,0
96,64,172679,1,0
128,64,172768,2,2,B|288:128|0:160|224:256|32:352|320:352|384:256|224:192|352:128|224:64|320:0|512:64|320:192|512:256|256:416|32:288,1,1000
