osu file format v5

[General]
AudioFilename: Beat Crusaders - Hit in the USA.mp3
AudioLeadIn: 507
PreviewTime: 27252
Countdown: 0
SampleSet: Normal
StackLeniency: 1
Mode: 0
LetterboxInBreaks: 1
EditorDistanceSpacing: 0.800000011920929

[Metadata]
Title:Hit in the USA
Artist:Beat Crusaders
Creator:naruti
Version:In Europe
Source:
Tags:beck hit in the USA Beat crusaders

[Difficulty]
HPDrainRate:5
CircleSize:4
OverallDifficulty:6
SliderMultiplier:1.6
SliderTickRate:2

[Events]
//Background and Video events
0,0,"[AnimePaper]wallpapers_BECK_supermonchi_-edit237.jpg"
//Break Periods
2,129467,130283
//Storyboard Layer 0 (Background)
//Storyboard Layer 1 (Failing)
//Storyboard Layer 2 (Passing)
//Storyboard Layer 3 (Foreground)
//Storyboard Sound Samples
//Background Colour Transformations
3,100,163,162,255

[TimingPoints]
1195,352.941176470588,4,2,1,76,1,0
6268,-100,4,1,1,81,0,1
6798,352.941176470588,4,1,1,86,1,0
9380,-100,4,1,1,87,0,0
11915,-100,4,1,1,100,0,1
12268,-100,4,1,1,88,0,0
15077,-200,4,2,1,88,0,0
15621,-100,4,2,1,100,0,1
16792,-100,4,1,1,83,0,1
17915,-100,4,1,1,83,0,0
26386,-200,4,1,1,93,0,0
28150,-100,4,2,1,82,0,1
30268,-100,4,1,1,81,0,0
37680,-200,4,1,1,100,0,0
39445,-100,4,2,1,100,0,0
40680,-100,4,1,1,92,0,1
43503,-100,4,1,1,68,0,0
46327,-100,4,1,1,94,0,0
49150,-100,4,1,1,100,0,0
50915,-100,4,1,1,83,0,1
51974,-100,4,1,1,93,0,0
54798,-100,4,1,1,100,0,0
54798,-100,4,1,1,87,0,0
55150,-100,4,1,1,81,0,1
55503,-100,4,1,1,81,0,0
55856,-100,4,1,1,81,0,1
56209,-100,4,1,1,81,0,0
56209,-100,4,1,1,81,0,0
56562,-100,4,1,1,81,0,1
56915,-100,4,1,1,81,0,0
57268,-100,4,1,1,81,0,0
57621,-100,4,1,1,81,0,0
57974,-100,4,1,1,81,0,1
58327,-100,4,1,1,81,0,0
58680,-100,4,1,1,81,0,1
59033,-100,4,1,1,81,0,0
59386,-100,4,1,1,81,0,0
59650,-200,4,1,1,100,0,1
60092,-100,4,1,1,100,0,1
61856,-100,4,2,1,92,0,0
63092,-100,4,2,1,100,0,0
64150,-100,4,1,1,93,0,0
65959,352.941176470588,4,1,1,100,1,1
66974,352.941176470588,4,1,1,93,1,0
71562,-200,4,1,1,94,0,0
73327,-100,4,2,1,94,0,0
74562,-100,4,1,1,100,0,1
77190,-100,4,1,1,100,0,0
80033,-100,4,1,1,100,0,0
82680,-100,4,2,1,100,0,0
86209,-100,4,1,1,100,0,0
89827,-100,4,2,1,100,0,0
91856,-100,4,1,1,100,0,0
95562,-100,4,2,1,100,0,0
97150,-100,4,2,1,81,0,0
99921,-100,4,2,1,66,0,0
102268,-100,4,2,1,100,0,1
102621,-100,4,1,1,90,0,0
105445,-100,4,1,1,90,0,0
108445,-100,4,2,1,79,0,0
109680,-100,4,1,1,100,0,0
111092,-100,4,2,1,71,0,0
111974,-100,4,1,1,100,0,0
112680,-100,4,2,1,71,0,0
113386,-100,4,1,1,100,0,0
113915,-100,4,2,1,94,0,0
113915,-50,4,2,1,94,0,0
125209,-200,4,2,1,89,0,0
133856,-100,4,2,1,89,0,0
136491,-100,4,1,1,89,0,0
139503,-100,4,2,1,89,0,0
142327,-100,4,1,1,89,0,0
146386,-100,4,1,1,100,0,1
146386,-100,4,1,1,100,0,0
150798,-100,4,2,1,91,0,0
153445,-100,4,1,1,91,0,0
156445,-100,4,2,1,91,0,0
159268,-100,4,1,1,91,0,0
162092,-100,4,1,1,100,0,0
164915,-100,4,1,1,91,0,0
167386,-100,4,2,1,91,0,0

[Colours]
Combo1 : 0,213,0
Combo2 : 213,181,0
Combo3 : 0,0,213
Combo4 : 213,0,0

[HitObjects]
64,96,1195,1,0
256,96,1724,2,2,B|257:224,1,80
256,352,2430,1,0
256,224,2783,1,0
256,96,3136,2,2,B|384:96,1,80
448,96,3665,1,0
448,224,4018,5,0
448,352,4547,2,2,B|352:352,1,80
160,352,5253,1,0
288,352,5606,1,0
288,224,5959,1,0
288,224,6312,6,8,B|288:128,1,80
288,32,6798,5,0
96,32,7327,2,2,B|96:160,1,80
96,288,8033,1,0
224,288,8386,1,0
352,288,8739,2,2,B|352:192,1,80
352,64,9268,1,4
352,192,9621,5,0
160,192,10150,2,2,B|288:192,1,80,0|0
416,192,10856,1,0
416,320,11209,1,0
288,320,11562,2,2,B|288:224,1,80
288,96,12092,5,4
288,224,12445,5,0
288,320,12974,2,2,B|288:224,1,80
288,32,13680,1,0
160,32,14033,1,0
160,160,14386,2,2,B|160:256,1,80
256,160,14915,1,0
256,160,15268,6,8,B|241:193|190:297,1,80
192,288,15797,2,4,B|192:320|160:320|160:352|128:352,4,80,4|4|4|4|4
256,160,16856,5,8
256,96,17033,1,8
256,96,17386,2,2,B|257:0,2,80,8|8|8
438,373,18974,6,8,B|470:341|470:309|470:277,1,80
466,237,19327,2,8,B|466:213|466:181|434:149,1,80
332,100,19856,2,2,B|303:68|268:37|232:12|209:12|178:31,2,160
64,64,21797,6,8,B|32:96|32:128|64:160,1,80
79,190,22150,2,8,B|99:213|131:245|163:245,1,80
256,288,22680,2,2,B|288:320|320:320|352:288|384:288|416:256,2,160
79,317,24621,6,0,B|111:349|143:349|175:349,1,80
214,348,24974,2,8,B|246:348|278:348|310:316,1,80
416,288,25503,2,2,B|448:288|480:256|512:224|512:192|480:160,2,160
384,288,26386,6,2,B|352:288|352:288|224:288|128:96,1,320
256,64,28150,5,8
320,64,28327,1,8
192,64,28680,1,8
192,64,29033,1,8
32,288,30268,5,0
96,256,30445,1,0
160,224,30621,1,0
224,192,30797,1,0
224,192,31150,2,0,B|97:259|63:276,2,160
256,256,33092,5,0
320,224,33268,1,0
384,256,33445,1,0
448,224,33621,1,0
448,224,33974,2,0,B|256:256,2,160
354,30,35915,5,0
289,30,36092,1,0
225,32,36268,1,0
160,32,36445,1,0
160,32,36797,2,0,B|325:34,2,160,0|0|0
128,32,37680,2,0,B|29:80|214:103|224:170|128:288,1,280,0|0
320,352,39445,5,0
384,352,39621,1,0
256,352,39974,1,0
256,352,40327,1,0
352,256,40680,5,0
224,224,41033,1,0
96,192,41386,1,0
160,64,41739,2,0,B|256:128,1,80
352,160,42268,1,0
256,256,42621,2,0,B|192:320,3,80
288,224,43503,5,8
192,128,43856,1,8
64,128,44209,1,8
64,256,44562,2,8,B|160:320,1,80
256,320,45092,1,8
256,192,45445,2,8,B|256:96,3,80
256,192,46327,5,0
128,224,46680,1,0
32,128,47033,1,0
96,32,47386,2,0,B|192:64,1,80
288,64,47915,1,0
256,192,48268,2,0,B|192:256,3,80
320,288,49150,6,8,B|320:192,14,80
416,320,51974,6,0,B|320:320,1,80
336,320,52327,1,2
192,320,52680,6,0,B|96:320,1,80
112,320,53033,1,2
128,192,53386,6,0,B|224:192,1,80
208,192,53739,1,2
320,192,54092,6,0,B|416:192,1,80
400,192,54445,1,2
352,64,54797,5,10
352,64,54974,1,6
352,64,55150,1,10
256,160,55503,5,10
256,160,55680,1,6
256,160,55856,1,10
160,64,56209,5,10
160,64,56386,1,6
160,64,56562,1,10
256,160,56915,5,10
256,160,57092,1,6
256,160,57268,1,10
160,224,57621,6,0,B|71:225,2,80
160,352,58327,6,0,B|71:353,2,80
256,256,59033,6,0,B|256:160,2,80
256,320,59739,2,6,B|288:384|352:352,1,80,8|2
352,320,60268,6,4,B|352:288|320:288|320:256|288:256,8,80
224,320,62033,5,8
160,320,62209,1,8
288,320,62562,1,8
288,320,62915,1,8
384,64,64150,5,0
320,64,64327,1,0
256,64,64503,1,0
192,64,64680,1,0
192,64,65033,2,0,B|192:256,2,160
192,64,65959,5,12
32,352,66974,5,0
32,288,67150,1,0
32,224,67326,1,0
32,160,67503,1,0
32,160,67856,2,0,B|224:160,2,160
352,32,69797,5,0
288,32,69974,1,0
224,32,70150,1,0
160,32,70326,1,0
160,32,70679,2,0,B|325:34,2,160,0|0|0
128,32,71562,2,0,B|29:80|214:103|224:170|128:288,1,280,0|0
64,256,73326,5,8
64,192,73503,1,8
64,320,73856,1,8
64,320,74209,1,8
160,256,74562,5,0
192,128,74915,1,0
320,128,75268,1,0
320,256,75621,2,0,B|224:256,1,80,0|0
96,256,76150,1,0
96,256,76503,2,0,B|192:256,3,80
288,192,77385,5,8
384,128,77738,1,8
288,32,78091,1,8
160,64,78444,2,8,B|160:160,1,80
160,256,78974,1,8
160,256,79326,2,8,B|256:256,3,80
256,128,80209,5,0
160,192,80562,1,0
64,128,80915,1,0
160,32,81268,2,0,B|256:64,1,80
352,128,81797,1,0
352,128,82150,2,0,B|352:224,2,80
256,192,82679,12,0,84091
256,192,84444,12,4,85856
256,192,86209,6,0,B|96:192,2,80
128,192,86915,2,0,B|224:192,2,80
256,192,87621,6,0,B|256:64,2,80
256,320,88326,1,0
256,320,88503,2,0,B|0:320|0:64|320:64,1,480
416,32,89915,5,4
416,96,90091,1,4
416,224,90444,2,4,B|416:320,4,80
288,256,91856,6,0,B|288:128,2,80
288,320,92385,1,0
288,320,92562,2,0,B|96:320,1,160
128,256,93091,6,0,B|128:128,2,80
128,320,93621,2,0,B|256:320,2,80
256,192,94150,12,0,95385
64,64,95562,5,4
128,64,95738,1,4
256,64,96091,1,4
256,64,96268,2,4,B|384:64,3,80
384,192,97150,5,8
192,192,97679,2,8,B|288:192,1,80
448,192,98385,1,8
448,64,98738,1,8
320,64,99091,2,8,B|320:160,1,80
320,256,99621,1,8
448,160,99974,5,8
320,160,100503,2,8,B|224:160,1,80
32,160,101209,1,8
160,160,101562,1,8
256,160,101915,1,8
256,160,102091,1,8
256,32,102444,5,4
256,160,102797,5,8
64,160,103326,2,8,B|128:256,1,80
256,160,104032,1,8
256,288,104385,1,8
384,288,104738,2,8,B|416:192,1,80
448,96,105268,1,0
320,96,105621,5,8
128,96,106150,2,8,B|128:192,1,80
128,352,106856,1,8
256,352,107209,1,8
384,352,107562,2,8,B|384:256,1,80
384,128,108091,1,8
256,128,108444,6,4,B|320:128,6,40
256,128,108974,6,4,B|192:128,6,40
256,128,109679,5,4
256,256,110032,2,0,B|256:160,5,80
160,96,111268,6,4,B|160:192,3,80
256,96,112150,1,8
256,96,112326,1,8
384,96,112679,6,4,B|384:192,3,80
256,128,113562,1,8
256,128,113738,1,8
128,96,114444,5,8
384,96,115150,1,8
384,352,115856,1,8
256,224,116385,5,8
256,224,116562,1,8
128,352,117268,5,8
128,96,117974,1,8
384,96,118679,1,8
256,224,119209,5,0
256,224,119385,1,8
128,352,120091,5,8
128,96,120797,1,8
384,96,121503,1,8
256,192,122032,5,8
256,192,122209,1,8
384,352,122915,5,8
128,352,123621,1,8
128,96,124326,1,8
256,224,124856,5,8
256,224,125032,1,8
256,224,125385,6,4,B|256:320|416:320|416:224,1,240
416,160,126797,2,0,B|416:64|256:64|256:160|256:192,1,240
256,224,128209,2,0,B|256:320|96:320|96:192,1,240
256,224,131032,6,4,B|256:320|96:320|96:224,1,240
96,160,132444,2,0,B|96:64|256:64|256:160|256:192,1,240
256,288,133856,6,4,B|320:352|416:288,7,160
448,160,136679,5,0
352,64,137032,1,0
224,64,137385,1,0
96,64,137738,2,0,B|96:160,1,80
224,64,138268,1,0
352,64,138621,1,8
352,64,138797,1,8
352,64,138973,1,8
352,64,139150,1,8
416,160,139503,5,8
416,288,139856,1,8
288,320,140209,1,8
256,192,140562,2,8,B|256:96,1,80
192,96,141091,1,8
128,192,141444,1,8
128,192,141621,1,8
128,192,141797,1,8
128,192,141974,1,8
256,192,142326,5,0
384,256,142679,1,0
256,288,143032,1,0
128,256,143385,2,0,B|128:160,1,80
128,32,143915,1,0
256,32,144268,1,8
256,32,144444,1,8
256,32,144621,1,8
256,32,144797,1,8
288,160,145150,5,8
416,96,145503,5,12
288,32,145856,5,12
160,96,146209,5,4
288,160,146562,5,8
288,160,146915,6,4,B|256:96,10,40,8|0|0|0|0|0|0|0|0|0|0
288,160,147974,5,0
384,256,148326,1,0
256,288,148679,1,0
128,288,149032,2,0,B|128:192,1,80
128,64,149562,1,0
256,96,149915,1,8
256,96,150091,1,8
256,96,150268,1,8
256,96,150444,1,8
352,160,150797,5,4
288,96,151150,5,4
192,160,151503,5,4
64,160,151856,5,4
64,288,152209,5,4
192,288,152562,5,4
320,288,152915,5,4
320,160,153268,5,4
320,288,153621,5,0
352,160,153974,1,0
224,160,154326,1,0
96,160,154679,2,0,B|128:256,1,80
128,352,155209,1,0
224,256,155562,1,8
224,256,155738,1,8
224,256,155915,1,8
224,256,156091,1,8
96,192,156444,5,4
96,64,156797,5,4
224,64,157150,5,4
224,192,157503,5,4
96,192,157856,5,4
224,192,158209,5,4
352,192,158562,5,4
224,192,158915,5,4
224,64,159268,5,0
224,192,159621,1,0
96,192,159974,1,0
96,64,160326,2,0,B|192:64,1,80
288,64,160856,1,0
288,192,161209,1,8
288,192,161385,1,8
288,192,161562,1,8
288,192,161738,1,8
256,64,162091,5,4
128,128,162444,5,4
256,192,162797,5,4
352,128,163150,5,4
256,64,163503,5,4
128,128,163856,5,4
256,192,164209,5,4
352,128,164562,5,4
256,224,164915,5,0
384,288,165268,1,0
384,160,165621,1,0
320,64,165974,2,0,B|224:32,1,80
192,128,166503,1,0
256,256,166856,1,8
256,256,167032,1,8
256,256,167209,1,8
256,192,167385,12,0,168797
256,192,169150,12,0,170032
256,192,170385,12,0,171974
64,96,172503,6,0,B|96:128,2,40
96,128,172768,2,0,B|213:71|341:71|416:128|341:231|245:263|149:231|-11:231|-11:295|85:359|213:359|384:384|480:128,1,1000
