osu file format v5

[General]
AudioFilename: Beat Crusaders - Hit in the USA.mp3
AudioLeadIn: 507
PreviewTime: 0
Countdown: 0
SampleSet: Normal
StackLeniency: 1
Mode: 0
LetterboxInBreaks: 1

[Editor]
DistanceSpacing: 1
BeatDivisor: 4
GridSize: 8

[Metadata]
Title:Hit in the USA
Artist:Beat Crusaders
Creator:Sushi971
Version:tieff in the USA
Source:
Tags:beck hit in the USA Beat crusaders

[Difficulty]
HPDrainRate:4
CircleSize:4
OverallDifficulty:7
SliderMultiplier:1.6
SliderTickRate:2

[Events]
//Background and Video events
0,0,"327569.jpg"
//Break Periods
2,16703,17042
2,97378,101925
2,114319,124513
//Storyboard Layer 0 (Background)
//Storyboard Layer 1 (Fail)
//Storyboard Layer 2 (Pass)
//Storyboard Layer 3 (Foreground)
Sprite,Foreground,Centre,"speed up.png",320,103 M,0,84994,,320,103 F,0,84994,85170,0,1 S,0,84994,85170,0.1,0.7649252 F,0,85170,85707,1 S,0,85170,85788,0.7649252,0.8440001 F,0,85707,85876,1,0 S,0,85788,85876,0.8440001,0.1
//Storyboard Sound Samples
//Background Colour Transformations
3,100,163,162,255

[TimingPoints]
1178,352.941176470588,4,2,1,87,1,0
6278,-100,4,1,1,100,0,0
6798,-100,4,1,1,86,0,0
9380,-100,4,1,1,87,0,0
12445,-100,4,1,1,88,0,0
15268,-200,4,1,1,88,0,0
15621,-100,4,1,1,100,0,0
17915,-100,4,2,1,83,0,0
18356,-100,4,1,1,87,0,0
18533,-100,4,2,1,87,0,0
19062,-100,4,1,1,87,0,0
19239,-100,4,2,1,87,0,0
19768,-100,4,1,1,87,0,0
19945,-100,4,2,1,87,0,0
20121,-100,4,1,1,87,0,0
20739,-100,4,2,1,87,0,0
21180,-100,4,1,1,87,0,0
21356,-100,4,2,1,87,0,0
21886,-100,4,1,1,87,0,0
22062,-100,4,2,1,87,0,0
22592,-100,4,1,1,87,0,0
22768,-100,4,2,1,87,0,0
22945,-100,4,1,1,87,0,0
23562,-100,4,2,1,87,0,0
24003,-100,4,1,1,87,0,0
24180,-100,4,2,1,87,0,0
24709,-100,4,1,1,87,0,0
24886,-100,4,2,1,87,0,0
25415,-100,4,1,1,87,0,0
25592,-100,4,2,1,87,0,0
25768,-100,4,1,1,87,0,0
28161,-100,4,2,1,100,0,0
28680,-100,4,1,1,87,0,0
29650,-100,4,2,1,87,0,0
29827,-100,4,1,1,87,0,0
30268,-100,4,2,1,81,0,0
30533,-100,4,1,1,87,0,0
30709,-100,4,2,1,87,0,0
30886,-100,4,1,1,87,0,0
31062,-100,4,2,1,87,0,0
31239,-100,4,1,1,87,0,0
32474,-100,4,2,1,87,0,0
32650,-100,4,1,1,87,0,0
33003,-100,4,2,1,87,0,0
33356,-100,4,1,1,87,0,0
33533,-100,4,2,1,87,0,0
33709,-100,4,1,1,87,0,0
33886,-100,4,2,1,87,0,0
34062,-100,4,1,1,87,0,0
35121,-100,4,1,1,87,0,0
35297,-100,4,2,1,87,0,0
35474,-100,4,1,1,87,0,0
37680,-100,4,1,1,100,0,0
40690,-100,4,1,1,92,0,0
43503,-100,4,1,1,68,0,0
46327,-100,4,1,1,94,0,0
49150,-100,4,1,1,85,0,0
51974,-100,4,1,1,93,0,0
54798,-100,4,1,1,87,0,0
54798,-100,4,1,1,100,0,0
55503,-100,4,1,1,81,0,0
56209,-100,4,1,1,81,0,0
56209,-100,4,1,1,81,0,0
56915,-100,4,1,1,81,0,0
57268,-100,4,1,1,81,0,0
57621,-100,4,1,1,81,0,0
58327,-100,4,1,1,81,0,0
59033,-100,4,1,1,81,0,0
59386,-100,4,1,1,81,0,0
64150,-100,4,1,1,93,0,0
66974,-100,4,1,1,93,0,0
74572,-100,4,1,1,100,0,0
83060,-100,4,1,1,100,0,0
86209,-50,4,1,1,100,0,0
89827,-100,4,1,1,100,0,0
91856,-100,4,1,1,100,0,0
125236,-100,4,2,1,100,0,0
126736,-100,4,1,1,100,0,0
128060,-100,4,2,1,100,0,0
129560,-100,4,1,1,100,0,0
130883,-100,4,2,1,100,0,0
133354,-100,4,1,1,100,0,0
133707,-100,4,2,1,0,0,0
135119,-100,4,2,1,100,0,0
136089,-100,4,1,1,100,0,0
146589,-100,4,1,1,43,0,0
146766,-100,4,1,1,60,0,0
146942,-100,4,1,1,70,0,0
147119,-100,4,1,1,87,0,0

[Colours]
Combo1 : 255,255,0
Combo2 : 255,0,128
Combo3 : 128,0,255
Combo4 : 255,255,255

[HitObjects]
96,64,1530,1,8
416,64,2236,1,8
256,344,2942,1,8
256,104,3472,1,0
256,104,3648,1,0
416,320,4354,5,8
96,320,5060,1,8
256,56,5766,1,0
256,296,6295,2,0,B|256:200,1,80
120,128,6825,6,0,B|288:128,1,160,2|8
360,128,7354,1,2
440,128,7530,1,2
440,288,7883,1,8
360,288,8060,5,2
216,216,8413,1,2
240,144,8589,1,8
280,64,8766,2,0,B|328:48|392:48,2,80,2|2|0
280,64,9295,1,10
120,72,9648,6,0,B|216:72,1,80,0|2
200,152,10001,2,0,B|112:152,1,80,8|2
120,232,10354,2,0,B|296:232,1,160,2|10
336,176,10883,1,2
440,56,11236,1,2
432,216,11589,1,2
392,288,11766,1,0
320,320,11942,2,0,B|264:352|216:320,1,80,2|8
296,184,12472,6,2,B|208:176|176:72,1,160,2|8
96,88,13001,2,0,B|96:184,1,80,0|2
96,248,13354,1,0
96,328,13530,1,8
176,328,13707,6,0,B|240:272,1,80,2|0
296,328,14060,2,0,B|232:272,1,80,0|2
176,222,14413,2,0,B|240:278,1,80,2|2
293,218,14766,2,0,B|229:282,1,80,2|8
320,272,15119,6,0,B|360:272|392:208,1,80
408,64,15648,1,0
336,104,15825,1,0
264,136,16001,1,4
184,152,16177,1,0
104,144,16354,2,0,B|48:144|24:104,1,80,0|4
360,64,18119,5,0
296,112,18295,1,2
232,160,18472,2,0,B|184:192|128:192,1,80,0|0
160,112,18825,1,0
224,64,19001,1,2
296,112,19178,1,0
232,160,19354,1,0
296,208,19530,5,0
368,168,19707,1,2
432,216,19883,1,0
400,288,20060,1,0
320,288,20236,2,0,B|224:288,1,80
104,88,20942,5,0
152,152,21119,1,2
208,96,21295,2,0,B|248:64|296:104,1,80
336,152,21648,1,0
400,112,21825,1,2
432,184,22001,2,0,B|440:256|376:264,1,80
328,264,22354,5,0
248,240,22530,1,2
184,288,22707,1,0
120,240,22883,1,0
64,176,23060,2,0,B|48:128|120:104,2,80
224,152,23766,6,0,B|320:152,1,80,0|2
384,152,24119,2,0,B|296:152,1,80
224,152,24472,2,0,B|224:64,1,80,0|2
144,72,24825,2,0,B|232:72,1,80
304,72,25178,5,0
384,72,25354,1,2
384,152,25530,2,0,B|384:240,1,80
304,232,25883,2,0,B|200:232,1,80
224,232,26236,2,0,B|120:232,1,80
80,176,26589,2,0,B|80:128|160:88|208:88|208:88|200:104|200:104,1,160,4|0
280,112,27119,5,0
344,160,27295,1,0
392,224,27472,1,0
392,304,27648,2,0,B|352:352|304:328,1,80
256,192,28178,12,0,29060
304,64,29413,6,0,B|408:64,1,80,2|2
384,144,29766,1,0
384,224,29942,2,0,B|272:224,1,80,2|2
224,224,30295,1,0
144,224,30472,1,0
64,224,30648,2,0,B|64:136,1,80,2|0
64,64,31001,1,2
144,64,31178,1,0
224,64,31354,2,0,B|328:64,3,80,2|2|2|2
440,144,32236,5,2
408,216,32413,1,2
352,272,32589,1,0
280,304,32766,2,0,B|240:328|192:328,2,80,2|2|0
352,272,33295,1,0
408,216,33472,1,2
440,144,33648,1,0
392,80,33825,1,2
312,64,34001,2,0,B|256:48|224:88,1,80,0|2
160,96,34354,1,2
112,160,34530,1,2
160,224,34707,1,2
200,296,34883,6,0,B|256:304|256:240,1,80,2|2
256,176,35236,1,2
256,96,35413,1,0
336,96,35589,2,0,B|376:144|320:184,1,80,2|2
256,176,35942,1,0
256,96,36119,1,0
176,96,36295,1,2
112,144,36472,1,0
112,224,36648,1,2
160,288,36825,2,0,B|200:320|256:272,1,80
312,296,37178,2,0,B|368:232,1,80
368,152,37530,2,0,B|368:72|320:64|248:96,1,160
96,88,38236,5,0
144,152,38413,1,0
208,192,38589,1,0
288,208,38766,1,0
368,200,38942,2,0,B|416:176|424:136,1,80
256,192,39472,12,0,40354
112,80,40707,5,2
112,240,41060,1,8
192,240,41236,2,0,B|288:240,1,80,2|2
432,240,41766,1,8
432,160,41942,1,2
296,80,42295,1,2
216,80,42472,1,8
136,80,42648,2,0,B|48:80,1,80,2|2
136,80,43001,2,0,B|232:80,1,80,2|2
400,304,43530,5,2
400,144,43883,1,8
320,144,44060,2,0,B|224:144,1,80,2|2
80,144,44589,1,8
80,224,44766,1,2
216,304,45119,1,2
296,304,45295,1,8
376,304,45472,2,0,B|464:304,1,80,2|2
376,304,45825,2,0,B|280:304,1,80,2|2
376,168,46354,6,0,B|376:80,1,80,2|0
296,88,46707,2,0,B|296:176,1,80,8|2
216,168,47060,2,0,B|216:80,1,80,2|0
136,88,47413,2,0,B|136:184,1,80,8|2
136,328,47942,1,2
216,328,48119,1,8
296,328,48295,2,0,B|296:240,1,80,2|2
296,168,48648,2,0,B|296:256,1,80,2|2
376,104,49178,6,0,B|376:200,1,80
456,184,49530,1,0
376,184,49707,2,0,B|376:296,1,80
456,264,50060,1,0
376,264,50236,2,0,B|376:352,1,80
272,280,50678,5,0
272,280,50766,2,0,B|216:280|160:248,1,80
128,216,51119,1,0
128,216,51207,1,0
128,216,51295,2,0,B|80:160|80:128,1,80
304,64,52001,6,0,B|400:64,1,80
304,64,52354,2,0,B|304:240,1,160,2|0
304,224,52883,1,0
304,224,53060,2,0,B|112:224,1,160,2|0
144,144,53589,1,0
144,64,53766,2,0,B|320:64,2,160,2|0|2
144,224,54825,5,0
224,224,55001,1,0
304,224,55178,2,8,B|488:224,1,160,2|0
464,144,55707,1,0
384,144,55883,2,0,B|200:144,1,160,2|0
192,64,56413,5,0
128,112,56589,1,2
72,176,56766,2,0,B|40:240|80:280,3,80,0|0|0|2
216,288,57648,5,0
296,288,57825,1,0
296,208,58001,2,0,B|472:208,1,160,2|0
456,288,58530,1,0
456,208,58707,2,0,B|456:32,1,160,2|0
376,48,59236,1,0
296,48,59413,2,0,B|296:216,1,160,2|0
296,208,59942,5,0
224,248,60119,1,2
160,200,60295,1,0
160,128,60472,6,0,B|192:96|248:40|296:48|328:48,1,160
376,48,61001,1,0
376,128,61178,1,0
376,208,61354,1,0
376,288,61530,2,0,B|376:376,1,80,0|4
256,192,61883,12,0,62942
112,72,63295,5,2
192,72,63472,1,0
272,72,63648,1,2
328,128,63825,1,0
272,184,64001,1,2
192,184,64178,1,0
112,184,64354,1,2
56,240,64530,1,0
112,296,64707,5,2
192,296,64883,1,0
272,296,65060,1,2
328,240,65236,1,0
272,184,65413,1,2
328,240,65589,1,0
328,160,65766,6,0,B|224:160,1,80,2|0
168,160,66119,2,0,B|256:160,1,80,2|0
248,80,66472,2,0,B|160:80,1,80,2|0
168,160,66825,2,0,B|168:248,1,80,2|0
120,176,67178,2,0,B|120:88,1,80,2|0
192,64,67530,5,2
272,64,67707,1,0
272,144,67883,1,2
352,144,68060,1,0
352,224,68236,1,2
432,224,68413,1,0
352,224,68589,1,2
352,304,68766,1,0
272,304,68942,6,0,B|184:304,1,80,2|0
112,304,69295,2,2,B|200:304,1,80,2|0
192,224,69648,2,0,B|280:224,1,80,2|0
192,224,70001,2,0,B|104:224,1,80,2|0
112,144,70354,2,0,B|208:144,1,80,2|0
272,144,70707,2,0,B|184:144,1,80,2|0
192,64,71060,2,0,B|288:64,1,80
192,64,71413,2,0,B|104:64,1,80
112,64,71766,6,0,B|24:56|32:152|40:216|40:216,1,160
72,248,72295,1,0
136,288,72472,1,0
216,296,72648,1,0
296,296,72825,2,0,B|384:296,1,80,0|4
256,192,73354,12,0,74236
112,80,74589,5,2
112,240,74942,1,8
192,240,75119,2,0,B|288:240,1,80,2|2
432,240,75648,1,8
432,160,75825,1,2
296,80,76178,1,2
216,80,76354,1,8
136,80,76530,2,0,B|48:80,1,80,2|2
136,80,76883,2,0,B|232:80,1,80,2|2
400,304,77413,5,2
400,144,77766,1,8
320,144,77942,2,0,B|224:144,1,80,2|2
80,144,78472,1,8
80,224,78648,1,2
216,304,79001,1,2
296,304,79178,1,8
376,304,79354,2,0,B|464:304,1,80,2|2
376,304,79707,2,0,B|280:304,1,80,2|2
384,168,80236,6,0,B|384:80,1,80,2|0
304,88,80589,2,0,B|304:176,1,80,8|2
224,168,80942,2,0,B|224:80,1,80,2|0
144,88,81295,2,0,B|144:184,1,80,8|2
144,328,81825,1,2
224,328,82001,1,8
304,328,82178,2,0,B|304:240,1,80,2|2
304,168,82530,2,0,B|304:256,1,80,2|2
120,72,83060,5,0
120,72,83236,1,0
120,72,83413,1,0
120,72,83589,1,4
448,160,83942,5,0
408,232,84119,1,0
344,280,84295,1,0
264,304,84472,2,0,B|160:304,1,80
136,240,84825,5,0
136,160,85001,1,4
384,56,86236,5,2
256,344,86589,1,0
256,344,86766,1,2
112,56,87119,1,0
360,184,87472,5,2
360,184,87648,1,2
360,184,87825,1,0
40,184,88178,2,0,B|208:184,2,160,0|2|0
128,88,89942,5,2
208,88,90119,1,2
208,168,90295,1,0
248,168,90383,1,0
288,168,90472,1,2
288,208,90560,1,0
288,248,90648,1,2
368,248,90825,1,0
448,248,91001,2,0,B|448:72,1,160,2|2
368,88,91530,6,0,B|280:88,1,80
208,88,91883,2,0,B|112:88,1,80
88,160,92236,2,0,B|192:160,1,80
256,160,92589,2,0,B|344:160,1,80
376,232,92942,6,0,B|288:232,1,80
256,232,93207,1,0
216,232,93295,2,0,B|128:232,1,80
104,304,93648,2,0,B|192:304,1,80
224,304,93913,1,0
264,304,94001,2,0,B|360:304,1,80
376,304,94266,1,0
416,304,94354,2,0,B|416:48,1,240
80,192,95766,5,0
112,192,95854,1,0
144,192,95942,1,0
432,192,96472,5,0
400,192,96560,1,0
368,192,96648,1,0
256,192,97178,5,4
104,80,102825,6,0,B|288:80,1,160,0|8
264,160,103354,1,2
264,160,103530,2,0,B|448:160,1,160,2|8
424,240,104060,2,0,B|248:240,1,160,2|2
184,240,104589,1,8
104,240,104766,1,2
24,240,104942,1,2
104,240,105119,1,2
24,240,105295,1,8
104,96,105648,5,0
264,96,106001,1,8
264,176,106177,1,2
344,176,106354,1,2
264,312,106707,1,8
208,248,106883,2,0,B|392:248,1,160,2|2
416,312,107413,1,8
456,240,107589,1,2
456,160,107766,1,2
408,88,107942,1,2
336,48,108119,1,8
208,288,108472,6,0,B|120:288,1,80
304,232,108825,2,0,B|392:232,1,80
208,168,109177,2,0,B|120:168,1,80
304,112,109530,2,0,B|400:112,1,80
304,112,110060,5,0
208,168,110236,1,0
304,232,110413,1,0
208,288,110589,1,0
304,344,110766,1,0
304,344,110942,1,0
440,256,111295,6,0,B|440:88,1,160,2|0
368,136,111825,2,0,B|368:312,1,160,2|0
296,264,112354,2,2,B|296:144,1,80
176,128,112707,6,2,B|128:208,2,80
240,168,113236,2,2,B|152:320,1,160
232,336,113766,1,0
232,336,113854,1,0
232,336,113942,1,0
232,336,114030,1,0
232,336,114119,5,0
120,80,125413,6,0,B|104:168,1,80,0|2
184,136,125766,2,0,B|176:232,1,80,8|2
256,192,126119,2,0,B|256:288,1,80,0|2
328,232,126472,2,0,B|336:328,1,80,8|2
408,272,126825,6,2,B|384:112,1,160
256,192,127354,1,0
104,120,127530,2,2,B|128:280,1,160
224,304,128236,6,0,B|320:304,1,80,0|2
272,232,128589,2,0,B|176:232,1,80,8|2
224,160,128942,2,0,B|320:160,1,80,0|2
272,88,129295,2,0,B|168:88,1,80,8|2
224,160,129648,6,0,B|128:160,1,80,0|2
272,232,130001,2,0,B|384:232,1,80,0|2
224,312,130354,1,0
272,232,130530,1,2
224,160,130707,1,2
80,232,131060,6,0,B|32:232,4,40,0|0|2|0|0
112,160,131589,1,2
80,88,131766,2,0,B|16:88,4,40,0|0|2|0|0
112,160,132295,1,2
192,168,132472,6,0,B|192:112,1,40
232,168,132648,2,0,B|232:216,1,40,2|0
272,168,132825,1,0
352,168,133001,1,2
432,168,133177,5,0
432,208,133266,1,0
432,248,133354,1,0
432,328,133530,1,0
272,328,133883,6,0,B|264:312|264:312|280:312|280:312|264:304|264:304|280:304|280:304|264:296|264:296|280:296|280:296|264:288|264:288|280:288|280:288|264:280|264:280|280:280|280:280|264:272|264:272|280:272|280:272|264:264|264:264|280:264|280:264|264:256|264:256|280:256|280:256|264:248|264:248|280:248|280:248|264:240|264:240|280:240|280:240|264:232|264:232|280:232|280:232|264:224|264:224|280:224|280:224|256:216|264:216|264:216|280:216|280:216|264:208|264:208|280:208|280:208|264:200,1,480
64,344,135295,5,0
416,280,135648,1,0
64,192,136001,1,0
248,240,136177,1,0
416,280,136354,1,0
112,80,136707,5,2
112,240,137060,1,8
192,240,137236,2,0,B|288:240,1,80,2|2
432,240,137766,1,8
432,160,137942,1,2
296,80,138295,1,2
216,80,138472,1,8
136,80,138648,2,0,B|48:80,1,80,2|2
136,80,139001,2,0,B|232:80,1,80,2|2
400,304,139530,5,2
400,144,139883,1,8
320,144,140060,2,0,B|224:144,1,80,2|2
80,144,140589,1,8
80,224,140766,1,2
216,304,141119,1,2
296,304,141295,1,8
376,304,141472,2,0,B|464:304,1,80,2|2
376,304,141825,2,0,B|280:304,1,80,2|2
376,168,142354,6,2,B|192:168,1,160,2|8
272,112,142883,1,2
216,56,143060,2,8,B|400:56,1,160,2|8
456,56,143589,5,2
352,328,143942,1,2
208,56,144295,1,2
208,192,144472,1,2
208,56,144648,1,2
208,192,144825,1,2
208,352,145177,5,0
152,288,145354,1,2
208,232,145530,2,0,B|8:232,1,160,8|0
72,152,146060,1,2
56,72,146236,2,2,B|152:72,1,80,0|4
216,72,146589,5,0
216,88,146677,1,0
216,104,146766,1,0
216,120,146854,1,0
216,136,146942,1,0
216,152,147030,1,0
216,168,147119,1,0
216,184,147207,1,0
216,200,147295,1,0
216,216,147383,1,0
216,232,147472,1,0
216,248,147560,1,0
216,264,147648,1,0
352,344,148001,6,0,B|440:288,1,80,8|0
408,224,148354,2,0,B|360:152,1,80,8|0
328,232,148707,2,0,B|264:312,1,80,8|0
240,360,149060,2,0,B|144:296,1,80,8|0
144,240,149413,5,8
224,240,149589,1,0
224,160,149766,1,8
304,160,149942,1,0
304,80,150119,1,8
384,80,150295,2,0,B|496:80,2,80,8|8|0
384,160,150825,5,8
384,160,151001,1,0
400,240,151177,1,8
400,240,151354,1,0
320,240,151530,1,8
320,240,151707,1,0
360,312,151883,1,8
360,312,152060,2,8,B|160:312,1,160,0|0
200,312,152589,1,8
152,248,152766,2,0,B|96:176,1,80,0|0
248,248,153119,2,8,B|312:176,1,80
301,188,153472,1,0
344,120,153648,5,8
344,120,153825,1,0
344,120,154001,1,8
344,120,154177,1,0
264,104,154354,1,8
264,104,154530,1,0
264,104,154707,1,8
264,104,154883,2,0,B|128:224,1,160
144,209,155413,1,8
144,209,155589,1,0
144,209,155766,1,0
200,264,155942,1,8
200,264,156119,1,8
256,208,156295,1,0
312,264,156472,5,2
392,264,156648,1,0
328,216,156825,1,2
408,216,157001,1,0
344,168,157177,1,2
424,168,157354,1,0
352,128,157530,1,2
432,128,157707,2,2,B|232:128,1,160
272,128,158236,2,0,B|152:128,1,80
192,128,158589,2,0,B|152:128,8,20
192,208,159119,1,0
128,288,159295,6,0,B|128:192,1,80,8|0
208,240,159648,2,0,B|208:144,1,80,8|0
288,280,160001,2,0,B|288:184,1,80,8|0
368,240,160354,2,0,B|368:136,1,80,8|0
288,128,160707,2,0,B|288:40,1,80,8|0
208,80,161060,2,0,B|208:192,1,80,8|0
128,120,161413,2,0,B|128:32,2,80,0|8|8
128,120,161942,1,0
128,200,162119,6,0,B|224:256,1,80,0|2
136,288,162472,2,0,B|232:344,1,80,0|2
280,304,162825,2,0,B|368:368,1,80,0|2
384,280,163177,2,0,B|312:224,1,80,0|2
248,200,163530,6,2,B|376:56,1,160
192,112,164060,1,0
152,16,164236,2,2,B|16:152,1,160
192,112,164766,1,0
152,184,164942,5,0
104,248,165119,1,2
152,312,165295,1,2
200,248,165472,1,2
152,184,165648,2,0,B|104:112,2,80,0|2|2
152,184,166177,1,2
232,176,166354,5,0
232,176,166442,1,0
232,176,166530,1,0
232,176,166619,1,0
232,176,166707,2,0,B|408:176,1,160
392,176,167148,1,0
392,176,167236,1,0
392,176,167325,1,0
392,176,167413,1,0
256,192,167766,12,0,168825
256,192,169177,12,0,170236
256,192,170589,12,0,172001
256,192,172530,5,0
256,192,172619,1,0
256,192,172707,1,0
