osu file format v5

[General]
AudioFilename: Beat Crusaders - Hit in the USA.mp3
AudioLeadIn: 496
PreviewTime: 40700
Countdown: 1
SampleSet: Soft
StackLeniency: 0.5
Mode: 0
LetterboxInBreaks: 1

[Editor]
DistanceSpacing: 0.800000011920929
BeatDivisor: 8
GridSize: 8

[Metadata]
Title:Hit in the USA
Artist:Beat Crusaders
Creator:Sushi971
Version:In the garage
Source:
Tags:

[Difficulty]
HPDrainRate:5
CircleSize:3
OverallDifficulty:3
SliderMultiplier:1
SliderTickRate:2

[Events]
//Background and Video events
0,0,"327569.jpg"
//Break Periods
2,49370,50554
2,97370,100672
//Storyboard Layer 0 (Background)
//Storyboard Layer 1 (Fail)
//Storyboard Layer 2 (Pass)
//Storyboard Layer 3 (Foreground)
//Storyboard Sound Samples
//Background Colour Transformations
3,100,163,162,255

[TimingPoints]
1178,352.941176470588,4,2,0,100,1,0
6260,-100,4,1,0,100,0,0
40690,-100,4,1,0,100,0,1
49160,-100,4,1,0,100,0,0
74572,-100,4,1,0,100,0,1
85866,-100,4,1,0,100,0,0

[Colours]
Combo1 : 255,0,0
Combo2 : 0,0,160
Combo3 : 255,128,0
Combo4 : 0,191,0

[HitObjects]
256,336,1178,1,0
256,232,1707,1,0
256,232,1883,1,0
256,128,2413,2,0,B|368:128,3,100,0|0|0|8
356,128,3648,1,8
424,128,4001,5,0
424,232,4530,1,0
424,232,4707,1,0
424,336,5236,2,0,B|304:336,3,100,0|0|0|4
324,336,6472,1,4
256,336,6825,6,0,B|256:216,1,100,0|8
256,168,7530,2,0,B|144:168,1,100,0|8
156,168,8060,2,0,B|156:298,3,100,2|2|2|0
156,268,9295,1,8
222,267,9648,6,0,B|294:259|310:187,1,100,0|8
368,216,10354,2,0,B|408:168|360:120,1,100,0|8
365,126,10883,1,2
312,80,11236,1,2
240,80,11589,2,8,B|200:80|184:120,3,50,2|0|0|0
168,160,12472,6,0,B|256:248,1,100,0|8
304,232,13177,2,0,B|376:160,1,100,0|8
374,161,13707,2,0,B|468:255,2,100,2|2|2
374,161,14589,1,0
373,90,14942,1,8
302,90,15295,6,0,B|222:90|222:162,1,100,0|4
222,210,16001,1,4
222,282,16354,1,0
222,282,16530,1,4
256,192,16883,12,4,17766
64,192,18119,5,0
136,192,18472,1,8
208,192,18825,1,0
280,192,19178,1,8
352,192,19530,2,0,B|464:192|496:112,2,150,2|2|10
352,264,20942,5,0
280,264,21295,1,8
208,264,21648,1,0
208,192,22001,1,0
208,120,22354,2,0,B|208:80|176:56|128:56|88:56,2,150,2|2|2
208,192,23766,5,0
208,264,24119,1,8
136,264,24472,1,0
136,336,24825,1,8
208,336,25178,2,0,B|248:336|312:336|368:248,2,150,2|2|2
208,264,26589,1,4
208,192,26942,5,4
208,120,27295,1,4
280,120,27648,1,4
280,120,27825,1,4
256,192,28178,12,0,29060
104,64,29413,5,0
176,64,29766,1,8
248,64,30119,1,0
248,64,30295,6,0,B|248:136,3,50,0|8|0|0
320,112,31178,2,0,B|392:112,4,50,8|0|0|8|8
320,184,32236,5,0
320,256,32589,1,8
248,256,32942,1,0
176,256,33295,1,8
104,256,33648,2,0,B|104:167|220:161|216:168,2,150,0|0|8
104,328,35060,5,0
176,328,35413,2,0,B|176:264,2,50,8|0|0
248,328,36119,1,8
320,328,36472,2,0,B|376:248|376:176,2,150,0|0|8
264,280,37883,5,4
192,280,38236,1,4
192,208,38589,1,4
120,208,38942,1,0
120,208,39119,1,4
256,192,39472,12,0,40354
72,224,40707,6,0,B|72:120,3,100,0|8|0|8
72,124,41942,1,2
142,123,42295,2,0,B|254:123|302:243,1,200,2|2
296,229,43178,1,8
352,184,43530,6,0,B|432:144|432:80,3,100,0|8|0|8
425,118,44766,1,2
424,48,45119,2,0,B|344:40|288:72|272:160,1,200,2|2
274,147,46001,1,8
272,216,46354,6,0,B|176:216|176:152,3,100,0|8|0|8
182,181,47589,2,2,B|136:120|200:96,2,100,2|2|2
182,181,48472,1,2
128,224,48825,2,0,B|104:272|184:312,1,100,8|4
192,56,52001,6,0,B|304:56,1,100,0|8
320,120,52707,2,0,B|200:120,1,100,0|8
192,184,53413,2,0,B|328:184,1,100,0|8
320,248,54119,2,0,B|208:248,1,100,0|8
184,304,54825,5,0
112,304,55178,1,8
112,232,55530,1,0
40,232,55883,1,8
40,160,56236,1,0
112,160,56589,1,8
112,88,56942,1,0
184,88,57295,1,8
256,88,57648,6,0,B|336:88,2,50,0|0|8
256,160,58354,1,0
256,232,58707,1,8
256,304,59060,2,0,B|184:304,2,50,0|0|8
328,304,59766,1,0
400,304,60119,1,8
400,232,60472,5,4
400,160,60825,1,4
400,88,61178,1,4
328,88,61530,1,0
328,88,61707,1,4
256,192,62060,12,0,62942
176,336,63295,6,0,L|248:336,6,50,0|0|8|0|0|0|8
176,264,64707,2,0,L|256:184,3,100,0|8|0|8
296,240,66119,6,0,B|336:280,6,50,0|0|8|0|0|0|8
296,168,67530,2,0,L|400:168,3,100,0|8|0|8
464,168,68942,6,0,B|464:96,2,50,0|0|8
464,240,69648,2,0,B|464:304,2,50,0|0|8
392,240,70354,2,0,B|280:240|232:320,2,150,0|0|8
392,168,71766,5,4
392,96,72119,1,4
320,96,72472,1,4
248,96,72825,1,0
248,96,73001,1,4
256,192,73354,12,0,74236
440,160,74589,6,0,B|440:264,3,100,0|8|0|8
440,260,75825,1,2
370,261,76178,2,0,B|258:261|210:141,1,200,2|2
216,155,77060,1,8
160,200,77413,6,0,B|80:240|80:304,3,100,0|8|0|8
87,266,78648,1,2
88,336,79001,2,0,B|168:344|224:312|240:224,1,200,2|2
238,237,79883,1,8
240,168,80236,6,0,B|336:168|336:232,3,100,0|8|0|8
330,203,81472,2,2,B|376:264|312:288,2,100,2|2|2
330,203,82354,1,2
384,160,82707,2,0,B|384:72|344:48|192:48|142:62|96:88|96:168,1,400,8|4
256,192,84472,12,4,85883
384,72,86236,5,0
384,72,86413,2,0,B|296:72|224:128|224:216,1,200,0|2
336,176,87648,1,0
336,176,87825,2,0,B|296:248|224:288,1,150,0|0
233,282,88530,2,2,B|152:336|48:288|72:160|184:88,1,350,2|0
256,192,89942,12,0,91530
344,264,91883,5,0
344,264,92060,2,0,B|408:232|416:104|368:80,2,200,0|2|0
288,136,94178,2,2,B|72:144|56:280|56:368,1,350,2|0
256,192,95766,12,4,97178
256,192,102119,6,0,B|288:192,4,25
256,120,102825,5,0
256,120,103001,1,0
152,120,103530,2,0,B|152:240,3,100,0|8|0|8
152,288,104942,1,0
224,288,105295,1,8
296,288,105648,5,0
368,288,106001,1,8
440,288,106354,2,0,B|440:224|371:271|371:163,2,150,0|0|8
368,288,107766,1,0
296,288,108119,1,8
296,288,108295,6,0,C|280:272|248:288|200:264|168:296|136:264,1,200,0|0
140,269,109178,1,0
96,208,109530,1,8
96,208,109707,2,0,B|184:120|216:120,1,150,0|0
280,104,110589,1,0
352,96,110942,1,8
424,96,111295,5,0
456,96,111472,2,0,C|456:168,1,50
456,184,111825,2,0,B|456:270|345:271,1,150,0|0
248,272,112707,1,0
248,272,112883,2,0,C|192:272,1,50
256,192,113236,12,0,114119
