osu file format v12

[General]
AudioFilename: B2ST - Midnight.mp3
AudioLeadIn: 0
PreviewTime: 62976
Countdown: 0
SampleSet: Soft
StackLeniency: 0.7
Mode: 0
LetterboxInBreaks: 1
WidescreenStoryboard: 0

[Editor]
Bookmarks: 113966,129326,236930
DistanceSpacing: 0.8
BeatDivisor: 4
GridSize: 8
TimelineZoom: 1

[Metadata]
Title:Midnight (Japan ver.)
TitleUnicode:별 헤는 밤
Artist:Beast/B2ST
ArtistUnicode:비스트
Creator:OscaR CUBE
Version:Normal
Source:
Tags:b2st beast kpop jpop midnight sun cubeent.
BeatmapID:367960
BeatmapSetID:148873

[Difficulty]
HPDrainRate:5
CircleSize:3
OverallDifficulty:4
ApproachRate:5
SliderMultiplier:1.3
SliderTickRate:1

[Events]
//Background and Video events
Video,0,"B2ST - Midnight MV.avi"
0,0,"BEAST-Midnight-Sun-beast-b2st-31566024-1920-1280.jpg",0,0
//Break Periods
2,52695,58935
2,113966,128127
2,175677,181957
//Storyboard Layer 0 (Background)
//Storyboard Layer 1 (Fail)
//Storyboard Layer 2 (Pass)
//Storyboard Layer 3 (Foreground)
//Storyboard Sound Samples
//Background Colour Transformations
3,100,163,162,255

[TimingPoints]
10215,480,4,2,0,75,1,0
36135,-100,4,2,0,50,0,0
36375,-100,4,2,0,25,0,0
36615,-100,4,2,0,5,0,0
37095,-80,4,2,0,90,0,0
67866,480,4,1,0,100,1,1
67866,-71.4285714285714,4,1,0,100,0,1
83226,-80,4,1,0,100,0,0
98607,480,4,1,0,95,1,0
98607,-80,4,1,0,95,0,0
144718,480,4,1,0,100,1,1
144718,-71.4285714285714,4,1,0,100,0,1
160117,480,4,1,0,100,1,0
160117,-80,4,1,0,100,0,0
175477,-80,4,1,0,90,0,0
190837,-100,4,2,0,90,0,0
198517,-100,4,1,0,90,0,0
198757,-100,4,2,0,90,0,0
204277,-80,4,1,0,90,0,0
206197,-71.4285714285714,4,1,0,90,0,1
221557,-71.4285714285714,4,1,0,75,0,0

[Colours]
Combo1 : 255,34,34
Combo2 : 47,255,255
Combo3 : 191,191,191
Combo4 : 255,145,34

[HitObjects]
128,104,14055,5,0,0:0:0:0:
192,192,14535,1,0,0:0:0:0:
256,104,15015,1,0,0:0:0:0:
328,192,15495,1,8,0:0:0:0:
328,296,15975,2,0,P|264:320|200:288,1,130
208,192,16935,2,0,P|264:168|328:192,1,130,0|8,0:0|0:0,0:0:0:0:
400,256,17895,2,0,P|432:176|392:128,1,130
312,144,18855,2,0,P|264:88|208:96,1,130,0|8,0:0|0:0,0:0:0:0:
184,192,19815,2,0,P|112:208|88:256,1,130
184,296,20775,2,0,P|232:344|296:328,1,130,0|8,0:0|0:0,0:0:0:0:
256,232,21735,6,0,P|304:152|352:136,2,130
152,232,23175,1,8,0:0:0:0:
152,128,23655,2,0,P|120:56|56:32,2,130
256,128,25095,1,8,0:0:0:0:
360,128,25575,2,0,P|392:208|440:232,2,130
256,128,27015,1,8,0:0:0:0:
152,128,27495,2,0,P|120:208|72:232,2,130
224,320,29415,6,0,B|240:336|240:336|256:320|256:320|272:336|272:336|288:320|288:320|304:336|304:336|304:328,2,97.5,4|0|0,0:0|0:0|0:0,0:0:0:0:
128,80,31335,2,0,B|112:64|112:64|96:80|96:80|80:64|80:64|64:80|64:80|56:64,2,97.5,4|0|0,0:0|0:0|0:0,0:0:0:0:
384,80,33255,2,0,B|400:64|400:64|416:80|416:80|432:64|432:64|448:80|448:80|464:64,2,97.5,4|0|0,0:0|0:0|0:0,0:0:0:0:
152,192,35175,6,8,L|104:192,12,32.5
280,192,37095,5,0,0:0:0:0:
344,192,37335,1,0,0:0:0:0:
408,192,37575,2,0,P|352:296|312:312,1,162.5,8|0,0:0|0:0,0:0:0:0:
184,312,38535,1,8,0:0:0:0:
184,184,39015,2,0,L|184:96,2,81.25,0|0|8,0:0|0:0|0:0,0:0:0:0:
312,184,39975,2,0,P|344:104|432:88,1,162.5,0|8,0:0|0:0,0:0:0:0:
416,216,40935,2,0,P|384:296|312:320,1,162.5,0|8,0:0|0:0,0:0:0:0:
312,184,41895,2,0,P|232:216|208:304,1,162.5,0|8,0:0|0:0,0:0:0:0:
336,304,42855,2,0,P|416:264|424:176,1,162.5,0|8,0:0|0:0,0:0:0:0:
304,184,43815,2,0,P|344:96|408:80,1,162.5,0|8,0:0|0:0,0:0:0:0:
424,216,44775,1,4,0:0:0:0:
312,288,45255,5,8,0:0:0:0:
184,288,45735,1,0,0:0:0:0:
96,192,46215,1,8,0:0:0:0:
96,128,46455,2,0,B|96:48|96:48|184:48,1,162.5
240,48,47175,1,8,0:0:0:0:
368,56,47655,1,0,0:0:0:0:
368,184,48135,1,8,0:0:0:0:
368,248,48375,2,0,B|368:328|368:328|280:328,1,162.5
224,328,49095,5,8,0:0:0:0:
96,328,49575,1,0,0:0:0:0:
96,200,50055,1,8,0:0:0:0:
96,72,50535,1,0,0:0:0:0:
224,72,51015,1,8,0:0:0:0:
352,72,51495,1,0,0:0:0:0:
288,184,51975,1,8,0:0:0:0:
416,184,52455,1,4,0:0:0:0:
208,240,60135,5,0,0:0:0:0:
304,136,60615,1,8,0:0:0:0:
256,264,61095,1,0,0:0:0:0:
256,112,61575,1,8,0:0:0:0:
304,240,62055,1,0,0:0:0:0:
208,136,62535,1,8,0:0:0:0:
336,192,63015,1,0,0:0:0:0:
184,192,63495,1,8,0:0:0:0:
104,192,63975,2,0,P|288:40|416:216,1,487.5
256,192,65895,12,4,67335,0:0:0:0:
256,264,67866,6,0,P|240:216|192:200,2,90.9999972229005,2|0|8,0:0|0:0|0:0,0:0:0:0:
208,128,68826,2,0,P|240:88|288:88,1,90.9999972229005
272,160,69306,2,0,P|336:128|344:80,1,90.9999972229005,8|0,0:0|0:0,0:0:0:0:
400,88,69786,2,0,P|328:56|304:72,2,90.9999972229005,2|0|8,0:0|0:0|0:0,0:0:0:0:
400,200,70746,2,0,P|400:256|344:272,1,90.9999972229005,0|0,0:0|0:0,0:0:0:0:
336,208,71226,2,0,P|304:248|312:296,1,90.9999972229005,8|0,0:0|0:0,0:0:0:0:
384,264,71706,2,0,P|376:320|344:352,2,90.9999972229005,2|0|8,0:0|0:0|0:0,0:0:0:0:
384,120,72666,1,0,0:0:0:0:
240,120,73146,1,8,0:0:0:0:
312,248,73626,5,2,0:0:0:0:
312,248,73866,1,0,0:0:0:0:
312,248,74106,1,8,0:0:0:0:
168,248,74586,1,0,0:0:0:0:
168,104,75066,1,8,0:0:0:0:
296,176,75546,2,0,L|392:176,2,90.9999972229005,0|0|8,0:0|0:0|0:0,0:0:0:0:
200,288,76506,1,0,0:0:0:0:
88,192,76986,2,0,P|152:96|208:96,1,181.999994445801,8|2,0:0|0:0,0:0:0:0:
280,96,77706,1,0,0:0:0:0:
352,96,77946,1,8,0:0:0:0:
256,208,78426,6,0,P|224:296|112:296,1,181.999994445801,0|8,0:0|0:0,0:0:0:0:
136,168,79386,2,0,L|136:64,2,90.9999972229005,2|0|8,0:0|0:0|0:0,0:0:0:0:
208,296,80346,2,0,L|304:296,2,90.9999972229005,0|0|8,0:0|0:0|0:0,0:0:0:0:
288,176,81306,2,0,L|368:104,2,90.9999972229005,2|0|8,0:0|0:0|0:0,0:0:0:0:
144,176,82266,2,0,L|144:112,8,45.4999986114502,0|0|0|0|8|0|0|0|6,0:0|0:0|0:0|0:0|0:0|0:0|0:0|0:0|0:0,0:0:0:0:
264,128,83706,1,8,0:0:0:0:
392,128,84186,6,0,P|456:184|432:256,1,162.5,0|8,0:0|0:0,0:0:0:0:
360,216,84906,1,0,0:0:0:0:
360,216,85146,2,0,P|352:296|432:344,1,162.5,2|8,0:0|0:0,0:0:0:0:
432,256,85866,1,0,0:0:0:0:
432,256,86106,2,0,P|432:160|368:128,1,162.5,0|8,0:0|0:0,0:0:0:0:
264,192,87066,2,0,P|192:176|128:232,1,162.5,2|8,0:0|0:0,0:0:0:0:
224,320,88026,2,0,P|312:336|360:264,1,162.5,0|8,0:0|0:0,0:0:0:0:
352,160,88986,2,0,L|352:72,2,81.25,2|0|8,0:0|0:0|0:0,0:0:0:0:
248,80,89946,2,0,L|248:176,2,81.25,0|0|8,0:0|0:0|0:0,0:0:0:0:
128,128,90906,6,0,P|48:192|56:272,1,162.5,2|8,0:0|0:0,0:0:0:0:
176,224,91866,1,0,0:0:0:0:
304,224,92346,1,8,0:0:0:0:
368,336,92826,2,0,P|456:272|432:200,1,162.5,2|8,0:0|0:0,0:0:0:0:
448,104,93786,2,0,L|360:104,2,81.25,0|0|8,0:0|0:0|0:0,0:0:0:0:
368,208,94746,2,0,L|464:208,2,81.25,2|0|8,0:0|0:0|0:0,0:0:0:0:
240,208,95706,2,0,L|240:296,2,81.25,0|0|8,0:0|0:0|0:0,0:0:0:0:
240,80,96666,2,0,L|240:32,12,40.625
368,72,98607,1,6,0:0:0:0:
376,200,99086,5,8,0:0:0:0:
288,288,99567,2,0,P|240:304|208:272,1,81.25
88,256,100286,1,0,0:0:0:0:
80,128,100767,2,0,P|136:96|240:152,1,162.5
352,128,101726,1,8,0:0:0:0:
416,128,101966,1,8,0:0:0:0:
192,264,102926,5,8,0:0:0:0:
232,136,103407,2,0,P|184:120|152:152,1,81.25
56,208,104126,1,0,0:0:0:0:
56,80,104606,1,0,0:0:0:0:
168,144,105087,2,8,P|240:200|344:200,1,162.5,0|8,0:0|0:0,0:0:0:0:
376,208,105806,1,8,0:0:0:0:
136,104,106766,5,8,0:0:0:0:
264,104,107247,2,0,P|328:104|328:144,1,81.25
352,240,107966,1,0,0:0:0:0:
224,232,108447,2,0,P|152:232|128:264,1,81.25,0|8,0:0|0:0,0:0:0:0:
80,232,108926,1,0,0:0:0:0:
192,296,109406,1,0,0:0:0:0:
256,296,109646,1,8,0:0:0:0:
320,296,109886,2,2,P|400:224|376:160,1,162.5
264,216,110847,2,2,P|280:120|360:104,1,162.5
392,216,111806,2,2,P|384:304|288:328,1,162.5
256,192,129327,6,0,P|280:128|384:128,1,162.5,2|8,0:0|0:0,0:0:0:0:
344,240,130287,2,0,P|296:320|208:296,1,162.5,0|8,0:0|0:0,0:0:0:0:
256,192,131247,2,0,P|160:216|152:296,1,162.5,2|8,0:0|0:0,0:0:0:0:
264,312,132206,2,0,P|368:272|376:208,1,162.5,0|8,0:0|0:0,0:0:0:0:
256,192,133166,2,0,P|312:112|392:136,1,162.5,2|8,0:0|0:0,0:0:0:0:
360,248,134126,2,0,P|424:272|456:264,2,81.25,0|0|8,0:0|0:0|0:0,0:0:0:0:
440,144,135087,2,0,P|384:120|344:144,2,81.25,2|0|8,0:0|0:0|0:0,0:0:0:0:
328,216,136047,2,0,P|272:216|248:176,2,81.25,0|0|8,0:0|0:0|0:0,0:0:0:0:
224,136,137007,6,2,B|8:16|-64:272|120:352|232:232,1,487.5
256,192,138686,1,8,0:0:0:0:
296,136,138927,2,2,B|512:16|584:272|400:352|288:232,1,487.5
256,200,140606,2,0,L|160:200,1,81.25,8|2,0:0|0:0,0:0:0:0:
48,200,141326,1,8,0:0:0:0:
48,72,141806,1,0,0:0:0:0:
176,80,142286,2,0,L|257:80,1,81.25,8|0,0:0|0:0,0:0:0:0:
384,80,143006,2,0,L|432:80,10,40.625,0|0|8|0|0|0|0|0|0|0|0,0:0|0:0|0:0|0:0|0:0|0:0|0:0|0:0|0:0|0:0|0:0,0:0:0:0:
264,160,144718,6,0,P|328:72|416:72,1,181.999994445801,4|8,0:0|0:0,0:0:0:0:
328,192,145678,2,0,P|424:224|456:304,1,181.999994445801,0|8,0:0|0:0,0:0:0:0:
312,264,146638,2,0,P|272:344|152:344,1,181.999994445801,2|8,0:0|0:0,0:0:0:0:
248,232,147598,2,0,P|152:208|136:104,1,181.999994445801,0|8,0:0|0:0,0:0:0:0:
272,136,148558,2,0,L|368:136,2,90.9999972229005,2|0|8,0:0|0:0|0:0,0:0:0:0:
128,136,149518,2,0,L|128:40,2,90.9999972229005,0|0|8,0:0|0:0|0:0,0:0:0:0:
176,272,150478,2,0,L|72:272,2,90.9999972229005,2|0|8,0:0|0:0|0:0,0:0:0:0:
320,232,151438,2,0,L|320:328,2,90.9999972229005,0|0|8,0:0|0:0|0:0,0:0:0:0:
384,96,152398,5,2,0:0:0:0:
456,96,152638,1,0,0:0:0:0:
456,168,152878,1,8,0:0:0:0:
384,168,153118,1,0,0:0:0:0:
384,240,153358,1,0,0:0:0:0:
312,240,153598,1,0,0:0:0:0:
312,312,153838,1,8,0:0:0:0:
168,312,154318,5,2,0:0:0:0:
168,240,154558,1,0,0:0:0:0:
240,240,154798,1,8,0:0:0:0:
240,168,155038,1,0,0:0:0:0:
312,168,155278,1,0,0:0:0:0:
312,96,155518,1,0,0:0:0:0:
240,96,155758,1,8,0:0:0:0:
96,104,156238,6,0,P|72:192|136:240,1,181.999994445801,2|8,0:0|0:0,0:0:0:0:
192,104,157198,2,0,P|256:160|216:256,1,181.999994445801,0|8,0:0|0:0,0:0:0:0:
96,192,158158,2,0,P|24:120|56:56,1,181.999994445801,2|8,0:0|0:0,0:0:0:0:
184,120,159118,2,0,P|248:56|336:96,1,181.999994445801,0|8,0:0|0:0,0:0:0:0:
224,192,160117,6,0,P|280:240|280:328,1,162.5,6|8,0:0|0:0,0:0:0:0:
160,272,161077,2,0,P|88:216|112:144,1,162.5,0|8,0:0|0:0,0:0:0:0:
232,176,162037,2,0,P|272:104|360:112,1,162.5,2|8,0:0|0:0,0:0:0:0:
336,232,162997,2,0,P|408:264|408:344,1,162.5,0|8,0:0|0:0,0:0:0:0:
288,304,163957,2,0,P|232:320|208:296,2,81.25,2|0|8,0:0|0:0|0:0,0:0:0:0:
288,176,164917,2,0,P|328:160|376:184,2,81.25,0|0|8,0:0|0:0|0:0,0:0:0:0:
160,176,165877,2,0,P|112:144|64:168,2,81.25,2|0|8,0:0|0:0|0:0,0:0:0:0:
160,304,166837,2,0,P|112:304|88:256,2,81.25,0|0|8,0:0|0:0|0:0,0:0:0:0:
256,216,167797,6,0,P|168:144|96:152,1,162.5,2|8,0:0|0:0,0:0:0:0:
56,144,168517,1,0,0:0:0:0:
56,208,168757,2,0,P|136:272|200:272,1,162.5,0|8,0:0|0:0,0:0:0:0:
256,272,169477,1,0,0:0:0:0:
256,208,169717,2,8,P|328:160|424:192,1,162.5,2|8,0:0|0:0,0:0:0:0:
464,176,170437,1,0,0:0:0:0:
464,240,170677,2,0,P|400:288|320:272,1,162.5,0|8,0:0|0:0,0:0:0:0:
240,176,171637,6,8,P|144:120|80:152,1,162.5,2|8,0:0|0:0,0:0:0:0:
168,224,172597,2,0,P|208:120|272:104,1,162.5,0|8,0:0|0:0,0:0:0:0:
256,192,173557,2,0,P|160:136|112:152,1,162.5,2|8,0:0|0:0,0:0:0:0:
176,264,174517,2,0,L|176:320,8,40.625,0|0|0|0|8|0|0|0|4,0:0|0:0|0:0|0:0|0:0|0:0|0:0|0:0|0:0,0:0:0:0:
64,184,183157,6,2,P|168:56|320:80,1,325,2|0,0:0|0:0,0:0:0:0:
440,80,184597,1,8,0:0:0:0:
344,168,185077,2,2,P|216:296|80:272,1,325,2|0,0:0|0:0,0:0:0:0:
88,144,186517,1,8,0:0:0:0:
184,64,186997,2,0,L|280:64,6,81.25
256,192,188917,12,4,190837,0:0:0:0:
112,192,191797,6,0,P|176:104|272:96,1,195,2|2,0:0|0:0,0:0:0:0:
304,96,192757,1,0,0:0:0:0:
304,200,193237,1,8,0:0:0:0:
200,200,193717,2,0,P|240:280|352:288,1,195,2|2,0:0|0:0,0:0:0:0:
392,296,194677,1,2,0:0:0:0:
392,192,195157,1,8,0:0:0:0:
392,88,195637,2,0,B|296:88|296:88|296:208,1,195,2|2,0:0|0:0,0:0:0:0:
248,184,196597,1,2,0:0:0:0:
248,88,197077,1,8,0:0:0:0:
128,88,197557,2,0,B|32:88|32:88|32:192,1,195,0|0,0:0|0:0,0:0:0:0:
32,240,198517,1,4,0:0:0:0:
232,192,199477,6,0,P|320:248|392:184,1,195,0|2,0:0|0:0,0:0:0:0:
384,152,200437,1,2,0:0:0:0:
184,112,201397,2,0,P|88:64|16:128,1,195,0|2,0:0|0:0,0:0:0:0:
24,160,202357,1,2,0:0:0:0:
232,192,203317,2,0,P|312:238|390:189,1,195,0|4,0:0|0:0,0:0:0:0:
392,128,204277,1,4,0:0:0:0:
256,192,204757,2,0,L|304:192,8,40.625,8|0|0|0|0|0|0|0|8,0:0|0:0|0:0|0:0|0:0|0:0|0:0|0:0|0:0,0:0:0:0:
256,192,206197,12,8,207637,0:0:0:0:
256,192,208117,6,0,P|312:96|400:104,1,181.999994445801,2|8,0:0|0:0,0:0:0:0:
456,208,209077,2,0,P|424:296|336:312,1,181.999994445801,0|8,0:0|0:0,0:0:0:0:
328,168,210037,2,0,P|272:152|240:176,2,90.9999972229005,2|0|8,0:0|0:0|0:0,0:0:0:0:
416,280,210997,2,0,P|392:224|352:216,2,90.9999972229005,0|0|8,0:0|0:0|0:0,0:0:0:0:
376,136,211957,2,0,P|448:136|456:96,2,90.9999972229005,2|0|8,0:0|0:0|0:0,0:0:0:0:
288,24,212917,2,0,P|296:80|328:96,2,90.9999972229005,0|0|8,0:0|0:0|0:0,0:0:0:0:
232,160,213877,6,0,P|160:96|48:120,1,181.999994445801,2|8,0:0|0:0,0:0:0:0:
40,240,214837,2,0,P|112:312|200:296,1,181.999994445801,0|8,0:0|0:0,0:0:0:0:
144,168,215797,2,0,P|256:192|280:264,1,181.999994445801,2|8,0:0|0:0,0:0:0:0:
352,120,216757,2,0,P|248:112|208:32,1,181.999994445801,0|8,0:0|0:0,0:0:0:0:
128,168,217717,2,0,P|96:80|152:16,1,181.999994445801,2|8,0:0|0:0,0:0:0:0:
208,152,218677,2,0,P|304:120|368:168,1,181.999994445801,0|8,0:0|0:0,0:0:0:0:
232,216,219637,2,0,P|288:312|256:376,1,181.999994445801,2|8,0:0|0:0,0:0:0:0:
136,296,220597,2,0,L|72:296,8,45.4999986114502,0|0|0|0|8|0|0|0|4,0:0|0:0|0:0|0:0|0:0|0:0|0:0|0:0|0:0,0:0:0:0:
