osu file format v9

[General]
AudioFilename: BEASTFICTION.mp3
AudioLeadIn: 0
PreviewTime: -1
Countdown: 1
SampleSet: Soft
StackLeniency: 0.7
Mode: 0
LetterboxInBreaks: 1

[Editor]
DistanceSpacing: 0.8
BeatDivisor: 4
GridSize: 8

[Metadata]
Title:Fiction
Artist:Beast
Creator:PotsBreaker
Version:Normal
Source:
Tags:

[Difficulty]
HPDrainRate:5
CircleSize:4
OverallDifficulty:5
ApproachRate:5
SliderMultiplier:1.4
SliderTickRate:1

[Events]
//Background and Video events
Video,0,"Fiction3.avi"
0,0,"2nd_1024x768 .JPG"
//Break Periods
2,68168,78003
2,131678,141294
2,145038,204575
//Storyboard Layer 0 (Background)
//Storyboard Layer 1 (Fail)
//Storyboard Layer 2 (Pass)
//Storyboard Layer 3 (Foreground)
//Storyboard Sound Samples
//Background Colour Transformations
3,100,163,162,255

[TimingPoints]
22963,468.75,4,2,2,70,1,0
81556,-100,4,1,1,70,0,0
114838,-100,4,2,2,70,0,0

[HitObjects]
144,280,37963,2,0,B|104:192|192:112|272:144|296:224,1,280,0|8
264,328,39369,2,0,B|384:344|456:264|440:168|408:144,1,280,0|0
352,72,40775,1,8
240,72,41244,1,0
128,72,41713,1,8
56,152,42181,1,0
96,192,42416,6,0,B|184:192,1,70,0|8
256,256,43119,1,0
352,200,43587,1,0
288,112,44056,1,0
192,56,44524,1,8
176,112,44759,6,0,B|32:112,1,140
36,112,45461,1,0
112,192,45930,1,0
208,248,46399,1,8
304,192,46868,1,0
376,280,47336,2,0,B|440:176|392:64|312:48,1,280,0|8
216,104,48742,6,0,B|120:104|88:184,1,140
208,168,49680,2,2,B|192:368|368:352,1,280
352,240,51085,2,0,B|424:192|368:120,1,140,0|2
256,192,51788,12,0,52960
128,192,53194,6,0,B|128:104,2,70
184,192,53897,2,0,B|184:280,2,70
240,192,54600,1,0
240,192,54835,1,0
240,192,55069,1,0
296,192,55303,6,0,B|368:192,1,70
416,168,55772,1,2
312,120,56240,1,0
312,120,56474,1,2
256,104,56708,2,0,B|184:72|112:112,1,140
16,136,57645,6,0,B|104:176|56:264,1,140
176,232,58583,1,0
288,232,59057,2,0,B|288:312,1,70
344,296,59526,1,2
232,296,60000,1,0
232,296,60230,1,2
176,296,60463,6,0,B|88:272|128:160,1,140
176,88,61401,2,0,B|248:48|320:88,1,140
368,80,62103,1,0
424,80,62332,1,0
424,136,62566,6,0,B|344:136,1,70
296,136,63046,1,0
288,192,63269,1,2
192,136,63737,1,0
192,136,63972,1,2
192,192,64206,2,0,B|168:280|304:280,1,140
376,248,65144,2,0,B|472:208|456:112,1,140
416,112,65847,6,0,B|344:112,1,70
248,64,66550,1,0
248,64,66784,2,0,B|248:152,1,70
152,192,67487,1,2
152,192,67721,1,2
152,192,67968,1,4
256,192,79203,12,4,81077
184,192,81780,6,2,B|184:104,3,70
184,232,82952,1,8
72,232,83421,2,0,B|40:144|96:56|152:224|272:80|160:32,1,280,0|8
240,72,84592,2,0,B|328:72,1,70
310,72,85061,1,8
408,128,85529,2,8,B|408:208,3,70,10|8|10|8
304,152,86701,2,0,B|296:80|216:48|128:40|88:104|88:160,1,280,0|2
56,232,88107,6,0,B|136:232,1,70,0|8
176,248,88576,2,0,B|272:248,1,70,0|8
352,208,89279,2,2,B|424:88|264:40,1,210
285,47,90216,1,0
232,48,90450,2,0,B|160:56|112:160|128:160,1,140,0|8
80,120,91153,1,0
40,160,91387,2,0,B|96:224|168:216,1,140,0|8
272,216,92325,6,0,B|240:296|136:296,1,140,0|8
272,312,93262,2,0,B|360:312,2,70,10|0|8
296,264,93965,1,0
328,216,94199,2,0,B|424:160|352:64|360:80,1,140,0|8
336,56,94902,1,0
280,72,95137,2,0,B|136:72,1,140,0|4
256,192,95853,12,0,96790
136,192,97025,5,0
192,192,97259,1,0
248,192,97494,2,0,B|400:192,1,140,8|0
304,112,98431,6,8,B|208:32|144:32|40:120,1,280,8|8
48,168,99603,1,0
80,216,99838,2,0,B|112:288|192:296,1,140,0|8
240,288,100541,1,0
288,312,100775,2,0,B|368:312|384:208,1,140,0|8
416,184,101478,5,0
384,136,101713,1,0
352,88,101947,1,0
320,136,102181,2,0,B|160:136,1,140,8|0
128,120,102884,1,0
80,88,103119,2,0,B|16:264|208:304,1,280,8|8
216,248,104291,5,0
272,232,104525,2,0,B|352:232,1,70,0|0
392,208,104994,1,8
360,160,105228,2,2,B|280:160,3,70
248,120,106166,5,0
200,96,106400,2,0,B|136:112|112:200,1,140,0|8
168,216,107103,5,0
224,208,107338,2,0,B|216:296|312:320,1,140,0|8
344,296,108041,5,0
384,256,108275,2,0,B|384:184|288:136,1,140,0|8
280,104,108978,6,8,B|144:88|80:200,2,210,0|8|0
280,104,110619,1,8
256,192,110831,12,0,111534
256,192,111791,6,2,B|256:112,1,70
312,128,112259,1,8
200,128,112728,1,0
200,128,112963,1,0
200,128,113197,1,4
256,192,115775,1,2
256,80,116244,1,2
256,80,116478,1,0
200,80,116713,2,0,B|104:80,1,70
96,120,117181,2,0,B|96:208,1,70
112,240,117650,2,0,B|208:240,3,70
240,240,118588,1,0
240,240,118822,1,0
240,240,119056,1,0
328,176,119525,1,2
328,64,119994,1,2
328,64,120228,1,2
272,64,120463,2,0,B|120:64,1,140
120,120,121166,2,0,B|120:208,1,70
176,184,121634,2,0,B|176:272,1,70
224,280,122103,1,0
280,280,122338,1,0
224,280,122572,1,0
248,232,122806,2,0,B|336:120,1,140,0|2
424,192,123744,1,2
424,192,123978,1,2
424,136,124213,2,0,B|416:48|320:24,1,140
288,40,124916,1,0
288,40,125150,1,0
288,40,125384,2,0,B|288:120,1,70
264,160,125853,2,0,B|168:160,2,70
320,168,126556,2,0,B|320:320,1,140,0|2
208,280,127494,1,2
208,280,127728,1,2
160,256,127963,2,0,B|40:224|120:136,1,140
160,152,128666,2,0,B|224:216,1,70
264,176,129134,2,0,B|384:168|368:64|344:80,1,140
328,48,129838,1,0
264,136,130306,1,0
200,48,130775,1,2
328,48,131244,1,2
328,48,131478,1,2
256,192,142494,12,0,144838
256,192,205775,5,0
256,192,206244,5,4
