osu file format v9

[General]
AudioFilename: BEASTFICTION.mp3
AudioLeadIn: 0
PreviewTime: -1
Countdown: 1
SampleSet: Soft
StackLeniency: 0.7
Mode: 0
LetterboxInBreaks: 1

[Editor]
DistanceSpacing: 0.8
BeatDivisor: 2
GridSize: 8

[Metadata]
Title:Fiction
Artist:Beast
Creator:PotsBreaker
Version:Easy
Source:
Tags:

[Difficulty]
HPDrainRate:3
CircleSize:3
OverallDifficulty:3
ApproachRate:2
SliderMultiplier:1.2
SliderTickRate:1

[Events]
//Background and Video events
Video,0,"Fiction3.avi"
0,0,"2nd_1024x768 .JPG"
//Break Periods
2,67922,78590
2,116678,204215
//Storyboard Layer 0 (Background)
//Storyboard Layer 1 (Fail)
//Storyboard Layer 2 (Pass)
//Storyboard Layer 3 (Foreground)
//Storyboard Sound Samples
//Background Colour Transformations
3,100,163,162,255

[TimingPoints]
22963,468.75,4,2,2,70,1,0
81556,-100,4,1,1,70,0,0
114838,-100,4,2,2,70,0,0

[HitObjects]
72,192,37963,2,0,B|88:80|208:88|216:200,1,240,0|8
160,280,39369,2,0,B|288:280,1,120,0|8
336,200,40307,1,0
432,200,40775,6,8,B|448:80|256:96,1,240,8|8
168,72,42181,1,0
72,96,42650,2,8,B|72:232|240:224,1,240
192,136,44056,5,0
264,80,44524,2,8,B|400:80,1,120,8|0
392,176,45462,1,8
480,136,45930,6,8,B|480:272,1,120,0|8
392,288,46868,1,0
312,240,47336,1,8
232,288,47805,1,0
152,240,48274,1,8
232,184,48742,1,0
312,128,49211,2,0,B|416:128,2,60,8|0|0
256,192,50148,12,0,51554
256,192,52023,5,2
256,96,52491,1,2
256,96,52726,1,2
216,112,52960,2,0,B|128:240|272:320,1,240,0|8
352,288,54366,5,0
440,240,54835,2,0,B|432:152|352:104|264:104,1,240,0|8
176,104,56240,1,2
176,104,56475,1,2
176,104,56709,2,0,B|80:144|112:232,2,120,0|8|0
216,192,58115,5,0
304,160,58584,2,0,B|304:304,2,120,0|8|0
296,64,59990,1,2
296,64,60224,1,2
296,64,60458,2,0,B|192:152,1,120,0|8
112,112,61396,5,0
48,184,61864,1,8
112,256,62333,1,0
176,184,62801,1,8
272,184,63270,2,2,B|392:184,1,120
392,184,63973,1,2
392,136,64207,6,0,B|392:56,2,60
320,72,65145,2,0,B|168:72,1,120
152,72,65848,2,0,B|152:144,2,60
104,72,66551,5,0
80,168,67019,2,2,B|216:168,1,120
200,168,67722,1,2
256,192,80150,12,0,81087
256,192,82025,2,0,B|256:72,1,120,2|2
160,96,82963,1,0
96,168,83431,1,8
160,240,83900,1,0
240,296,84369,2,8,B|376:248|392:184|392:128,1,240
328,56,85775,6,0,B|200:56,1,120,0|8
112,56,86713,2,8,B|32:144|56:224|128:280,1,240,0|2
184,200,88119,2,2,B|304:200,1,120,8|0
256,112,89056,1,8
256,112,89525,1,0
344,80,89994,6,0,B|456:160,1,120
472,240,90931,2,0,B|328:336,1,120,8|0
272,304,91869,2,0,B|176:224,1,120,8|0
192,128,92806,1,8
192,128,93275,1,0
192,128,93744,2,0,B|328:128,1,120,8|0
352,216,94681,5,8
160,208,95619,1,8
256,40,96556,1,8
256,136,97025,2,0,B|256:280,2,120,0|8|0
160,136,98431,1,8
72,168,98900,2,0,B|64:264|112:320|168:336|232:344|256:328,1,240
256,248,100306,5,8
344,216,100775,2,0,B|344:128,2,60,0|0|8
256,184,101713,1,0
256,184,102181,1,8
256,184,102650,2,0,B|296:96|384:88|416:136|464:192,1,240
408,256,104056,1,8
320,288,104525,5,0
232,248,104994,2,0,B|112:168|152:80|232:48|240:48,1,240,8|0
312,72,106400,2,0,B|424:184|376:256|312:272,1,240
272,184,107806,1,8
272,184,108275,1,0
272,184,108744,1,8
256,192,109213,12,0,111088
128,192,111556,6,0,B|168:264|240:304|304:304|368:272|416:240|440:208|456:176,1,360
144,192,115775,1,2
216,128,116244,2,2,B|288:128,1,60
256,192,205775,5,0
256,192,206244,1,4
