osu file format v5

[General]
AudioFilename: BeFour Live Your Dream.mp3
AudioLeadIn: 0
PreviewTime: -1
Countdown: 0
SampleSet: Soft
StackLeniency: 0.8
Mode: 0
LetterboxInBreaks: 1
EditorBookmarks: 109059
EditorDistanceSpacing: 1

[Metadata]
Title:Live your Dream
Artist:BeFour
Creator:OTTOPIPI
Version:OTTOPIPIs Mix
Source:
Tags:

[Difficulty]
HPDrainRate:4
CircleSize:5
OverallDifficulty:6
SliderMultiplier:1.2
SliderTickRate:1

[Events]
//Background and Video events
0,0,"LiveYourDream_Singlecover_300.jpg"
1,0,"BeFour Live Your Dream.avi"
//Break Periods
2,50109,51137
2,79180,94188
2,122533,124101
2,153096,165936
//Storyboard Layer 0 (Background)
//Storyboard Layer 1 (Failing)
//Storyboard Layer 2 (Passing)
//Storyboard Layer 3 (Foreground)
//Storyboard Sound Samples
//Background Colour Transformations
3,100,0,64,128

[TimingPoints]
22207.7478722865,293.915940041148,4,2,0,100,1,0
51819,-100,4,2,0,100,0,1
64972,-50,4,2,0,100,0,0
66074,-100,4,2,0,100,0,0
166806,-100,4,2,0,100,0,1
173427,-100,4,2,0,100,0,0

[Colours]
Combo1 : 0,255,255
Combo2 : 128,0,0
Combo3 : 0,0,255
Combo4 : 255,255,255

[HitObjects]
328,192,22207,2,0,B|288:192,1,30
256,192,22501,2,0,B|216:192,1,30
184,192,22795,2,0,B|136:192,1,30
149,192,23162,1,0
112,152,23383,1,0
104,96,23603,1,0
136,56,23824,1,0
192,56,23971,2,0,B|312:56,1,90
282,56,24338,2,0,B|352:56|384:112|296:136|232:120|176:104,1,240
168,152,25073,1,0
192,176,25220,1,0
216,200,25367,1,0
264,224,25587,5,0
320,216,25881,1,0
320,216,25955,1,0
320,216,26028,1,0
88,152,27204,5,0
128,152,27424,1,0
136,104,27645,2,0,B|224:40|224:40|216:184,1,240
224,216,28453,1,0
264,240,28673,1,0
312,240,28894,1,0
352,224,29114,1,0
376,136,29555,5,0
376,136,29702,1,0
376,136,29849,1,0
376,136,29996,1,0
376,136,30143,1,0
376,136,30290,2,0,B|312:136,1,60
316,136,30584,2,0,B|248:136,1,60
112,144,31392,6,0,B|184:144,1,60
176,184,31760,1,0
176,184,31833,1,0
176,184,31906,1,0
176,184,31980,1,0
176,184,32053,2,0,B|240:184,1,60
448,32,33082,5,0
448,320,33523,1,0
64,320,33964,1,0
64,32,34405,5,0
128,96,34846,1,0
192,160,35287,1,0
192,160,35360,1,0
192,160,35433,1,0
192,160,35507,1,0
216,120,36095,6,0,B|256:160,1,30
264,152,36315,2,0,B|264:88,1,60
232,88,36609,2,0,B|200:136,1,30
128,160,37638,5,0
128,192,37711,2,0,B|192:192,1,60
188,192,38005,2,0,B|256:192,1,60
248,192,38299,2,0,B|320:192,1,60
352,192,38667,1,0
384,160,38813,1,0
384,128,38960,1,0
384,96,39107,1,0
256,96,39622,2,0,B|192:96,5,60
64,152,41018,6,0,B|104:200|104:200|128:128,1,120
64,152,41459,1,0
122,145,41679,2,0,B|88:88|88:88|64:160,1,120
122,145,42194,1,0
88,224,42634,6,0,B|160:216,1,60
160,256,43002,2,0,B|240:232,1,60
248,264,43369,2,0,B|328:232,1,60
384,232,43884,2,0,B|392:152|280:216|224:96|464:144|232:40,1,270
104,96,45280,6,0,B|120:184,1,60
128,200,45647,2,0,B|184:128|264:144|232:304|152:304|264:360|320:184,1,360
256,192,46970,12,0,47411
256,192,47484,12,0,47925
256,192,47998,12,0,49909
112,128,52187,6,0,B|160:192,1,60
96,240,52481,2,0,B|144:176,1,60
224,192,52775,2,0,B|256:256,1,60
224,160,53068,2,0,B|288:96,1,60
240,144,53362,1,0
272,144,53509,1,0
320,160,53730,1,0
352,192,53950,1,0
336,224,54171,5,0
304,208,54318,1,0
304,240,54465,1,0
272,224,54611,1,0
272,256,54758,1,0
240,240,54905,1,0
240,272,55052,1,0
144,176,55493,5,0
144,176,55567,1,0
144,176,55640,1,0
144,176,55714,2,0,B|192:176|208:224|128:256,1,120
208,288,56301,1,0
208,288,56375,1,0
208,288,56448,1,0
208,288,56522,2,0,B|272:320|304:272|240:208,1,150
245,213,57257,5,0
245,213,57330,1,0
245,213,57404,1,0
245,213,57477,2,0,B|304:224|320:176|240:128,1,150
233,123,58065,1,0
233,123,58138,1,0
233,123,58212,1,0
96,64,59167,5,0
224,64,59388,1,0
352,64,59608,1,0
480,64,59828,1,0
480,160,59975,5,0
384,256,60196,1,0
288,160,60416,1,0
192,256,60637,1,0
112,144,60857,1,0
48,256,61078,1,0
128,224,61225,2,0,B|64:192|144:128|208:208|240:256|240:240|224:112|304:160|320:240|368:272|416:224|384:144|432:128|480:224,1,420
120,120,62621,6,0,B|128:40|216:72,1,120
240,112,63062,2,0,B|272:136|328:144|288:40,1,120
328,56,63429,1,0
352,48,63502,2,0,B|432:32|432:96|352:128,1,150
344,144,63943,2,0,B|392:192|416:232|272:248|280:176,1,180
256,208,64458,1,0
232,224,64531,6,0,B|200:264|144:264|128:192|184:152,1,150
163,172,64972,2,0,B|88:176|88:176|88:80|88:80|176:72,1,240
184,72,65413,6,0,B|280:64|280:64|288:168|288:168|184:168,1,300
72,96,66148,5,0
72,96,66221,1,0
72,96,66295,1,0
128,88,66442,1,0
184,64,66589,1,0
240,72,66736,1,0
296,88,66882,1,0
352,112,67029,6,0,B|408:136|360:208|304:144,1,120
272,200,67470,6,0,B|328:224|280:296|224:232,1,120
200,288,67911,6,0,B|256:312|208:384|152:320,1,120
104,312,68352,6,0,B|160:336|112:408|56:344,1,120
80,232,68940,5,0
80,144,69160,5,0
80,56,69381,5,0
136,56,69528,2,0,B|184:48|184:48|184:112,1,90
240,104,69895,2,0,B|288:56|288:56|312:128,1,120
315,152,70409,2,0,B|376:200|376:200|288:232,1,150
224,240,70997,2,0,B|224:160,1,60
136,160,71365,2,0,B|320:152,1,180
368,128,71953,2,0,B|376:208,5,60
256,160,72981,5,0
256,160,73128,1,0
256,160,73275,1,0
256,160,73422,1,0
256,160,73569,1,0
168,192,73789,2,0,B|176:256|200:296|248:312|296:280|336:240|328:192,1,270
328,144,74598,1,0
328,96,74745,2,0,B|344:24|320:-16|232:-16|152:8|144:64|168:72|160:112,1,300
120,144,75626,1,0
112,168,75773,1,0
104,200,75920,1,0
360,112,76582,5,0
360,168,76729,1,0
360,224,76876,1,0
312,192,77023,1,0
312,128,77170,1,0
256,160,77316,2,0,B|360:224|360:224|360:104|360:104|264:160,2,330
248,168,95245,5,0
168,168,95613,1,0
168,168,95686,1,0
168,168,95760,1,0
160,56,96788,5,0
216,56,96935,1,0
272,56,97082,2,0,B|336:72|336:72|264:112,1,120
224,104,97523,1,0
160,104,97670,1,0
120,104,97817,2,0,B|40:128|40:128|136:168,1,180
224,168,98772,5,0
376,176,99140,2,0,B|336:120|320:80|336:56|368:56|376:88|384:104|384:104|392:56|416:56|432:80|408:120,1,300
320,176,100095,6,0,B|312:168|312:168|312:184|312:184|304:168|304:168|304:184|304:184|296:168|296:168|296:184|296:184|288:168|288:168|288:184|288:184|280:168|280:168|280:184|280:184|272:168|272:168|272:184|272:184|264:168|264:168|264:184|264:184|256:168|256:168|256:184|256:184|248:168|248:168|248:184|248:184|240:168|240:168|240:184|240:184|232:168|232:168|232:184|232:184|224:168|224:168|224:184|224:184|216:168|216:168|216:184|216:184|208:168|208:168|208:184|208:184|200:168,1,480
112,160,101491,2,0,B|104:72|104:72|168:128,1,150
208,120,102005,2,0,B|240:96|240:96|240:152,1,90
256,232,102446,2,0,B|208:272|208:272|208:200,1,120
120,200,102961,2,0,B|200:184|200:184|128:128,1,150
56,224,103622,2,0,B|80:160|80:168|80:168|96:248,1,120
272,216,104357,6,0,B|272:208|272:208|280:216|280:216|280:208|280:208|288:216|288:216|288:208|288:208|296:216|296:216|296:208|296:208|304:216|304:216|304:208|304:208|312:216|312:216|264:216|264:216|264:208|264:208|312:208,3,180
176,176,105973,1,0
184,88,106194,1,0
240,88,106341,1,0
240,144,106488,1,0
296,144,106635,1,0
352,144,106782,1,0
352,80,106929,1,0
288,80,107075,1,0
224,80,107222,1,0
72,88,107590,5,0
72,88,107663,1,0
72,88,107737,1,0
128,64,109133,2,0,B|224:32|320:32|416:64|448:160|448:256|416:352|320:384|224:384|128:352|96:256|96:160|128:96,2,900
160,96,113689,1,0
192,128,113836,1,0
224,160,113983,2,0,B|256:192,8,30
288,192,114791,1,0
320,160,114938,1,0
320,96,115085,1,0
288,64,115232,1,0
224,64,115379,1,0
192,96,115526,1,0
192,160,115673,1,0
224,192,115819,1,0
288,192,115966,1,0
320,160,116040,1,0
288,160,116113,2,0,B|224:96,12,60
112,168,118318,6,0,B|144:192,17,30
216,152,119787,5,0
304,152,120008,1,0
392,152,120228,1,0
344,232,120449,1,0
256,232,120669,1,0
296,312,120890,2,0,B|392:152|392:152|208:152|208:152|288:304,1,540
256,200,125151,6,0,B|232:272|128:240|232:104|280:136|288:72|400:192|320:336|192:320|160:232,1,450
168,200,126327,6,0,B|176:160,18,30
192,144,127797,1,0
248,136,127944,1,0
304,136,128090,1,0
424,136,128384,6,0,B|424:224|360:248|320:224|328:112,1,210
384,144,129046,1,0
424,96,129193,2,0,B|440:32|368:0|296:32|320:104,1,180
376,80,129780,1,0
328,120,129927,1,0
280,160,130074,1,0
240,200,130221,1,0
200,240,130368,1,0
192,176,130515,1,0
104,192,130736,5,0
112,120,130883,6,0,B|160:88|160:88|144:152,4,120
64,152,132205,6,0,B|40:224|40:224|128:168,2,150
112,112,133087,1,0
144,160,133234,1,0
96,192,133381,1,0
56,144,133528,1,0
48,80,133748,2,0,B|104:48|104:48|208:152|208:152|72:248|72:248|0:104,1,510
216,48,135512,2,0,B|56:88|24:208|120:328|288:336|440:216|432:72|288:40|240:48,2,690
296,136,139186,5,0
248,176,139333,1,0
240,112,139480,1,0
192,152,139627,1,0
288,72,139921,1,0
304,192,140214,1,0
256,72,140508,2,0,B|184:88|168:184|168:248|192:280|216:312|280:328|336:296|344:240|360:192|352:120|312:80|296:64,1,540
56,88,142419,5,0
88,136,142566,1,0
152,72,142786,2,0,B|352:72|352:72|248:72|248:72|248:240,2,450
192,64,146019,6,0,B|120:208|224:312|328:216|344:88|264:8|224:40,1,420
160,40,147268,1,0
80,88,147489,1,0
160,120,147709,1,0
160,40,147856,2,0,B|80:88|80:88|168:128|168:128|160:48,2,240
144,272,149546,6,0,B|136:40|136:40|192:32|288:64|312:152|296:224|232:272|152:280|144:264,2,630
176,128,166961,5,0
328,120,167328,1,0
248,312,167843,1,0
328,120,168357,2,0,B|160:120|160:120|168:200|168:216|184:248|184:264|208:288|256:320|248:312|248:320|248:320|288:272|312:248|328:208|328:168|328:136,3,600
88,80,173868,6,0,B|88:272|88:272|192:264|248:240|192:176|88:176|88:176|208:120|112:72,1,570
168,64,175631,2,0,B|360:64|360:64|200:64|200:64|200:192|200:192|360:192|360:192|200:192|200:192|200:320|200:320|368:312,1,1080
208,320,178644,2,0,B|208:192|208:192|376:192|376:192|208:192|208:192|208:56|208:56|360:56,1,750
208,80,180848,2,0,B|200:208|232:304|328:352|416:248|384:80|304:16|216:40|232:72,1,540
168,80,182318,2,0,B|160:248|160:248|312:248|312:248|312:72|312:72|328:264,1,660
192,256,184302,2,0,B|192:88|192:88|200:144|200:144|256:80|320:104|304:160,3,360
224,216,187829,5,0
160,152,188049,1,0
208,120,188196,1,0
256,88,188343,1,0
344,80,188564,1,0
384,128,188711,1,0
352,176,188858,1,0
264,264,189152,1,0
216,296,189298,1,0
192,240,189445,1,0
152,160,189666,5,0
184,104,189813,1,0
232,144,189960,1,0
352,144,190254,1,0
336,88,190401,1,0
296,136,190548,1,0
200,168,191283,1,0
200,168,191356,1,0
200,168,191430,1,0
200,168,191503,1,0
200,168,191577,1,0
200,168,191650,1,0
200,168,191724,1,0
200,168,191797,1,0
200,168,191871,1,0
200,168,191944,1,0
200,168,192018,1,0
200,168,192091,5,0
200,168,192165,1,0
200,168,192238,1,0
200,168,192312,1,0
200,168,192385,1,0
200,168,192459,1,0
200,168,192532,1,0
200,168,192606,1,0
200,168,192679,1,0
200,168,192752,1,0
200,168,192826,1,0
200,168,192899,1,0
200,168,192972,1,0
200,168,193046,1,0
200,168,193119,1,0
200,168,193193,1,0
200,168,193266,1,0
