osu file format v14

[General]
AudioFilename: Strike Party!!!BeForU.mp3
AudioLeadIn: 0
PreviewTime: 57434
Countdown: 0
SampleSet: Normal
StackLeniency: 0.7
Mode: 1
LetterboxInBreaks: 0
WidescreenStoryboard: 0

[Editor]
Bookmarks: 444
DistanceSpacing: 1.4
BeatDivisor: 4
GridSize: 32
TimelineZoom: 2.699999

[Metadata]
Title:Strike Party!!!
TitleUnicode:Strike Party!!!
Artist:BeForU
ArtistUnicode:BeForU
Creator:toara_fict
Version:Oni
Source:
Tags:MAJOR 3rd season ED GuitarFreaks V4 Rock&DrumMania V4 Яock×Rock PiraTom mingmichael lil_yumika_lil REDYUMiKA
BeatmapID:352160
BeatmapSetID:141039

[Difficulty]
HPDrainRate:5
CircleSize:4
OverallDifficulty:5
ApproachRate:8
SliderMultiplier:1.4
SliderTickRate:1

[Events]
//Background and Video events
0,0,"35007977.jpg",0,170
//Break Periods
//Storyboard Layer 0 (Background)
//Storyboard Layer 1 (Fail)
//Storyboard Layer 2 (Pass)
//Storyboard Layer 3 (Foreground)
//Storyboard Sound Samples

[TimingPoints]
1101,333.333333333333,4,1,0,70,1,0
58434,-100,4,1,0,80,0,1
90434,-100,4,1,0,70,0,0

[HitObjects]
192,128,3767,5,0,0:0:0:0:
320,128,4434,1,2,0:0:0:0:
320,128,5767,1,2,0:0:0:0:
192,128,6101,1,0,0:0:0:0:
192,128,6434,1,0,0:0:0:0:
320,128,7101,1,2,0:0:0:0:
320,128,8434,1,2,0:0:0:0:
192,256,9101,1,4,0:0:0:0:
320,128,9767,1,2,0:0:0:0:
192,256,10434,1,4,0:0:0:0:
320,128,11101,1,2,0:0:0:0:
192,128,11434,1,0,0:0:0:0:
192,256,11767,1,4,0:0:0:0:
192,128,12101,1,0,0:0:0:0:
192,128,12267,1,0,0:0:0:0:
320,256,12434,1,6,0:0:0:0:
192,128,12767,1,0,0:0:0:0:
192,128,12934,1,0,0:0:0:0:
320,128,13101,1,2,0:0:0:0:
320,128,13184,1,2,0:0:0:0:
192,128,13267,1,0,0:0:0:0:
320,128,13434,1,2,0:0:0:0:
320,128,13517,1,2,0:0:0:0:
192,128,13601,1,0,0:0:0:0:
320,128,13767,1,2,0:0:0:0:
320,128,13851,1,2,0:0:0:0:
320,128,13934,1,2,0:0:0:0:
320,128,14101,1,2,0:0:0:0:
192,128,14267,1,2,0:0:0:0:
192,256,14434,1,4,0:0:0:0:
320,128,14767,1,2,0:0:0:0:
192,128,15101,1,0,0:0:0:0:
192,128,15267,1,0,0:0:0:0:
320,128,15434,1,2,0:0:0:0:
192,128,15767,1,0,0:0:0:0:
320,128,16101,1,2,0:0:0:0:
320,128,16267,1,2,0:0:0:0:
192,128,16434,1,0,0:0:0:0:
192,128,16517,1,0,0:0:0:0:
192,128,16601,1,0,0:0:0:0:
320,128,16767,1,2,0:0:0:0:
320,128,16934,1,2,0:0:0:0:
192,128,17101,1,0,0:0:0:0:
320,128,17434,1,2,0:0:0:0:
192,128,17767,1,0,0:0:0:0:
192,128,17934,1,0,0:0:0:0:
320,128,18101,1,2,0:0:0:0:
192,128,18434,1,0,0:0:0:0:
320,128,18767,1,2,0:0:0:0:
192,128,18934,1,0,0:0:0:0:
320,128,19101,1,2,0:0:0:0:
320,128,19184,1,2,0:0:0:0:
192,128,19267,1,0,0:0:0:0:
320,128,19434,1,2,0:0:0:0:
320,128,19601,1,2,0:0:0:0:
192,256,19767,1,4,0:0:0:0:
320,128,20101,1,2,0:0:0:0:
192,128,20434,1,0,0:0:0:0:
192,128,20601,1,0,0:0:0:0:
320,128,20767,1,2,0:0:0:0:
192,128,21101,1,0,0:0:0:0:
320,128,21434,1,2,0:0:0:0:
192,128,21601,1,0,0:0:0:0:
192,128,21767,1,0,0:0:0:0:
320,128,21851,1,0,0:0:0:0:
192,128,21934,1,0,0:0:0:0:
192,128,22101,1,2,0:0:0:0:
320,128,22267,1,2,0:0:0:0:
192,128,22434,1,0,0:0:0:0:
192,128,22767,1,0,0:0:0:0:
320,128,22934,1,2,0:0:0:0:
192,128,23101,1,0,0:0:0:0:
320,128,23267,1,2,0:0:0:0:
320,128,23351,1,2,0:0:0:0:
192,128,23434,1,0,0:0:0:0:
320,128,23601,1,2,0:0:0:0:
192,128,23767,1,0,0:0:0:0:
320,128,23934,1,2,0:0:0:0:
192,128,24101,1,0,0:0:0:0:
320,128,24267,1,2,0:0:0:0:
192,128,24434,1,0,0:0:0:0:
320,128,24517,1,0,0:0:0:0:
192,128,24601,1,0,0:0:0:0:
320,128,24767,1,2,0:0:0:0:
192,128,24934,1,0,0:0:0:0:
320,128,25101,1,2,0:0:0:0:
320,128,25184,1,2,0:0:0:0:
192,128,25267,1,0,0:0:0:0:
320,128,25434,1,2,0:0:0:0:
192,128,25601,1,0,0:0:0:0:
320,128,25767,1,2,0:0:0:0:
192,128,25934,1,0,0:0:0:0:
320,128,26101,1,2,0:0:0:0:
320,128,26267,1,2,0:0:0:0:
192,256,26434,1,4,0:0:0:0:
320,128,26767,1,2,0:0:0:0:
192,128,26934,1,0,0:0:0:0:
192,128,27267,1,0,0:0:0:0:
320,128,27434,1,2,0:0:0:0:
320,128,27601,1,2,0:0:0:0:
192,128,27767,1,0,0:0:0:0:
320,128,28101,1,2,0:0:0:0:
192,128,28267,1,0,0:0:0:0:
320,128,28434,1,2,0:0:0:0:
192,128,28601,1,0,0:0:0:0:
320,128,28767,1,2,0:0:0:0:
192,128,29101,1,0,0:0:0:0:
320,128,29434,1,2,0:0:0:0:
192,128,29601,1,0,0:0:0:0:
192,128,29934,1,0,0:0:0:0:
320,128,30101,1,2,0:0:0:0:
320,128,30267,1,2,0:0:0:0:
192,128,30434,1,0,0:0:0:0:
320,128,30767,1,2,0:0:0:0:
192,128,30934,1,2,0:0:0:0:
192,128,31101,1,0,0:0:0:0:
192,128,31184,1,0,0:0:0:0:
192,128,31267,1,0,0:0:0:0:
320,128,31434,1,2,0:0:0:0:
320,128,31601,1,2,0:0:0:0:
192,128,31767,1,0,0:0:0:0:
320,128,32101,1,2,0:0:0:0:
192,128,32267,1,0,0:0:0:0:
192,128,32601,1,0,0:0:0:0:
320,128,32767,1,2,0:0:0:0:
320,128,32934,1,2,0:0:0:0:
192,128,33101,1,0,0:0:0:0:
192,128,33267,1,0,0:0:0:0:
192,128,33351,1,0,0:0:0:0:
320,128,33434,1,2,0:0:0:0:
192,128,33601,1,0,0:0:0:0:
320,128,33767,1,2,0:0:0:0:
320,128,33934,1,2,0:0:0:0:
192,128,34017,1,0,0:0:0:0:
320,128,34101,1,2,0:0:0:0:
320,128,34267,1,2,0:0:0:0:
192,128,34434,1,0,0:0:0:0:
320,128,34767,1,2,0:0:0:0:
192,128,34934,1,0,0:0:0:0:
192,128,35267,1,0,0:0:0:0:
320,128,35434,1,2,0:0:0:0:
320,128,35601,1,2,0:0:0:0:
192,128,35767,1,0,0:0:0:0:
192,128,35851,1,0,0:0:0:0:
192,128,35934,1,0,0:0:0:0:
320,128,36101,1,2,0:0:0:0:
192,128,36267,1,0,0:0:0:0:
320,128,36434,1,2,0:0:0:0:
192,128,36601,1,0,0:0:0:0:
320,128,36767,1,2,0:0:0:0:
320,128,36851,1,2,0:0:0:0:
320,128,36934,1,2,0:0:0:0:
192,256,37101,1,4,0:0:0:0:
320,128,37434,1,2,0:0:0:0:
192,128,37601,1,0,0:0:0:0:
192,128,37767,1,0,0:0:0:0:
192,128,37934,1,0,0:0:0:0:
320,128,38101,1,2,0:0:0:0:
192,128,38267,1,0,0:0:0:0:
192,128,38351,1,0,0:0:0:0:
192,128,38434,1,0,0:0:0:0:
192,128,38601,1,0,0:0:0:0:
320,128,38767,1,2,0:0:0:0:
192,128,39101,1,0,0:0:0:0:
192,128,39267,1,0,0:0:0:0:
320,128,39434,1,2,0:0:0:0:
320,128,39517,1,2,0:0:0:0:
192,128,39601,1,0,0:0:0:0:
192,128,39767,1,0,0:0:0:0:
320,128,40101,1,2,0:0:0:0:
192,128,40267,1,0,0:0:0:0:
192,128,40601,1,0,0:0:0:0:
320,128,40767,1,2,0:0:0:0:
320,128,40934,1,2,0:0:0:0:
192,128,41101,1,0,0:0:0:0:
192,128,41267,1,0,0:0:0:0:
320,128,41434,1,2,0:0:0:0:
192,128,41767,1,0,0:0:0:0:
320,128,41934,1,2,0:0:0:0:
192,128,42101,1,0,0:0:0:0:
192,128,42184,1,0,0:0:0:0:
320,128,42267,1,2,0:0:0:0:
192,256,42434,1,4,0:0:0:0:
320,128,42767,1,2,0:0:0:0:
192,128,42934,1,0,0:0:0:0:
192,128,43267,1,0,0:0:0:0:
192,128,43434,1,2,0:0:0:0:
320,128,43601,1,2,0:0:0:0:
192,128,43767,1,0,0:0:0:0:
192,128,43934,1,0,0:0:0:0:
192,128,44017,1,0,0:0:0:0:
320,128,44101,1,2,0:0:0:0:
192,128,44267,1,0,0:0:0:0:
320,128,44434,1,2,0:0:0:0:
192,128,44601,1,0,0:0:0:0:
320,128,44767,1,2,0:0:0:0:
320,128,44851,1,2,0:0:0:0:
192,128,44934,1,0,0:0:0:0:
192,128,45101,1,0,0:0:0:0:
320,128,45434,1,2,0:0:0:0:
320,128,45601,1,0,0:0:0:0:
192,128,45767,1,0,0:0:0:0:
192,128,45851,1,0,0:0:0:0:
192,128,45934,1,0,0:0:0:0:
320,128,46101,1,2,0:0:0:0:
192,128,46267,1,0,0:0:0:0:
192,128,46434,1,2,0:0:0:0:
320,128,46601,1,2,0:0:0:0:
192,128,46684,1,2,0:0:0:0:
192,128,46767,1,0,0:0:0:0:
320,128,46934,1,2,0:0:0:0:
192,128,47101,1,0,0:0:0:0:
192,128,47184,1,0,0:0:0:0:
320,128,47267,1,2,0:0:0:0:
192,128,47351,1,0,0:0:0:0:
320,128,47434,1,2,0:0:0:0:
192,256,47767,1,4,0:0:0:0:
320,128,48101,1,2,0:0:0:0:
320,128,48267,1,2,0:0:0:0:
192,128,48434,1,0,0:0:0:0:
320,128,48767,1,2,0:0:0:0:
192,128,49101,1,0,0:0:0:0:
320,128,49434,1,2,0:0:0:0:
320,128,49601,1,2,0:0:0:0:
192,128,49767,1,0,0:0:0:0:
192,128,49851,1,0,0:0:0:0:
192,128,49934,1,0,0:0:0:0:
320,128,50101,1,2,0:0:0:0:
192,128,50267,1,0,0:0:0:0:
192,128,50434,1,0,0:0:0:0:
320,128,50767,1,2,0:0:0:0:
192,128,50934,1,0,0:0:0:0:
320,128,51101,1,2,0:0:0:0:
320,128,51434,1,2,0:0:0:0:
320,128,51601,1,2,0:0:0:0:
192,128,51767,1,0,0:0:0:0:
320,128,52101,1,2,0:0:0:0:
192,128,52267,1,0,0:0:0:0:
192,128,52434,1,0,0:0:0:0:
192,128,52517,1,0,0:0:0:0:
192,128,52601,1,0,0:0:0:0:
320,128,52767,1,2,0:0:0:0:
320,128,52934,1,2,0:0:0:0:
192,256,53101,1,4,0:0:0:0:
320,128,53434,1,2,0:0:0:0:
192,128,53601,1,0,0:0:0:0:
192,128,53934,1,0,0:0:0:0:
320,128,54101,1,2,0:0:0:0:
320,128,54267,1,2,0:0:0:0:
192,256,54434,1,4,0:0:0:0:
192,128,54767,1,0,0:0:0:0:
192,128,54934,1,0,0:0:0:0:
320,128,55101,1,2,0:0:0:0:
192,128,55267,1,0,0:0:0:0:
192,128,55351,1,0,0:0:0:0:
320,128,55434,1,2,0:0:0:0:
320,128,55601,1,2,0:0:0:0:
192,256,55767,1,4,0:0:0:0:
192,128,55934,1,0,0:0:0:0:
320,128,56101,1,2,0:0:0:0:
192,128,56267,1,0,0:0:0:0:
192,128,56434,1,0,0:0:0:0:
192,128,56517,1,0,0:0:0:0:
192,128,56601,1,0,0:0:0:0:
192,128,56684,1,0,0:0:0:0:
320,128,56767,1,2,0:0:0:0:
320,128,56851,1,2,0:0:0:0:
320,128,56934,1,2,0:0:0:0:
320,128,57434,1,2,0:0:0:0:
192,128,57601,1,0,0:0:0:0:
320,128,57767,1,2,0:0:0:0:
192,128,57934,1,0,0:0:0:0:
192,128,58017,1,0,0:0:0:0:
320,128,58101,1,2,0:0:0:0:
192,128,58267,1,0,0:0:0:0:
320,256,58434,1,6,0:0:0:0:
192,128,58601,1,0,0:0:0:0:
192,128,58767,1,2,0:0:0:0:
320,128,58934,1,2,0:0:0:0:
320,128,59017,1,2,0:0:0:0:
192,128,59101,1,0,0:0:0:0:
192,128,59267,1,0,0:0:0:0:
320,128,59434,1,2,0:0:0:0:
192,128,59601,1,0,0:0:0:0:
192,128,59684,1,0,0:0:0:0:
320,128,59767,1,2,0:0:0:0:
192,128,59934,1,0,0:0:0:0:
320,128,60101,1,2,0:0:0:0:
192,128,60267,1,0,0:0:0:0:
192,128,60351,1,0,0:0:0:0:
320,128,60434,1,2,0:0:0:0:
192,128,60601,1,0,0:0:0:0:
320,128,60767,1,2,0:0:0:0:
320,128,61101,1,2,0:0:0:0:
192,128,61267,1,0,0:0:0:0:
320,128,61434,1,2,0:0:0:0:
320,128,61601,1,2,0:0:0:0:
320,128,61684,1,2,0:0:0:0:
192,128,61767,1,0,0:0:0:0:
192,128,61934,1,0,0:0:0:0:
320,128,62101,1,2,0:0:0:0:
192,128,62267,1,0,0:0:0:0:
192,128,62351,1,0,0:0:0:0:
320,128,62434,1,2,0:0:0:0:
192,128,62601,1,0,0:0:0:0:
320,128,62767,1,2,0:0:0:0:
320,128,62851,1,2,0:0:0:0:
320,128,62934,1,2,0:0:0:0:
320,128,63017,1,2,0:0:0:0:
192,128,63101,1,0,0:0:0:0:
192,128,63267,1,0,0:0:0:0:
192,128,63434,1,2,0:0:0:0:
320,128,63601,1,2,0:0:0:0:
192,256,63767,1,4,0:0:0:0:
320,128,64101,1,2,0:0:0:0:
320,128,64267,1,2,0:0:0:0:
192,128,64434,1,0,0:0:0:0:
192,128,64601,1,0,0:0:0:0:
192,128,64684,1,0,0:0:0:0:
320,128,64767,1,2,0:0:0:0:
192,128,64934,1,0,0:0:0:0:
320,128,65101,1,2,0:0:0:0:
320,128,65184,1,2,0:0:0:0:
320,128,65267,1,2,0:0:0:0:
320,128,65350,1,2,0:0:0:0:
192,128,65434,1,0,0:0:0:0:
192,128,65601,1,0,0:0:0:0:
320,128,65767,1,2,0:0:0:0:
320,128,65851,1,2,0:0:0:0:
192,128,65934,1,0,0:0:0:0:
192,128,66017,1,0,0:0:0:0:
320,128,66101,1,2,0:0:0:0:
320,128,66267,1,2,0:0:0:0:
192,256,66434,1,4,0:0:0:0:
320,128,66767,1,2,0:0:0:0:
320,128,66934,1,2,0:0:0:0:
192,128,67101,1,0,0:0:0:0:
192,128,67184,1,0,0:0:0:0:
320,128,67267,1,2,0:0:0:0:
192,128,67434,1,0,0:0:0:0:
320,256,67601,1,6,0:0:0:0:
320,128,67934,1,0,0:0:0:0:
192,128,68101,1,2,0:0:0:0:
192,128,68267,1,0,0:0:0:0:
320,128,68434,1,2,0:0:0:0:
192,128,68601,1,0,0:0:0:0:
192,128,68684,1,0,0:0:0:0:
320,128,68767,1,2,0:0:0:0:
192,128,68851,1,0,0:0:0:0:
320,128,68934,1,2,0:0:0:0:
320,256,69101,1,6,0:0:0:0:
192,128,69267,1,0,0:0:0:0:
192,128,69434,1,0,0:0:0:0:
320,128,69601,1,2,0:0:0:0:
320,128,69684,1,2,0:0:0:0:
320,128,69767,1,2,0:0:0:0:
192,128,69934,1,0,0:0:0:0:
320,128,70101,1,0,0:0:0:0:
320,128,70267,1,2,0:0:0:0:
320,128,70434,1,0,0:0:0:0:
192,128,70517,1,0,0:0:0:0:
192,128,70601,1,0,0:0:0:0:
192,128,70684,1,0,0:0:0:0:
320,128,70767,1,2,0:0:0:0:
320,128,70934,1,0,0:0:0:0:
320,128,71101,1,2,0:0:0:0:
192,128,71267,1,0,0:0:0:0:
320,128,71434,1,2,0:0:0:0:
320,128,71767,1,2,0:0:0:0:
192,128,71934,1,0,0:0:0:0:
192,128,72017,1,0,0:0:0:0:
320,128,72101,1,2,0:0:0:0:
320,128,72267,1,2,0:0:0:0:
192,128,72434,1,0,0:0:0:0:
192,128,72601,1,0,0:0:0:0:
192,128,72684,1,0,0:0:0:0:
320,128,72767,1,2,0:0:0:0:
192,128,72934,1,0,0:0:0:0:
320,128,73101,1,2,0:0:0:0:
320,128,73434,1,2,0:0:0:0:
192,128,73601,1,0,0:0:0:0:
320,128,73767,1,0,0:0:0:0:
192,128,73851,1,0,0:0:0:0:
192,128,73934,1,0,0:0:0:0:
192,128,74017,1,0,0:0:0:0:
320,128,74101,1,2,0:0:0:0:
192,128,74267,1,2,0:0:0:0:
192,256,74434,1,4,0:0:0:0:
192,128,74601,1,0,0:0:0:0:
320,128,74767,1,2,0:0:0:0:
320,128,74851,1,2,0:0:0:0:
192,128,74934,1,0,0:0:0:0:
192,128,75017,1,0,0:0:0:0:
320,128,75101,1,2,0:0:0:0:
192,128,75267,1,0,0:0:0:0:
320,128,75434,1,2,0:0:0:0:
320,128,75517,1,2,0:0:0:0:
192,128,75601,1,0,0:0:0:0:
192,256,75767,1,4,0:0:0:0:
192,128,75934,1,0,0:0:0:0:
320,128,76101,1,2,0:0:0:0:
320,128,76184,1,2,0:0:0:0:
192,128,76267,1,0,0:0:0:0:
192,128,76351,1,0,0:0:0:0:
320,128,76434,1,2,0:0:0:0:
192,128,76601,1,0,0:0:0:0:
320,128,76767,1,2,0:0:0:0:
320,128,76934,1,2,0:0:0:0:
192,256,77101,1,4,0:0:0:0:
320,128,77434,1,2,0:0:0:0:
320,128,77601,1,2,0:0:0:0:
192,128,77767,1,0,0:0:0:0:
192,128,77851,1,0,0:0:0:0:
192,128,77934,1,0,0:0:0:0:
192,128,78017,1,0,0:0:0:0:
320,128,78101,1,2,0:0:0:0:
192,128,78267,1,0,0:0:0:0:
320,128,78434,1,2,0:0:0:0:
192,128,78601,1,0,0:0:0:0:
192,128,78684,1,0,0:0:0:0:
320,128,78767,1,2,0:0:0:0:
192,128,78934,1,0,0:0:0:0:
320,128,79101,1,2,0:0:0:0:
320,128,79184,1,2,0:0:0:0:
192,128,79267,1,0,0:0:0:0:
320,128,79434,1,2,0:0:0:0:
320,128,79601,1,2,0:0:0:0:
192,256,79767,1,4,0:0:0:0:
320,128,80101,1,2,0:0:0:0:
192,128,80267,1,0,0:0:0:0:
192,128,80601,1,0,0:0:0:0:
320,128,80767,1,2,0:0:0:0:
192,128,80934,1,0,0:0:0:0:
192,128,81017,1,0,0:0:0:0:
320,128,81101,1,2,0:0:0:0:
192,128,81267,1,0,0:0:0:0:
320,128,81434,1,2,0:0:0:0:
192,128,81601,1,0,0:0:0:0:
192,128,81934,1,0,0:0:0:0:
320,128,82101,1,2,0:0:0:0:
192,128,82267,1,0,0:0:0:0:
320,128,82434,1,2,0:0:0:0:
192,128,82601,1,0,0:0:0:0:
320,128,82767,1,2,0:0:0:0:
320,128,82851,1,0,0:0:0:0:
320,128,82934,1,2,0:0:0:0:
192,128,83101,1,0,0:0:0:0:
192,128,83267,1,2,0:0:0:0:
320,128,83434,1,0,0:0:0:0:
320,128,83601,1,2,0:0:0:0:
320,128,83684,1,2,0:0:0:0:
192,128,83767,1,0,0:0:0:0:
192,128,83934,1,0,0:0:0:0:
320,128,84101,1,2,0:0:0:0:
192,128,84267,1,0,0:0:0:0:
320,128,84434,1,2,0:0:0:0:
320,128,84517,1,2,0:0:0:0:
192,128,84601,1,0,0:0:0:0:
192,128,84684,1,0,0:0:0:0:
320,128,84767,1,2,0:0:0:0:
320,128,84934,1,2,0:0:0:0:
192,256,85101,1,4,0:0:0:0:
192,128,85434,1,0,0:0:0:0:
192,128,85601,1,0,0:0:0:0:
320,128,85767,1,2,0:0:0:0:
192,128,85934,1,0,0:0:0:0:
320,128,86101,1,2,0:0:0:0:
192,256,86434,1,4,0:0:0:0:
192,128,86601,1,0,0:0:0:0:
320,128,86767,1,2,0:0:0:0:
320,128,86934,1,2,0:0:0:0:
192,128,87101,1,0,0:0:0:0:
192,128,87184,1,0,0:0:0:0:
320,128,87267,1,2,0:0:0:0:
192,128,87434,1,0,0:0:0:0:
192,256,87767,1,4,0:0:0:0:
192,128,87934,1,0,0:0:0:0:
192,128,88017,1,0,0:0:0:0:
320,128,88101,1,2,0:0:0:0:
192,128,88267,1,0,0:0:0:0:
320,128,88434,1,2,0:0:0:0:
192,128,88601,1,0,0:0:0:0:
192,128,88684,1,0,0:0:0:0:
320,128,88767,1,2,0:0:0:0:
192,128,88934,1,0,0:0:0:0:
320,128,89101,1,2,0:0:0:0:
320,128,89184,1,2,0:0:0:0:
320,128,89267,1,2,0:0:0:0:
320,128,89351,1,2,0:0:0:0:
192,128,89434,1,0,0:0:0:0:
192,128,89601,1,0,0:0:0:0:
320,128,89767,1,2,0:0:0:0:
192,128,89934,1,0,0:0:0:0:
320,128,90101,1,2,0:0:0:0:
192,128,90267,1,2,0:0:0:0:
192,256,90434,1,4,0:0:0:0:
320,128,90767,1,2,0:0:0:0:
192,128,91101,1,0,0:0:0:0:
192,128,91267,1,0,0:0:0:0:
320,128,91434,1,2,0:0:0:0:
320,128,91601,1,2,0:0:0:0:
192,128,91767,1,0,0:0:0:0:
320,128,92101,1,2,0:0:0:0:
320,128,92267,1,2,0:0:0:0:
192,128,92434,1,0,0:0:0:0:
192,128,92517,1,0,0:0:0:0:
192,128,92601,1,0,0:0:0:0:
320,128,92767,1,2,0:0:0:0:
320,128,92934,1,2,0:0:0:0:
192,128,93101,1,0,0:0:0:0:
320,128,93434,1,2,0:0:0:0:
192,128,93767,1,0,0:0:0:0:
192,128,93934,1,0,0:0:0:0:
320,128,94101,1,2,0:0:0:0:
320,128,94267,1,2,0:0:0:0:
192,128,94434,1,0,0:0:0:0:
320,128,94767,1,2,0:0:0:0:
320,128,95101,1,2,0:0:0:0:
192,128,95267,1,0,0:0:0:0:
320,128,95434,1,2,0:0:0:0:
320,128,95517,1,2,0:0:0:0:
192,128,95601,1,0,0:0:0:0:
192,256,95767,1,4,0:0:0:0:
320,128,96101,1,2,0:0:0:0:
192,128,96434,1,0,0:0:0:0:
192,128,96601,1,0,0:0:0:0:
320,128,96767,1,2,0:0:0:0:
192,128,96934,1,0,0:0:0:0:
320,128,97101,1,2,0:0:0:0:
192,128,97267,1,0,0:0:0:0:
192,128,97351,1,0,0:0:0:0:
320,128,97434,1,2,0:0:0:0:
192,128,97601,1,0,0:0:0:0:
320,128,97767,1,2,0:0:0:0:
320,128,97851,1,2,0:0:0:0:
192,128,97934,1,0,0:0:0:0:
192,128,98101,1,0,0:0:0:0:
192,128,98184,1,0,0:0:0:0:
320,128,98267,1,2,0:0:0:0:
192,128,98434,1,0,0:0:0:0:
192,128,98767,1,2,0:0:0:0:
192,128,98934,1,0,0:0:0:0:
192,128,99101,1,2,0:0:0:0:
192,128,99184,1,2,0:0:0:0:
320,128,99267,1,0,0:0:0:0:
320,128,99434,1,2,0:0:0:0:
320,128,99601,1,0,0:0:0:0:
320,256,99767,1,6,0:0:0:0:
192,128,99934,1,0,0:0:0:0:
320,128,100017,1,0,0:0:0:0:
320,128,100101,1,2,0:0:0:0:
320,128,100267,1,2,0:0:0:0:
192,128,100434,1,0,0:0:0:0:
192,128,100517,1,0,0:0:0:0:
192,128,100601,1,0,0:0:0:0:
192,128,100684,1,0,0:0:0:0:
320,128,100767,1,2,0:0:0:0:
192,128,100934,1,0,0:0:0:0:
320,128,101101,1,2,0:0:0:0:
320,128,101184,1,2,0:0:0:0:
192,128,101267,1,0,0:0:0:0:
320,128,101434,1,2,0:0:0:0:
320,128,101517,1,2,0:0:0:0:
192,128,101601,1,0,0:0:0:0:
192,128,101684,1,0,0:0:0:0:
320,128,101767,1,2,0:0:0:0:
192,128,101934,1,0,0:0:0:0:
320,128,102101,1,2,0:0:0:0:
192,256,102267,1,4,0:0:0:0:
