osu file format v14

[General]
AudioFilename: Strike Party!!!BeForU.mp3
AudioLeadIn: 0
PreviewTime: 57434
Countdown: 0
SampleSet: Normal
StackLeniency: 0.7
Mode: 1
LetterboxInBreaks: 0
WidescreenStoryboard: 1

[Editor]
Bookmarks: 81600,95100
DistanceSpacing: 1.4
BeatDivisor: 2
GridSize: 32
TimelineZoom: 2

[Metadata]
Title:Strike Party!!!
TitleUnicode:Strike Party!!!
Artist:BeForU
ArtistUnicode:BeForU
Creator:toara_fict
Version:Futsuu
Source:
Tags:MAJOR 3rd season ED GuitarFreaks V4 Rock&DrumMania V4 Яock×Rock PiraTom mingmichael lil_yumika_lil REDYUMiKA
BeatmapID:462567
BeatmapSetID:141039

[Difficulty]
HPDrainRate:4
CircleSize:4
OverallDifficulty:3
ApproachRate:5
SliderMultiplier:1.4
SliderTickRate:1

[Events]
//Background and Video events
0,0,"35007977.jpg",0,170
//Break Periods
//Storyboard Layer 0 (Background)
//Storyboard Layer 1 (Fail)
//Storyboard Layer 2 (Pass)
//Storyboard Layer 3 (Foreground)
//Storyboard Sound Samples

[TimingPoints]
1101,333.333333333333,4,1,0,70,1,0
58434,-100,4,1,0,80,0,1
90434,-100,4,1,0,70,0,0

[HitObjects]
192,128,3767,5,0,0:0:0:0:
320,128,5767,1,2,0:0:0:0:
192,128,6434,1,0,0:0:0:0:
320,128,8434,1,2,0:0:0:0:
192,256,9100,1,4,0:0:0:0:
192,256,10434,1,4,0:0:0:0:
192,256,11767,1,4,0:0:0:0:
192,256,12434,1,4,0:0:0:0:
192,256,13100,1,4,0:0:0:0:
192,128,13434,1,0,0:0:0:0:
320,128,13767,1,2,0:0:0:0:
192,256,14434,1,4,0:0:0:0:
192,128,15100,1,0,0:0:0:0:
192,128,15767,1,0,0:0:0:0:
192,128,16434,1,0,0:0:0:0:
320,128,16767,1,2,0:0:0:0:
192,128,17100,1,0,0:0:0:0:
192,128,17767,1,0,0:0:0:0:
192,128,18434,1,0,0:0:0:0:
320,128,18767,1,2,0:0:0:0:
192,128,19100,1,0,0:0:0:0:
320,128,19434,1,2,0:0:0:0:
192,256,19767,1,4,0:0:0:0:
192,128,20434,1,0,0:0:0:0:
192,128,21100,1,0,0:0:0:0:
192,128,21767,1,0,0:0:0:0:
320,128,22100,1,2,0:0:0:0:
192,128,22434,1,0,0:0:0:0:
320,128,23100,1,2,0:0:0:0:
320,128,23767,1,2,0:0:0:0:
192,128,24100,1,0,0:0:0:0:
320,128,24434,1,2,0:0:0:0:
320,128,25100,1,2,0:0:0:0:
320,128,25434,1,2,0:0:0:0:
320,128,25767,1,2,0:0:0:0:
192,256,26434,1,4,0:0:0:0:
192,128,27100,1,0,0:0:0:0:
192,128,27767,1,0,0:0:0:0:
192,128,28434,1,0,0:0:0:0:
320,128,28767,1,2,0:0:0:0:
192,128,29100,1,0,0:0:0:0:
192,128,29767,1,0,0:0:0:0:
320,128,30434,1,2,0:0:0:0:
192,128,31100,1,0,0:0:0:0:
320,128,31434,1,2,0:0:0:0:
320,128,31767,1,0,0:0:0:0:
192,128,32434,1,8,0:0:0:0:
320,128,33100,1,2,0:0:0:0:
192,128,33600,1,0,0:0:0:0:
320,128,34100,1,2,0:0:0:0:
192,128,34434,1,0,0:0:0:0:
320,128,35100,1,8,0:0:0:0:
320,128,35767,1,2,0:0:0:0:
192,256,37100,1,4,0:0:0:0:
192,128,37766,1,0,0:0:0:0:
192,128,38434,1,0,0:0:0:0:
192,128,39100,1,0,0:0:0:0:
320,128,39434,1,8,0:0:0:0:
192,128,39767,1,0,0:0:0:0:
192,128,40434,1,0,0:0:0:0:
192,128,41100,1,8,0:0:0:0:
192,128,41766,1,0,0:0:0:0:
320,128,42100,1,2,0:0:0:0:
192,256,42433,1,4,0:0:0:0:
192,128,43100,1,0,0:0:0:0:
192,128,43766,1,0,0:0:0:0:
320,128,44267,1,2,0:0:0:0:
192,128,44766,1,0,0:0:0:0:
320,128,45100,1,2,0:0:0:0:
192,128,45766,1,0,0:0:0:0:
192,128,46433,1,0,0:0:0:0:
192,128,47100,1,0,0:0:0:0:
320,128,47433,1,2,0:0:0:0:
192,256,47767,1,4,0:0:0:0:
320,128,48434,1,2,0:0:0:0:
192,128,48767,1,0,0:0:0:0:
320,128,49100,1,2,0:0:0:0:
320,128,49767,1,2,0:0:0:0:
320,128,50100,1,2,0:0:0:0:
192,128,50434,1,0,0:0:0:0:
320,128,51100,1,2,0:0:0:0:
192,128,51434,1,0,0:0:0:0:
320,128,51767,1,2,0:0:0:0:
192,256,53100,1,4,0:0:0:0:
192,128,53600,1,0,0:0:0:0:
320,128,54100,1,2,0:0:0:0:
192,256,54434,1,4,0:0:0:0:
192,128,54934,1,0,0:0:0:0:
320,128,55434,1,2,0:0:0:0:
192,256,55767,1,4,0:0:0:0:
192,128,56434,1,0,0:0:0:0:
320,128,56767,1,2,0:0:0:0:
320,128,58100,1,2,0:0:0:0:
192,256,58434,1,4,0:0:0:0:
192,128,59100,1,0,0:0:0:0:
320,128,59434,1,2,0:0:0:0:
320,128,59767,1,0,0:0:0:0:
320,128,60434,1,2,0:0:0:0:
192,128,60767,1,0,0:0:0:0:
320,128,61100,1,2,0:0:0:0:
192,128,61434,1,0,0:0:0:0:
320,128,61933,1,2,0:0:0:0:
320,128,62267,1,2,0:0:0:0:
192,128,63100,1,0,0:0:0:0:
320,128,63434,1,2,0:0:0:0:
192,256,63767,1,4,0:0:0:0:
320,128,64434,1,2,0:0:0:0:
192,256,65100,1,4,0:0:0:0:
320,128,65767,1,2,0:0:0:0:
192,256,66434,1,4,0:0:0:0:
320,128,66767,1,2,0:0:0:0:
192,256,67100,1,0,0:0:0:0:
320,256,67600,1,2,0:0:0:0:
192,128,68100,1,0,0:0:0:0:
192,128,68434,1,0,0:0:0:0:
320,128,68767,1,2,0:0:0:0:
192,256,69100,1,4,0:0:0:0:
192,128,69767,1,0,0:0:0:0:
320,128,70100,1,2,0:0:0:0:
192,128,70434,1,0,0:0:0:0:
320,128,71100,1,2,0:0:0:0:
192,128,71434,1,0,0:0:0:0:
320,128,71767,1,2,0:0:0:0:
320,128,72434,1,2,0:0:0:0:
192,128,72767,1,0,0:0:0:0:
320,128,73100,1,2,0:0:0:0:
192,128,73434,1,0,0:0:0:0:
192,128,73767,1,0,0:0:0:0:
320,128,74100,1,2,0:0:0:0:
192,256,74434,1,4,0:0:0:0:
320,128,75100,1,2,0:0:0:0:
192,256,75767,1,4,0:0:0:0:
320,128,76434,1,2,0:0:0:0:
320,128,76767,1,2,0:0:0:0:
192,256,77100,1,4,0:0:0:0:
320,128,77767,1,2,0:0:0:0:
192,128,78100,1,0,0:0:0:0:
192,256,78434,1,4,0:0:0:0:
320,128,79100,1,0,0:0:0:0:
320,128,79434,1,2,0:0:0:0:
192,256,79767,1,4,0:0:0:0:
192,128,80267,1,0,0:0:0:0:
320,128,80767,1,2,0:0:0:0:
192,128,81100,1,0,0:0:0:0:
192,128,81600,1,0,0:0:0:0:
320,128,82100,1,2,0:0:0:0:
320,128,82434,1,2,0:0:0:0:
192,128,83100,1,0,0:0:0:0:
320,128,83434,1,2,0:0:0:0:
192,128,83767,1,0,0:0:0:0:
320,128,84434,1,2,0:0:0:0:
320,128,84767,1,2,0:0:0:0:
192,256,85100,1,4,0:0:0:0:
320,128,85767,1,2,0:0:0:0:
192,256,86434,1,4,0:0:0:0:
192,128,86767,1,0,0:0:0:0:
320,128,87100,1,2,0:0:0:0:
192,256,87767,1,4,0:0:0:0:
320,128,88100,1,2,0:0:0:0:
192,128,88434,1,0,0:0:0:0:
192,256,89100,1,4,0:0:0:0:
192,256,89434,1,4,0:0:0:0:
320,128,90100,1,2,0:0:0:0:
192,256,90434,1,4,0:0:0:0:
192,128,91100,1,0,0:0:0:0:
192,128,91767,1,0,0:0:0:0:
192,128,92434,1,0,0:0:0:0:
320,128,92767,1,2,0:0:0:0:
192,128,93100,1,0,0:0:0:0:
192,128,93767,1,0,0:0:0:0:
192,128,94434,1,0,0:0:0:0:
320,128,94767,1,2,0:0:0:0:
192,128,95100,1,0,0:0:0:0:
320,128,95434,1,2,0:0:0:0:
192,256,95767,1,4,0:0:0:0:
192,128,96434,1,0,0:0:0:0:
192,128,97100,1,0,0:0:0:0:
192,128,97767,1,0,0:0:0:0:
320,128,98100,1,2,0:0:0:0:
192,128,98434,1,0,0:0:0:0:
192,128,99100,1,2,0:0:0:0:
320,128,99767,1,2,0:0:0:0:
192,128,100100,1,0,0:0:0:0:
320,128,100434,1,2,0:0:0:0:
320,128,101100,1,2,0:0:0:0:
320,128,101767,1,2,0:0:0:0:
192,256,102267,1,4,0:0:0:0:
