osu file format v14

[General]
AudioFilename: Strike Party!!!BeForU.mp3
AudioLeadIn: 0
PreviewTime: 57434
Countdown: 0
SampleSet: Soft
StackLeniency: 0.7
Mode: 3
LetterboxInBreaks: 0
SpecialStyle: 0
WidescreenStoryboard: 0

[Editor]
Bookmarks: 444
DistanceSpacing: 1.4
BeatDivisor: 2
GridSize: 32
TimelineZoom: 1.8

[Metadata]
Title:Strike Party!!!
TitleUnicode:Strike Party!!!
Artist:BeForU
ArtistUnicode:BeForU
Creator:toara_fict
Version:4K NM
Source:
Tags:MAJOR 3rd season ED GuitarFreaks V4 Rock&DrumMania V4 Яock×Rock PiraTom mingmichael lil_yumika_lil REDYUMiKA
BeatmapID:351955
BeatmapSetID:141039

[Difficulty]
HPDrainRate:7
CircleSize:4
OverallDifficulty:8
ApproachRate:5
SliderMultiplier:1.5
SliderTickRate:1

[Events]
//Background and Video events
0,0,"35007977.jpg",0,0
//Break Periods
//Storyboard Layer 0 (Background)
//Storyboard Layer 1 (Fail)
//Storyboard Layer 2 (Pass)
//Storyboard Layer 3 (Foreground)
//Storyboard Sound Samples

[TimingPoints]
1101,333.333333333333,4,2,0,50,1,0
58434,-100,4,2,0,60,0,1
90434,-100,4,2,0,50,0,0

[HitObjects]
448,192,3767,5,2,0:0:0:0:
192,192,5101,1,0,0:0:0:0:
320,192,5767,1,8,0:0:0:0:
64,192,6434,1,2,0:0:0:0:
320,192,7101,1,0,0:0:0:0:
192,192,7767,1,8,0:0:0:0:
448,192,8101,1,0,0:0:0:0:
320,192,8434,1,8,0:0:0:0:
192,192,8767,1,0,0:0:0:0:
448,192,9101,128,2,9767:0:0:0:0:
64,192,9767,128,0,10434:0:0:0:0:
448,192,10434,128,2,11101:0:0:0:0:
192,192,11101,128,0,11767:0:0:0:0:
448,192,11767,1,4,0:0:0:0:
320,192,12101,1,0,0:0:0:0:
192,192,12267,1,0,0:0:0:0:
64,192,12601,1,0,0:0:0:0:
320,192,12934,1,0,0:0:0:0:
192,192,12934,1,0,0:0:0:0:
448,192,13100,128,4,14267:0:0:0:0:
64,192,14434,1,4,0:0:0:0:
448,192,14767,1,2,0:0:0:0:
192,192,14767,1,0,0:0:0:0:
320,192,15101,1,0,0:0:0:0:
192,192,15434,1,2,0:0:0:0:
64,192,15434,1,0,0:0:0:0:
320,192,15767,1,0,0:0:0:0:
448,192,16101,1,2,0:0:0:0:
192,192,16101,1,0,0:0:0:0:
64,192,16434,1,0,0:0:0:0:
448,192,16767,1,2,0:0:0:0:
320,192,16767,1,0,0:0:0:0:
64,192,17101,1,0,0:0:0:0:
192,192,17434,1,2,0:0:0:0:
448,192,17434,1,0,0:0:0:0:
320,192,17767,1,0,0:0:0:0:
64,192,18101,1,2,0:0:0:0:
448,192,18101,1,0,0:0:0:0:
192,192,18434,1,0,0:0:0:0:
448,192,18767,1,2,0:0:0:0:
320,192,18767,1,0,0:0:0:0:
192,192,19101,1,0,0:0:0:0:
320,192,19101,1,0,0:0:0:0:
192,192,19434,1,2,0:0:0:0:
64,192,19434,1,2,0:0:0:0:
64,192,19767,1,4,0:0:0:0:
320,192,19767,1,0,0:0:0:0:
448,192,20101,1,2,0:0:0:0:
192,192,20101,1,0,0:0:0:0:
320,192,20434,1,0,0:0:0:0:
64,192,20767,1,2,0:0:0:0:
448,192,20767,1,0,0:0:0:0:
320,192,21101,1,0,0:0:0:0:
64,192,21434,1,2,0:0:0:0:
192,192,21434,1,0,0:0:0:0:
320,192,21767,1,0,0:0:0:0:
448,192,22101,1,2,0:0:0:0:
192,192,22101,1,0,0:0:0:0:
320,192,22434,128,0,23101:0:0:0:0:
64,192,23101,128,0,23767:0:0:0:0:
192,192,23767,1,2,0:0:0:0:
320,192,23934,1,0,0:0:0:0:
448,192,24101,1,2,0:0:0:0:
64,192,24434,1,2,0:0:0:0:
192,192,24601,1,2,0:0:0:0:
320,192,24767,1,2,0:0:0:0:
448,192,25101,1,2,0:0:0:0:
64,192,25267,1,0,0:0:0:0:
192,192,25434,1,2,0:0:0:0:
448,192,25767,128,2,26434:0:0:0:0:
64,192,26434,1,4,0:0:0:0:
320,192,26767,1,2,0:0:0:0:
192,192,27101,1,0,0:0:0:0:
448,192,27434,1,2,0:0:0:0:
64,192,27767,1,0,0:0:0:0:
192,192,28101,1,2,0:0:0:0:
320,192,28434,1,0,0:0:0:0:
448,192,28601,1,2,0:0:0:0:
192,192,28767,1,0,0:0:0:0:
64,192,29101,1,0,0:0:0:0:
192,192,29434,1,2,0:0:0:0:
320,192,29767,1,0,0:0:0:0:
64,192,30101,1,2,0:0:0:0:
448,192,30434,1,0,0:0:0:0:
320,192,30767,1,2,0:0:0:0:
192,192,31101,1,0,0:0:0:0:
64,192,31267,1,2,0:0:0:0:
320,192,31434,1,0,0:0:0:0:
192,192,31601,1,2,0:0:0:0:
448,192,31767,1,0,0:0:0:0:
320,192,32101,1,2,0:0:0:0:
192,192,32434,1,0,0:0:0:0:
64,192,32767,1,2,0:0:0:0:
192,192,33101,1,0,0:0:0:0:
320,192,33434,1,2,0:0:0:0:
192,192,33767,1,0,0:0:0:0:
448,192,33934,1,2,0:0:0:0:
320,192,34101,1,0,0:0:0:0:
192,192,34267,1,2,0:0:0:0:
64,192,34434,128,0,35767:0:0:0:0:
320,192,34934,1,0,0:0:0:0:
192,192,35267,1,0,0:0:0:0:
448,192,35767,1,0,0:0:0:0:
320,192,36101,1,2,0:0:0:0:
192,192,36434,1,0,0:0:0:0:
320,192,36601,1,0,0:0:0:0:
448,192,36767,1,0,0:0:0:0:
64,192,36767,1,2,0:0:0:0:
192,192,37101,128,4,37767:0:0:0:0:
448,192,37767,128,0,38434:0:0:0:0:
320,192,38434,1,0,0:0:0:0:
64,192,38767,1,2,0:0:0:0:
320,192,39101,1,0,0:0:0:0:
192,192,39267,1,0,0:0:0:0:
448,192,39434,1,2,0:0:0:0:
320,192,39601,1,0,0:0:0:0:
64,192,39767,128,0,40434:0:0:0:0:
448,192,40434,128,0,41101:0:0:0:0:
192,192,41101,1,0,0:0:0:0:
192,192,41434,1,2,0:0:0:0:
320,192,41767,1,0,0:0:0:0:
448,192,41934,1,0,0:0:0:0:
192,192,42101,1,2,0:0:0:0:
320,192,42267,1,0,0:0:0:0:
64,192,42434,128,0,43101:0:0:0:0:
320,192,43101,128,2,43767:0:0:0:0:
64,192,43767,1,0,0:0:0:0:
192,192,44101,1,0,0:0:0:0:
320,192,44434,1,0,0:0:0:0:
448,192,44767,1,2,0:0:0:0:
320,192,45101,1,0,0:0:0:0:
64,192,45267,1,0,0:0:0:0:
320,192,45434,1,0,0:0:0:0:
64,192,45601,1,0,0:0:0:0:
448,192,45767,1,0,0:0:0:0:
192,192,45934,1,0,0:0:0:0:
448,192,46101,1,0,0:0:0:0:
192,192,46267,1,0,0:0:0:0:
64,192,46434,1,0,0:0:0:0:
192,192,46601,1,0,0:0:0:0:
320,192,46767,1,0,0:0:0:0:
448,192,46934,1,0,0:0:0:0:
64,192,47101,1,0,0:0:0:0:
192,192,47267,1,0,0:0:0:0:
448,192,47434,1,2,0:0:0:0:
64,192,47434,1,6,0:0:0:0:
64,192,47767,128,0,48434:0:0:0:0:
448,192,48101,1,8,0:0:0:0:
320,192,48434,128,0,49101:0:0:0:0:
192,192,48767,1,8,0:0:0:0:
448,192,49101,128,0,49767:0:0:0:0:
64,192,49434,1,8,0:0:0:0:
192,192,49767,128,0,50434:0:0:0:0:
320,192,50101,1,8,0:0:0:0:
320,192,50434,128,0,51101:0:0:0:0:
192,192,50767,1,8,0:0:0:0:
64,192,51101,128,0,51767:0:0:0:0:
320,192,51434,1,8,0:0:0:0:
448,192,51767,1,0,0:0:0:0:
320,192,52101,1,2,0:0:0:0:
192,192,52434,1,0,0:0:0:0:
320,192,52767,1,2,0:0:0:0:
192,192,52934,1,0,0:0:0:0:
448,192,53101,128,8,54434:0:0:0:0:
320,192,53601,1,0,0:0:0:0:
192,192,54101,1,2,0:0:0:0:
64,192,54434,128,8,55767:0:0:0:0:
192,192,54934,1,0,0:0:0:0:
320,192,55434,1,2,0:0:0:0:
448,192,55767,128,0,56434:0:0:0:0:
320,192,56434,128,0,56601:0:0:0:0:
64,192,56601,1,2,0:0:0:0:
448,192,56767,128,0,56934:0:0:0:0:
192,192,56934,1,2,0:0:0:0:
64,192,57434,1,0,0:0:0:0:
192,192,57767,1,2,0:0:0:0:
320,192,58101,1,2,0:0:0:0:
192,192,58434,1,4,0:0:0:0:
448,192,58434,128,0,59767:0:0:0:0:
320,192,58767,1,2,0:0:0:0:
192,192,59101,1,0,0:0:0:0:
64,192,59267,1,0,0:0:0:0:
320,192,59434,1,2,0:0:0:0:
64,192,59767,1,0,0:0:0:0:
448,192,60101,1,2,0:0:0:0:
64,192,60434,1,0,0:0:0:0:
192,192,60601,1,0,0:0:0:0:
320,192,60767,1,2,0:0:0:0:
64,192,61101,128,0,62434:0:0:0:0:
448,192,61101,1,0,0:0:0:0:
320,192,61434,1,2,0:0:0:0:
192,192,61767,1,0,0:0:0:0:
320,192,61934,1,0,0:0:0:0:
448,192,62101,1,2,0:0:0:0:
320,192,62434,1,0,0:0:0:0:
192,192,62767,1,2,0:0:0:0:
64,192,63101,1,0,0:0:0:0:
320,192,63267,1,0,0:0:0:0:
192,192,63434,1,2,0:0:0:0:
448,192,63767,128,0,65101:0:0:0:0:
64,192,64101,1,2,0:0:0:0:
192,192,64434,1,0,0:0:0:0:
320,192,64601,1,0,0:0:0:0:
64,192,64767,1,2,0:0:0:0:
192,192,65101,128,0,66434:0:0:0:0:
448,192,65434,1,2,0:0:0:0:
320,192,65767,1,0,0:0:0:0:
64,192,65934,1,0,0:0:0:0:
448,192,66101,1,2,0:0:0:0:
448,192,66434,1,0,0:0:0:0:
320,192,66601,1,8,0:0:0:0:
192,192,66767,1,0,0:0:0:0:
64,192,67101,1,0,0:0:0:0:
192,192,67267,1,8,0:0:0:0:
320,192,67434,1,0,0:0:0:0:
448,192,67767,1,0,0:0:0:0:
320,192,67934,1,8,0:0:0:0:
192,192,68101,1,0,0:0:0:0:
64,192,68267,1,0,0:0:0:0:
320,192,68434,1,0,0:0:0:0:
448,192,68434,1,2,0:0:0:0:
64,192,68601,1,0,0:0:0:0:
192,192,68601,1,0,0:0:0:0:
320,192,68767,1,0,0:0:0:0:
448,192,68767,1,2,0:0:0:0:
192,192,68934,1,0,0:0:0:0:
64,192,68934,1,0,0:0:0:0:
448,192,69101,128,4,70434:0:0:0:0:
320,192,69101,1,0,0:0:0:0:
192,192,69434,1,2,0:0:0:0:
64,192,69767,1,0,0:0:0:0:
320,192,70101,1,2,0:0:0:0:
64,192,70434,1,0,0:0:0:0:
320,192,70434,128,0,71101:0:0:0:0:
192,192,70767,1,2,0:0:0:0:
448,192,71101,1,0,0:0:0:0:
320,192,71434,1,2,0:0:0:0:
448,192,71767,128,0,73101:0:0:0:0:
320,192,72101,1,2,0:0:0:0:
192,192,72434,1,0,0:0:0:0:
320,192,72767,1,2,0:0:0:0:
192,192,73101,1,0,0:0:0:0:
192,192,73434,1,2,0:0:0:0:
448,192,73767,1,0,0:0:0:0:
192,192,74101,1,2,0:0:0:0:
64,192,74434,128,0,74767:0:0:0:0:
448,192,74767,1,2,0:0:0:0:
320,192,75101,128,0,75434:0:0:0:0:
64,192,75434,1,2,0:0:0:0:
192,192,75767,128,0,76101:0:0:0:0:
448,192,76101,1,2,0:0:0:0:
320,192,76434,128,0,76767:0:0:0:0:
64,192,76767,1,2,0:0:0:0:
64,192,77101,1,0,0:0:0:0:
320,192,77101,1,0,0:0:0:0:
448,192,77434,1,0,0:0:0:0:
64,192,77434,1,0,0:0:0:0:
320,192,77601,1,0,0:0:0:0:
448,192,77767,1,0,0:0:0:0:
192,192,77767,1,0,0:0:0:0:
320,192,77934,1,0,0:0:0:0:
64,192,78101,1,0,0:0:0:0:
448,192,78101,1,0,0:0:0:0:
320,192,78434,1,2,0:0:0:0:
64,192,78767,1,2,0:0:0:0:
192,192,79101,1,2,0:0:0:0:
320,192,79434,1,2,0:0:0:0:
64,192,79767,1,4,0:0:0:0:
448,192,79767,1,0,0:0:0:0:
320,192,80101,1,2,0:0:0:0:
64,192,80267,1,0,0:0:0:0:
192,192,80434,1,2,0:0:0:0:
448,192,80434,1,0,0:0:0:0:
320,192,80601,1,0,0:0:0:0:
192,192,80767,1,2,0:0:0:0:
320,192,80934,1,0,0:0:0:0:
448,192,81101,1,0,0:0:0:0:
64,192,81267,1,0,0:0:0:0:
192,192,81434,1,2,0:0:0:0:
320,192,81601,1,0,0:0:0:0:
192,192,81767,1,0,0:0:0:0:
448,192,81934,1,0,0:0:0:0:
64,192,82101,1,0,0:0:0:0:
320,192,82267,1,0,0:0:0:0:
448,192,82434,1,2,0:0:0:0:
192,192,82767,1,0,0:0:0:0:
448,192,82934,1,2,0:0:0:0:
192,192,83267,1,2,0:0:0:0:
320,192,83434,1,0,0:0:0:0:
64,192,83601,1,2,0:0:0:0:
192,192,83767,1,0,0:0:0:0:
448,192,83767,1,0,0:0:0:0:
320,192,84101,1,0,0:0:0:0:
192,192,84434,1,0,0:0:0:0:
64,192,84601,1,0,0:0:0:0:
192,192,84767,1,2,0:0:0:0:
320,192,84934,1,0,0:0:0:0:
448,192,85101,128,2,85767:0:0:0:0:
192,192,85767,128,0,86434:0:0:0:0:
320,192,86434,128,2,86767:0:0:0:0:
64,192,86767,1,0,0:0:0:0:
448,192,87101,128,2,87434:0:0:0:0:
192,192,87434,1,0,0:0:0:0:
320,192,87767,128,2,88101:0:0:0:0:
192,192,88101,128,0,88434:0:0:0:0:
64,192,88434,128,2,88767:0:0:0:0:
448,192,88767,128,0,89101:0:0:0:0:
192,192,89101,1,2,0:0:0:0:
64,192,89267,1,0,0:0:0:0:
320,192,89434,1,2,0:0:0:0:
192,192,89601,1,0,0:0:0:0:
320,192,89767,1,2,0:0:0:0:
448,192,89934,1,0,0:0:0:0:
192,192,90101,1,2,0:0:0:0:
320,192,90267,1,0,0:0:0:0:
64,192,90434,1,0,0:0:0:0:
320,192,90767,1,2,0:0:0:0:
192,192,90767,1,0,0:0:0:0:
448,192,91101,1,0,0:0:0:0:
192,192,91434,1,0,0:0:0:0:
64,192,91434,1,2,0:0:0:0:
320,192,91767,1,0,0:0:0:0:
448,192,92101,1,0,0:0:0:0:
192,192,92101,1,2,0:0:0:0:
320,192,92434,1,0,0:0:0:0:
64,192,92767,1,2,0:0:0:0:
448,192,92767,1,2,0:0:0:0:
192,192,93101,1,0,0:0:0:0:
320,192,93434,1,2,0:0:0:0:
448,192,93434,1,0,0:0:0:0:
192,192,93767,1,0,0:0:0:0:
320,192,94101,1,2,0:0:0:0:
64,192,94101,1,0,0:0:0:0:
192,192,94434,1,0,0:0:0:0:
192,192,94767,1,2,0:0:0:0:
64,192,94767,1,2,0:0:0:0:
192,192,95101,1,0,0:0:0:0:
320,192,95101,1,0,0:0:0:0:
320,192,95434,1,2,0:0:0:0:
448,192,95434,1,2,0:0:0:0:
448,192,95767,1,4,0:0:0:0:
192,192,96101,1,0,0:0:0:0:
320,192,96101,1,2,0:0:0:0:
64,192,96434,1,0,0:0:0:0:
448,192,96767,1,0,0:0:0:0:
192,192,96767,1,2,0:0:0:0:
320,192,97101,1,0,0:0:0:0:
192,192,97434,1,0,0:0:0:0:
64,192,97434,1,2,0:0:0:0:
320,192,97767,1,0,0:0:0:0:
448,192,98101,1,0,0:0:0:0:
64,192,98101,1,2,0:0:0:0:
448,192,98434,128,0,99101:0:0:0:0:
64,192,99101,128,0,99767:0:0:0:0:
448,192,99767,1,4,0:0:0:0:
192,192,99934,1,0,0:0:0:0:
320,192,100101,1,6,0:0:0:0:
64,192,100434,1,4,0:0:0:0:
192,192,100601,1,0,0:0:0:0:
320,192,100767,1,2,0:0:0:0:
320,192,101101,1,4,0:0:0:0:
64,192,101267,1,0,0:0:0:0:
192,192,101434,1,6,0:0:0:0:
448,192,101767,1,2,0:0:0:0:
192,192,101934,1,0,0:0:0:0:
320,192,102101,1,2,0:0:0:0:
448,192,102267,128,4,107767:0:0:0:0:
64,192,102267,128,0,107767:0:0:0:0:
