osu file format v12

[General]
AudioFilename: Beforu - .mp3
AudioLeadIn: 0
PreviewTime: 217022
Countdown: 0
SampleSet: Normal
StackLeniency: 0.4
Mode: 0
LetterboxInBreaks: 1
EpilepsyWarning: 1
WidescreenStoryboard: 1

[Editor]
Bookmarks: 5222,24422,29222,32822,84422,94022,114722,182822,184022,192122,206822,239597,240272
DistanceSpacing: 1.2
BeatDivisor: 4
GridSize: 8

[Metadata]
Title:Shinario
TitleUnicode:シナリオ
Artist:BeForU
ArtistUnicode:BeForU
Creator:NightNine
Version:Hard
Source:BeForU II
Tags:小坂りゆ,RIYU KOSAKA,シナリオ,AMV,MAD,四方茉莉,bilibili
BeatmapID:371432
BeatmapSetID:149502

[Difficulty]
HPDrainRate:5
CircleSize:4
OverallDifficulty:6
ApproachRate:8
SliderMultiplier:1.2
SliderTickRate:1

[Events]
//Background and Video events
Video,4185,"AMV.avi"
0,0,"1.jpg",0,0
//Break Periods
2,24322,32072
2,84622,93272
2,173422,182972
2,197422,206072
//Storyboard Layer 0 (Background)
//Storyboard Layer 1 (Fail)
//Storyboard Layer 2 (Pass)
//Storyboard Layer 3 (Foreground)
//Storyboard Sound Samples
//Background Colour Transformations
3,100,163,162,255

[TimingPoints]
14822,300,4,1,5,75,1,0
34022,-100,4,1,2,75,0,0
51722,-133.333333333333,4,1,1,75,0,0
53222,-100,4,1,1,75,0,0
65222,-80,4,1,1,75,0,1
75422,-100,4,1,1,75,0,1
76022,-80,4,1,1,75,0,1
79622,-100,4,1,1,75,0,1
80672,-80,4,1,1,75,0,1
84422,-80,4,1,1,75,0,0
94022,-100,4,1,1,75,0,0
134822,-80,4,1,1,75,0,1
142022,-100,4,1,1,75,0,1
143222,-80,4,1,1,75,0,1
149222,-100,4,1,1,75,0,1
150272,-80,4,1,1,75,0,1
155222,-100,4,1,1,75,0,1
157322,-80,4,1,1,75,0,1
163622,-100,4,1,1,75,0,1
164672,-80,4,1,1,75,0,1
168422,-100,4,1,1,75,0,1
169622,-83.3333333333333,4,1,1,75,0,1
173222,-83.3333333333333,4,1,1,75,0,0
206822,-100,4,1,1,75,0,0
217622,-83.3333333333333,4,1,1,75,0,1
246422,-83.3333333333333,4,1,1,75,0,0

[Colours]
Combo1 : 113,130,249
Combo2 : 226,210,154
Combo3 : 249,117,176
Combo4 : 67,241,133

[HitObjects]
256,72,14522,5,8,0:0:0:0:
256,72,14822,6,0,L|208:208,1,120,0|8,0:0|0:0,0:0:0:0:
120,232,15422,2,0,P|136:284|220:308,1,120,0|8,0:0|0:0,0:0:0:0:
192,312,15872,1,0,0:0:0:0:
328,264,16022,6,8,B|325:245|317:273|353:297|365:305|285:369,1,120
432,288,16622,2,0,B|434:305|442:277|406:253|394:245|465:189,1,120,0|8,0:0|0:0,0:0:0:0:
444,88,17222,1,0,0:0:0:0:
348,128,17522,1,8,0:0:0:0:
272,60,17822,1,0,0:0:0:0:
172,80,18122,6,0,P|216:136|280:152,1,120,8|0,0:0|0:0,0:0:0:0:
144,212,18722,2,0,P|100:156|48:136,1,120,8|0,0:0|0:0,0:0:0:0:
80,40,19322,1,8,0:0:0:0:
80,40,19622,6,0,B|112:88|80:104|112:120|112:120|92:156|72:200,1,180
48,244,20222,1,0,0:0:0:0:
48,244,20372,1,8,0:0:0:0:
48,244,20522,2,0,P|128:280|152:312,1,120
252,284,21122,1,8,0:0:0:0:
252,284,21272,2,0,P|268:220|328:180,1,120
364,160,21722,6,0,B|404:228|480:208,2,120,8|0|8,0:0|0:0|0:0,0:0:0:0:
148,160,22622,2,8,B|108:228|32:208,1,120
256,192,23222,12,0,24122,0:0:0:0:
256,192,32822,12,0,33722,0:0:0:0:
200,136,34022,6,0,P|128:120|64:144,1,120,8|2,1:1|0:0,0:0:0:0:
140,212,34472,1,8,0:0:0:0:
140,212,34622,2,0,B|184:256|144:288|184:336,1,120,8|2,0:0|0:0,0:0:0:0:
248,216,35222,1,8,0:0:0:0:
336,312,35522,1,2,0:0:0:0:
368,184,35822,1,8,0:0:0:0:
456,280,36122,1,2,0:0:0:0:
480,160,36422,6,0,P|476:112|408:56,1,120,8|2,0:0|0:0,0:0:0:0:
304,144,36872,2,0,P|334:155|366:153,1,60,0|10,0:0|0:0,0:0:0:0:
312,56,37172,2,0,P|280:40|232:56,1,60,2|0,0:0|0:0,0:0:0:0:
136,144,37622,5,8,0:0:0:0:
136,144,37922,2,0,P|212:152|272:144,2,120,2|0|0,0:0|0:0|0:0,0:0:0:0:
160,296,38822,2,0,P|184:328|208:352,1,60,8|0,0:0|0:0,0:0:0:0:
248,272,39122,2,0,P|280:256|309:255,1,60,2|0,0:0|0:0,0:0:0:0:
384,280,39422,1,8,0:0:0:0:
392,184,39722,5,2,0:0:0:0:
392,184,40022,2,0,P|304:172|248:176,2,120,8|2|8,0:0|0:0|0:0,0:0:0:0:
280,360,40922,6,8,P|320:304|328:240,1,120
224,264,41522,1,0,0:0:0:0:
196,260,41672,2,0,P|132:224|104:160,1,120
196,120,42272,2,0,P|128:64|88:72,2,120,0|0|0,0:0|0:0|0:0,0:0:0:0:
176,240,43022,2,0,L|140:280,4,30,0|0|0|0|0,0:0|0:0|0:0|0:0|0:0,0:0:0:0:
372,224,43622,5,8,0:0:0:0:
372,224,43772,1,0,0:0:0:0:
372,224,43922,2,2,P|448:180|448:128,1,120
272,228,44522,2,8,P|292:296|352:328,1,120
416,288,44972,1,0,0:0:0:0:
416,288,45272,6,0,L|440:208,1,60,8|0,0:0|0:0,0:0:0:0:
384,212,45572,2,0,L|404:150,1,60,8|0,0:0|0:0,0:0:0:0:
396,48,46022,2,0,P|352:68|272:48,1,120,8|2,0:0|0:0,0:0:0:0:
208,176,46622,2,0,P|244:164|344:180,1,120,8|2,0:0|0:0,0:0:0:0:
320,272,47222,6,8,P|352:232|320:96,1,180
288,32,47822,1,0,0:0:0:0:
224,80,47972,1,0,0:0:0:0:
160,32,48122,1,0,0:0:0:0:
80,168,48422,6,0,P|64:232|72:304,2,120,0|0|0,0:0|0:0|0:0,0:0:0:0:
208,240,49322,2,0,P|210:302|192:376,2,120
72,280,50222,1,0,0:0:0:0:
208,328,50522,1,0,0:0:0:0:
336,192,50822,5,0,0:0:0:0:
216,240,51122,1,0,0:0:0:0:
96,200,51422,1,0,0:0:0:0:
128,104,51722,2,0,P|168:72|216:64,2,90.0000034332277
248,160,52622,2,0,P|312:160|352:176,1,90.0000034332277
264,272,53222,6,0,P|288:328|408:352,2,180
320,128,54422,1,0,0:0:0:0:
320,128,54572,1,0,0:0:0:0:
264,64,54722,1,0,0:0:0:0:
264,64,54872,1,0,0:0:0:0:
184,48,55022,2,0,B|160:96|160:136|160:136|128:144,1,120
120,256,55622,6,0,P|213:257|256:184,2,180
48,168,56822,2,0,L|0:152,2,30
112,64,57122,2,0,L|88:32,2,30
224,40,57422,2,0,L|224:8,2,30
336,64,57722,6,0,P|352:104|384:136,1,60
392,168,58022,2,0,P|360:232|296:256,2,120
488,232,58922,2,0,P|512:296|488:344,1,120
352,384,59522,2,0,P|325:326|344:272,1,120
488,160,60122,1,0,0:0:0:0:
440,96,60272,1,0,0:0:0:0:
360,88,60422,2,0,P|320:120|240:144,1,120
248,144,60872,6,0,P|208:192|232:256,1,120
112,256,61322,2,0,P|160:272|224:232,1,120
272,192,61772,1,0,0:0:0:0:
344,160,61922,1,0,0:0:0:0:
400,216,62072,1,0,0:0:0:0:
456,272,62222,6,0,P|488:208|480:152,1,120
368,88,62672,1,0,0:0:0:0:
368,88,62822,2,0,P|272:120|248:208,1,180
168,120,63422,2,0,P|134:71|78:55,1,120
88,216,64022,6,0,L|32:232,6,32.5
208,264,64622,1,0,0:0:0:0:
256,144,64922,1,0,0:0:0:0:
360,16,65222,6,0,L|472:128,1,150
472,224,65672,2,0,P|432:320|296:352,1,225
88,240,66422,2,0,L|168:112,1,150
240,32,66872,2,0,P|320:16|392:152,1,225
384,208,67472,1,0,0:0:0:0:
296,240,67622,6,0,P|208:264|168:328,1,150
208,304,68072,2,0,P|232:264|208:160,1,150
192,192,68522,2,0,P|272:160|288:72,1,150
240,32,68972,1,0,0:0:0:0:
152,64,69122,6,0,L|72:80,1,75
232,152,69422,2,0,L|312:136,1,75,0|0,0:0|0:0,0:0:0:0:
136,200,69722,2,0,P|136:240|168:296,1,75
200,352,70022,6,0,L|360:280,1,150
392,360,70472,2,0,P|480:296|464:168,1,225
344,64,71222,2,0,P|264:24|136:80,2,225,0|0|0,0:0|0:0|0:0,0:0:0:0:
336,160,72272,1,0,0:0:0:0:
264,208,72422,6,0,P|264:272|408:328,2,225
200,112,73472,1,0,0:0:0:0:
128,176,73622,2,0,L|48:200,1,75
40,312,73922,6,0,L|128:288,1,75
200,320,74222,2,0,L|216:368,2,37.5
224,240,74522,2,0,P|280:264|296:288,1,75
320,352,74822,6,0,P|392:304|408:224,1,150
424,152,75272,1,0,0:0:0:0:
440,56,75422,2,0,P|376:56|336:112,1,120
144,152,76022,6,0,P|176:208|216:224,1,75
280,192,76322,1,0,0:0:0:0:
368,240,76472,1,0,0:0:0:0:
392,336,76622,2,0,P|440:288|448:256,2,75
312,280,77072,1,0,0:0:0:0:
312,280,77222,6,0,P|248:248|144:256,1,150
96,328,77672,1,0,0:0:0:0:
96,328,77822,2,0,P|64:240|64:152,1,150
128,104,78272,2,0,P|88:72|40:64,2,75
240,112,78722,6,0,L|256:16,1,75
352,128,79022,2,0,L|416:40,1,75
440,192,79322,2,0,L|528:152,1,75
344,240,79622,2,0,P|392:336|480:352,2,180
256,168,80672,1,0,0:0:0:0:
160,192,80822,6,0,P|144:256|144:288,1,75,0|0,0:0|0:0,0:0:0:0:
240,240,81122,2,0,P|256:184|256:136,1,75
256,80,81422,1,0,0:0:0:0:
256,80,81722,1,0,0:0:0:0:
136,104,82022,2,0,P|173:118|200:144,1,75
375,104,82322,2,0,P|338:118|312:144,1,75
136,280,82622,2,0,P|176:264|216:224,1,75
376,280,82922,2,0,P|336:264|296:232,1,75
256,168,83222,5,0,0:0:0:0:
256,120,83522,1,0,0:0:0:0:
256,72,83822,2,0,L|256:24,2,37.5
160,48,84122,2,0,L|160:8,2,37.5
88,112,84422,1,0,0:0:0:0:
224,72,94022,6,0,L|248:144,1,60
176,160,94322,2,0,L|200:224,1,60,0|0,0:0|0:0,0:0:0:0:
136,264,94622,2,0,L|160:328,1,60
157,319,94922,1,0,0:0:0:0:
296,304,95222,6,0,P|344:264|408:264,1,120
408,328,95822,2,0,L|384:264,1,60
448,208,96122,2,0,L|424:144,1,60
360,88,96422,6,0,P|384:64|408:24,2,60,0|0|0,0:0|0:0|0:0,0:0:0:0:
280,120,96872,2,0,P|224:120|208:112,1,60
152,88,97172,2,0,P|128:64|104:32,2,60,0|0|0,0:0|0:0|0:0,0:0:0:0:
208,152,97622,2,0,P|224:216|192:288,1,120
80,280,98222,6,0,L|64:344,1,60
40,208,98522,1,0,0:0:0:0:
176,144,98822,2,0,L|168:80,1,60
256,184,99122,2,0,L|248:120,1,60
336,160,99422,6,0,L|344:224,1,60,0|0,0:0|0:0,0:0:0:0:
416,200,99722,2,0,L|424:264,1,60
360,336,100022,2,0,P|296:344|224:312,1,120
160,288,100472,2,0,L|96:304,2,60,0|0|0,0:0|0:0|0:0,0:0:0:0:
224,232,100922,1,0,0:0:0:0:
248,120,101222,6,0,L|224:72,2,30
248,120,101522,2,0,L|320:96,1,60
384,56,101822,2,0,P|440:128|432:176,1,120
416,264,102272,2,0,P|371:256|344:232,1,60
256,208,102722,5,0,0:0:0:0:
312,160,102872,1,0,0:0:0:0:
304,88,103022,1,0,0:0:0:0:
240,56,103172,2,0,L|232:8,4,30
168,96,103622,6,0,P|96:88|72:144,1,120
56,264,104222,2,0,P|117:264|144:216,1,120
240,248,104822,1,0,0:0:0:0:
264,280,104972,1,0,0:0:0:0:
288,312,105122,1,0,0:0:0:0:
312,344,105272,1,0,0:0:0:0:
352,272,105422,6,0,L|304:200,1,60
432,280,105722,2,0,L|480:344,1,60
432,200,106022,2,0,B|472:184|472:184|448:136|464:88,1,120
368,80,106472,2,0,P|304:96|232:72,1,120
184,16,106922,2,0,L|128:80,1,60
64,48,107222,2,0,L|24:96,1,60
80,152,107522,6,0,P|104:208|240:184,1,195
280,152,108122,1,0,0:0:0:0:
312,232,108272,2,0,P|328:280|328:312,2,60
240,280,108722,2,0,P|248:320|240:360,2,60
160,248,109172,2,0,B|128:216|176:160|168:112,1,120
168,40,109622,1,0,0:0:0:0:
336,40,109922,1,0,0:0:0:0:
448,192,110222,1,0,0:0:0:0:
280,192,110522,1,0,0:0:0:0:
112,192,110822,6,0,L|200:192,1,60
184,272,111122,2,0,L|272:272,1,60,0|0,0:0|0:0,0:0:0:0:
136,344,111422,2,0,L|71:344,1,60,0|0,0:0|0:0,0:0:0:0:
32,272,111722,6,0,B|152:232|88:184|32:144|136:80,1,240
208,136,112472,1,0,0:0:0:0:
184,216,112622,2,0,L|216:264,4,30
328,312,113222,6,0,B|376:288|408:256|408:256|448:248|448:248|464:224|472:192,2,180
160,256,114422,2,0,L|112:200,1,60
160,256,114722,2,0,L|224:200,1,60
160,256,115022,2,0,L|216:320,1,60
160,256,115322,2,0,L|96:312,1,60
40,248,115622,6,0,B|51:180|51:180|32:152|80:120|51:100|51:100|56:48,1,180
128,32,116222,1,0,0:0:0:0:
160,104,116372,1,0,0:0:0:0:
224,56,116522,1,0,0:0:0:0:
344,112,116822,6,0,L|432:24,1,120
440,104,117272,2,0,L|496:48,1,60
440,104,117572,2,0,L|496:168,1,60
352,272,118022,6,0,P|280:304|224:288,1,120
64,304,118622,2,0,P|32:232|56:176,1,120
128,184,119072,1,0,0:0:0:0:
160,104,119222,2,0,L|280:72,1,120
304,152,119672,2,0,P|288:176|280:208,1,60
368,200,119972,2,0,P|384:176|384:120,1,60
256,40,120422,6,0,P|200:80|184:152,1,120
168,224,121022,2,0,P|144:240|88:240,1,60
88,272,121322,2,0,P|144:312|208:312,2,120
432,272,122222,2,0,P|368:312|304:312,1,120
256,208,122822,5,0,0:0:0:0:
376,144,123222,1,0,0:0:0:0:
256,80,123622,1,0,0:0:0:0:
40,144,124022,2,0,L|184:144,1,120
304,248,124622,6,0,P|256:280|264:360,1,120
424,344,125222,2,0,P|472:312|473:244,1,120
408,200,125672,2,0,L|352:256,1,60
408,120,125972,2,0,L|456:72,1,60
336,80,126272,2,0,P|320:56|168:64,1,180
128,96,126872,1,0,0:0:0:0:
120,168,127022,1,0,0:0:0:0:
176,216,127172,1,0,0:0:0:0:
152,288,127322,6,0,P|128:343|72:328,1,120
80,176,127922,2,0,P|104:128|164:131,1,120
296,176,128522,2,0,P|320:120|297:61,1,120,0|0,0:0|0:0,0:0:0:0:
192,176,129122,2,0,P|168:232|193:290,1,120
264,312,129572,1,0,0:0:0:0:
336,288,129722,1,0,0:0:0:0:
352,216,129872,1,0,0:0:0:0:
416,176,130022,2,0,P|448:208|488:216,1,60
464,104,130322,2,0,P|432:72|392:64,1,60
336,72,130622,2,0,P|280:96|216:64,2,120
216,168,131522,5,0,0:0:0:0:
248,240,131672,1,0,0:0:0:0:
200,304,131822,2,0,P|120:288|72:200,1,180
32,112,132422,2,0,B|72:136|120:72|160:88,1,120
248,16,132872,1,0,0:0:0:0:
304,112,133022,1,0,0:0:0:0:
240,216,133172,2,0,B|216:240|216:240|168:248,1,60,0|0,0:0|0:0,0:0:0:0:
256,192,133472,12,0,134522,0:0:0:0:
104,56,134822,6,0,L|128:216,1,150,0|0,0:0|0:0,2:0:0:0:
53,274,135272,2,0,B|84:320|138:339|216:313|237:244|232:208,1,225,0|0,0:0|0:0,2:0:0:0:
408,56,136022,6,0,L|383:223,1,162.5,0|0,0:0|0:0,2:0:0:0:
459,274,136472,2,0,B|427:320|373:339|295:313|274:244|288:208,1,225,0|0,0:0|0:0,2:0:0:0:
144,88,137222,6,0,P|256:64|368:88,2,225
72,168,138272,1,0,0:0:0:0:
152,216,138422,2,0,L|128:320,1,75
216,352,138722,2,0,L|233:272,1,75
328,288,139022,6,0,P|328:248|368:200,1,75
440,192,139322,1,0,0:0:0:0:
464,96,139472,1,0,0:0:0:0:
392,32,139622,2,0,L|232:80,1,150
144,56,140072,2,0,P|160:128|320:144,1,225
464,264,140822,6,0,P|368:328|232:304,2,225
456,168,141872,1,0,0:0:0:0:
360,168,142022,2,0,P|368:136|496:80,2,180
216,232,143222,6,0,L|256:136,1,75
312,232,143522,2,0,L|272:328,1,75
192,344,143822,1,0,0:0:0:0:
96,320,143972,1,0,0:0:0:0:
56,232,144122,1,0,0:0:0:0:
184,88,144422,6,0,P|128:48|32:56,2,150
160,184,145172,1,0,0:0:0:0:
160,184,145322,2,0,L|256:184,1,75
232,280,145622,2,0,L|312:280,1,75
416,216,145922,6,0,L|320:216,1,75
352,320,146222,2,0,L|248:320,1,75,0|0,0:0|0:0,0:0:0:0:
248,224,146522,2,0,P|224:176|224:128,1,75
144,208,146822,2,0,P|168:256|128:360,2,150
72,144,147572,1,0,0:0:0:0:
96,48,147722,1,0,0:0:0:0:
192,32,147872,1,0,0:0:0:0:
248,112,148022,2,0,L|160:120,1,75
312,168,148322,6,0,P|336:136|336:80,1,75
376,248,148622,2,0,P|408:224|432:168,1,75
392,344,148922,2,0,P|432:328|472:280,1,75
312,296,149222,6,0,B|280:208|280:208|320:112,2,180
224,344,150272,1,0,0:0:0:0:
184,256,150422,2,0,P|168:216|132:197,1,75
32,224,150721,2,0,P|48:256|88:280,1,75
184,256,151022,1,0,0:0:0:0:
264,208,151172,1,0,0:0:0:0:
264,112,151322,1,0,0:0:0:0:
80,64,151622,6,0,B|104:88|136:96|136:96|128:136|184:136|184:136|216:168,1,150
432,64,152222,2,0,B|408:88|376:96|376:96|384:136|328:136|328:136|296:168,1,150
80,320,152822,2,0,B|104:296|136:288|136:288|128:248|184:248|184:248|216:216,1,150
432,320,153422,2,0,B|408:296|376:288|376:288|384:248|328:248|328:248|296:216,1,150
256,48,154022,6,0,B|248:88|248:88|264:120|264:120|248:152|248:152|264:176|264:176|248:208|248:208|264:240|264:240|256:280,2,225
104,72,155222,6,0,P|152:88|184:104,1,60
208,144,155522,2,0,P|144:160|88:208,2,120
360,64,156422,2,0,P|392:160|368:224,2,150
264,64,157322,1,0,0:0:0:0:
208,144,157472,1,0,0:0:0:0:
296,192,157622,5,0,0:0:0:0:
320,288,157772,1,0,0:0:0:0:
416,320,157922,2,0,P|440:240|400:160,1,150
408,72,158372,2,0,P|368:88|328:136,1,75
336,208,158672,1,0,0:0:0:0:
304,312,158822,6,0,P|240:280|208:280,1,75
184,304,159122,2,0,P|112:200|208:48,1,300
328,184,160022,2,0,P|368:224|472:232,2,150
344,88,160772,1,0,0:0:0:0:
440,80,160922,1,0,0:0:0:0:
504,160,161072,1,0,0:0:0:0:
480,256,161222,6,0,P|424:320|336:320,2,150
424,176,161972,2,0,P|384:160|320:176,1,75
264,208,162272,6,0,P|288:256|336:272,2,75
272,112,162722,1,0,0:0:0:0:
208,32,162872,1,0,0:0:0:0:
112,40,163022,1,0,0:0:0:0:
64,120,163172,1,0,0:0:0:0:
112,208,163322,2,0,P|96:256|56:296,1,75
208,216,163622,6,0,B|288:256|288:256|336:360,2,180
264,136,164672,1,0,0:0:0:0:
368,152,164822,2,0,L|416:184,2,37.5
368,152,165122,6,0,P|384:88|384:48,2,75
368,240,165572,2,0,P|296:240|264:224,1,75
240,312,165872,1,0,0:0:0:0:
240,312,166022,2,0,P|216:288|192:224,1,75
176,160,166322,2,0,P|88:176|96:368,1,300
168,344,167072,1,0,0:0:0:0:
224,272,167222,6,0,L|200:216,2,37.5
224,272,167522,2,0,P|280:256|328:272,2,75
288,352,167972,2,0,P|344:344|384:320,1,75
480,216,168422,2,0,L|448:24,2,180
288,144,169622,2,0,L|192:152,1,71.9999978027344
240,240,169922,2,0,L|160:248,1,71.9999978027344
40,176,170222,6,0,L|136:168,1,71.9999978027344
88,80,170522,2,0,L|168:72,1,71.9999978027344
256,16,170822,5,0,0:0:0:0:
368,352,171422,1,0,0:0:0:0:
80,152,172022,1,0,0:0:0:0:
432,152,172622,1,0,0:0:0:0:
144,352,173222,1,0,0:0:0:0:
256,120,183722,5,8,0:0:0:0:
256,120,184022,1,0,0:0:0:0:
216,224,184322,2,0,P|216:272|240:312,1,71.9999978027344
328,280,184622,2,0,P|368:304|488:288,2,143.999995605469
456,168,185522,1,0,0:0:0:0:
368,72,185822,1,0,0:0:0:0:
240,144,186122,1,0,0:0:0:0:
120,48,186422,6,0,P|96:144|104:192,1,143.999995605469
176,192,186872,2,0,P|176:256|168:280,1,71.9999978027344
104,296,187172,1,0,0:0:0:0:
104,296,187322,2,0,P|200:352|280:296,1,215.999993408203
304,248,187922,5,0,0:0:0:0:
432,328,188222,1,0,0:0:0:0:
432,328,188372,1,0,0:0:0:0:
464,256,188522,2,0,P|408:216|392:208,1,71.9999978027344
336,208,188822,2,0,P|272:176|296:112,1,143.999995605469
312,40,189272,2,0,P|369:59|360:136,1,143.999995605469
296,136,189722,2,0,P|192:136|104:200,1,215.999993408203
72,272,190322,1,0,0:0:0:0:
152,328,190472,1,0,0:0:0:0:
200,240,190622,1,0,0:0:0:0:
280,296,190772,1,0,0:0:0:0:
368,240,190922,6,0,L|432:304,1,71.9999978027344
392,152,191222,2,0,L|344:96,1,71.9999978027344,0|0,0:0|0:0,0:0:0:0:
272,40,191522,1,0,0:0:0:0:
272,40,191672,1,0,0:0:0:0:
200,104,191822,1,0,0:0:0:0:
200,104,191972,1,0,0:0:0:0:
240,192,192122,2,0,P|144:272|32:184,1,287.999991210938
200,104,193022,6,0,L|176:64,2,35.9999989013672,0|0|0,0:0|0:0|0:0,0:0:0:0:
384,136,193322,6,0,L|432:200,1,71.9999978027344
336,224,193622,2,0,L|392:296,1,71.9999978027344
176,224,193922,2,0,L|120:296,1,71.9999978027344
128,136,194222,2,0,L|80:200,1,71.9999978027344
256,144,194522,2,0,L|256:64,1,71.9999978027344
256,192,194822,12,4,197222,0:0:0:0:
256,56,206822,5,0,0:0:0:0:
216,208,207272,2,0,L|192:288,1,60
96,288,207722,1,0,0:0:0:0:
360,256,208172,6,0,L|384:176,1,60
408,104,208472,1,0,0:0:0:0:
328,48,208622,2,0,L|280:184,1,120
176,224,209072,1,0,0:0:0:0:
176,224,209222,5,0,0:0:0:0:
128,32,209672,2,0,L|144:96,1,60
72,232,210122,1,0,0:0:0:0:
56,312,210272,1,0,0:0:0:0:
120,360,210422,2,0,L|200:336,1,60
208,264,210722,2,0,L|288:240,1,60
328,296,211022,2,0,L|400:272,2,60
280,136,211622,6,0,P|304:80|359:55,1,120
368,144,212072,2,0,B|368:216|368:216|448:168|456:120,1,180
232,136,212822,2,0,P|212:77|160:57,1,120
144,144,213272,2,0,B|144:216|144:216|72:176|56:128,1,180
256,48,214022,5,0,0:0:0:0:
256,184,214472,1,0,0:0:0:0:
256,320,214922,1,0,0:0:0:0:
256,192,215222,12,0,217322,0:0:0:0:
240,72,217622,5,0,0:0:0:0:
240,72,217922,2,0,P|232:112|192:160,1,71.9999978027344
216,136,218522,2,0,P|232:176|352:200,1,143.999995605469
384,320,219122,1,0,0:0:0:0:
384,320,219272,2,0,L|288:320,1,71.9999978027344
128,256,219722,2,0,L|208:256,1,71.9999978027344
288,256,220022,2,0,P|328:184|280:64,2,215.999993408203
216,208,221072,5,0,0:0:0:0:
168,280,221222,1,0,0:0:0:0:
240,328,221372,1,0,0:0:0:0:
288,256,221522,1,0,0:0:0:0:
336,184,221672,1,0,0:0:0:0:
408,232,221822,1,0,0:0:0:0:
368,304,221972,1,0,0:0:0:0:
288,256,222122,6,0,L|256:160,1,71.9999978027344
232,112,222422,2,0,P|160:136|96:104,1,143.999995605469
160,48,222872,2,0,P|232:24|360:80,1,215.999993408203
440,224,223622,2,0,P|320:248|232:192,2,215.999993408203
464,144,224672,1,0,0:0:0:0:
416,72,224822,6,0,L|352:32,1,71.9999978027344
320,112,225122,2,0,L|248:80,1,71.9999978027344
232,168,225422,2,0,L|152:144,1,71.9999978027344
160,232,225722,2,0,L|72:224,1,71.9999978027344
40,152,226022,6,0,L|32:64,2,71.9999978027344,0|0|0,0:0|0:0|0:0,0:0:0:0:
88,224,226472,2,0,L|94:295,2,71.9999978027344
136,152,226922,1,0,0:0:0:0:
216,176,227072,1,0,0:0:0:0:
296,200,227222,2,0,P|320:120|296:56,1,143.999995605469
296,200,227672,2,0,P|271:266|289:335,1,143.999995605469
360,288,228122,2,0,P|400:264|456:256,1,71.9999978027344
472,184,228422,6,0,P|400:160|384:160,1,71.9999978027344
312,120,228722,2,0,B|264:120|264:120|272:152|256:128|216:168|216:168|176:176|176:184,1,143.999995605469
192,264,229172,2,0,L|192:336,2,71.9999978027344
272,224,229622,2,0,L|272:104,1,71.9999978027344
192,128,229922,2,0,L|192:32,2,71.9999978027344
56,232,230522,6,0,P|16:160|32:72,2,143.999995605469
144,248,231272,1,0,0:0:0:0:
224,216,231422,1,0,0:0:0:0:
280,152,231572,1,0,0:0:0:0:
296,64,231722,1,0,0:0:0:0:
128,32,232022,6,0,P|152:136|192:176,2,143.999995605469
280,112,232922,2,0,P|392:136|448:128,2,143.999995605469
224,184,233672,1,0,0:0:0:0:
272,256,233822,1,0,0:0:0:0:
352,224,233972,1,0,0:0:0:0:
408,288,234122,1,0,0:0:0:0:
408,288,234272,1,0,0:0:0:0:
448,208,234422,6,0,P|464:152|464:96,1,71.9999978027344
376,144,234722,2,0,P|376:104|360:48,1,71.9999978027344,0|0,0:0|0:0,0:0:0:0:
288,96,235022,2,0,P|272:56|240:16,1,71.9999978027344,0|0,0:0|0:0,0:0:0:0:
192,88,235322,2,0,P|144:200|176:288,1,215.999993408203
248,320,235922,5,0,0:0:0:0:
336,320,236072,1,0,0:0:0:0:
392,248,236222,2,0,P|432:288|448:328,1,71.9999978027344
312,224,236522,2,0,P|280:192|264:144,1,71.9999978027344
176,80,236822,2,0,P|264:56|400:88,2,215.999993408203
124,152,237872,6,0,L|100:256,1,71.9999978027344
212,176,238172,2,0,L|204:296,1,71.9999978027344,0|0,0:0|0:0,0:0:0:0:
300,176,238472,2,0,L|308:296,1,71.9999978027344,0|0,0:0|0:0,0:0:0:0:
388,152,238772,2,0,L|412:256,1,71.9999978027344
256,128,239222,2,0,B|256:208|256:208|264:224|264:224|248:224|248:224|256:240|256:240|256:352,2,215.999993408203
192,64,240272,1,0,0:0:0:0:
112,96,240422,1,0,0:0:0:0:
88,176,240572,1,0,0:0:0:0:
144,248,240722,6,0,P|216:224|296:224,1,143.999995605469
432,304,241322,1,0,0:0:0:0:
432,304,241472,1,0,0:0:0:0:
432,304,241622,2,0,P|456:200|448:144,2,143.999995605469
288,208,242522,2,0,P|280:128|240:64,2,143.999995605469
304,288,243272,2,0,P|256:288|216:264,1,71.9999978027344
88,200,243572,6,0,P|136:184|176:184,1,71.9999978027344
240,176,243872,1,0,0:0:0:0:
328,192,244022,1,0,0:0:0:0:
400,240,244172,1,0,0:0:0:0:
456,312,244322,1,0,0:0:0:0:
368,304,244472,5,0,0:0:0:0:
288,264,244622,1,0,0:0:0:0:
232,192,244772,1,0,0:0:0:0:
216,104,244922,1,0,0:0:0:0:
232,16,245072,1,0,0:0:0:0:
256,192,245222,12,0,246422,0:0:0:0:
