osu file format v12

[General]
AudioFilename: Beforu - .mp3
AudioLeadIn: 0
PreviewTime: 217022
Countdown: 0
SampleSet: Normal
StackLeniency: 0.7
Mode: 0
LetterboxInBreaks: 1
EpilepsyWarning: 1
WidescreenStoryboard: 1

[Editor]
Bookmarks: 5222,29222,32822,50672,84422,94022,114722,182822,184022,192122,239597,240272
DistanceSpacing: 0.8
BeatDivisor: 4
GridSize: 4

[Metadata]
Title:Shinario
TitleUnicode:シナリオ
Artist:BeForU
ArtistUnicode:BeForU
Creator:NightNine
Version:Extra
Source:BeForU II
Tags:小坂りゆ,RIYU KOSAKA,シナリオ,AMV,MAD,四方茉莉,bilibili
BeatmapID:369433
BeatmapSetID:149502

[Difficulty]
HPDrainRate:7
CircleSize:4
OverallDifficulty:7
ApproachRate:9
SliderMultiplier:1.7
SliderTickRate:2

[Events]
//Background and Video events
Video,4267,"AMV.avi"
0,0,"1.jpg",0,0
//Break Periods
2,24622,28322
2,84622,92222
2,173622,183122
//Storyboard Layer 0 (Background)
//Storyboard Layer 1 (Fail)
//Storyboard Layer 2 (Pass)
//Storyboard Layer 3 (Foreground)
//Storyboard Sound Samples
//Background Colour Transformations
3,100,163,162,255

[TimingPoints]
13622,300,4,1,1,75,1,0
22022,-100,4,1,1,45,0,0
22322,-100,4,1,1,55,0,0
22622,-100,4,1,1,65,0,0
22922,-100,4,1,1,75,0,0
23672,-80,4,1,1,75,0,0
28922,-133.333333333333,4,1,1,60,0,0
32822,-100,4,1,5,75,0,0
33722,-100,4,1,1,60,0,0
35222,-100,4,1,5,60,0,0
35822,-100,4,1,1,60,0,0
36422,-100,4,1,5,60,0,0
36872,-100,4,1,1,60,0,0
37322,-100,4,1,5,60,0,0
37622,-100,4,1,1,60,0,0
37922,-100,4,1,5,60,0,0
37997,-100,4,1,1,60,0,0
38072,-100,4,1,5,60,0,0
38222,-100,4,1,5,40,0,0
38297,-100,4,1,5,45,0,0
38372,-100,4,1,5,50,0,0
38447,-100,4,1,5,55,0,0
38522,-100,4,1,5,60,0,0
38597,-100,4,1,1,60,0,0
39272,-100,4,1,5,60,0,0
39422,-100,4,1,1,60,0,0
39722,-100,4,1,5,60,0,0
39947,-100,4,1,1,60,0,0
40322,-100,4,1,5,60,0,0
40622,-100,4,1,1,60,0,0
40922,-100,4,1,5,60,0,0
41222,-100,4,1,1,60,0,0
41522,-100,4,1,5,60,0,0
42572,-100,4,1,1,60,0,0
42722,-100,4,1,5,60,0,0
43022,-100,4,1,5,60,0,0
43622,-100,4,1,1,75,0,0
43922,-100,4,1,5,75,0,0
44372,-100,4,1,1,75,0,0
45422,-100,4,1,5,75,0,0
46022,-100,4,1,1,75,0,0
47372,-100,4,1,5,75,0,0
47822,-100,4,1,5,75,0,0
48722,-100,4,1,1,75,0,0
48872,-100,4,1,5,75,0,0
49172,-100,4,1,1,75,0,0
49322,-100,4,1,5,75,0,0
49472,-100,4,1,1,75,0,0
49622,-100,4,1,5,75,0,0
50372,-100,4,1,1,75,0,0
50522,-100,4,1,5,75,0,0
50672,-100,4,1,1,75,0,0
51122,-100,4,1,5,75,0,0
51272,-100,4,1,1,75,0,0
51722,-100,4,1,5,75,0,0
51797,-100,4,1,1,75,0,0
51872,-100,4,1,5,75,0,0
52172,-100,4,1,1,75,0,0
52322,-100,4,1,5,65,0,0
52472,-100,4,1,1,65,0,0
52622,-100,4,1,5,55,0,0
53222,-100,4,1,5,65,0,0
53222,-100,4,1,1,65,0,0
53522,-100,4,1,1,65,0,0
53672,-100,4,1,5,65,0,0
53972,-100,4,1,1,65,0,0
54122,-100,4,1,5,65,0,0
54422,-100,4,1,1,65,0,0
54572,-100,4,1,5,65,0,0
55622,-100,4,1,1,65,0,0
55922,-100,4,1,5,65,0,0
56222,-100,4,1,1,65,0,0
56522,-100,4,1,5,65,0,0
56597,-100,4,1,1,65,0,0
56672,-100,4,1,5,65,0,0
56822,-100,4,1,1,65,0,0
57122,-100,4,1,5,75,0,0
57722,-100,4,1,1,75,0,0
58322,-100,4,1,5,75,0,0
58397,-100,4,1,1,75,0,0
58922,-100,4,1,5,75,0,0
59147,-100,4,1,1,75,0,0
59447,-100,4,1,5,75,0,0
59747,-100,4,1,1,75,0,0
60047,-100,4,1,5,75,0,0
60197,-100,4,1,1,75,0,0
60647,-100,4,1,5,75,0,0
61322,-83.3333333333333,4,1,5,75,0,0
64022,-111.111111111111,4,1,5,75,0,0
64322,-133.333333333333,4,1,1,75,0,0
64622,-166.666666666667,4,1,1,75,0,0
64922,-100,4,1,1,75,0,0
65222,-100,4,1,1,75,0,1
65297,-100,4,1,5,75,0,1
65747,-100,4,1,1,75,0,1
66347,-100,4,1,5,75,0,1
66497,-100,4,1,1,75,0,1
68672,-100,4,1,5,75,0,1
69422,-100,4,1,1,75,0,1
71222,-90.9090909090909,4,1,1,75,0,1
71522,-90.9090909090909,4,1,20,75,0,1
71672,-90.9090909090909,4,1,1,75,0,1
71972,-90.9090909090909,4,1,20,75,0,1
72122,-90.9090909090909,4,1,1,75,0,1
72272,-100,4,1,1,75,0,1
73322,-100,4,1,5,75,0,1
74072,-83.3333333333333,4,1,5,75,0,1
74897,-83.3333333333333,4,1,1,75,0,1
75872,-100,4,1,5,75,0,1
76397,-100,4,1,1,75,0,1
77222,-100,4,1,5,75,0,1
77297,-100,4,1,1,75,0,1
77372,-100,4,1,5,75,0,1
77447,-100,4,1,1,75,0,1
77522,-100,4,1,5,75,0,1
77597,-100,4,1,1,75,0,1
77672,-100,4,1,5,75,0,1
77747,-100,4,1,1,75,0,1
77822,-100,4,1,5,75,0,1
78122,-100,4,1,5,75,0,1
78272,-100,4,1,5,75,0,1
80822,-100,4,1,5,50,0,1
81122,-100,4,1,5,60,0,1
81422,-100,4,1,5,70,0,1
82172,-80,4,1,5,75,0,1
84422,-80,4,1,1,75,0,0
92810,-80,4,1,5,60,0,0
93722,-80,4,1,1,60,0,0
94022,-133.333333333333,4,1,1,50,0,0
94022,-133.333333333333,4,1,1,30,0,0
102422,-133.333333333333,4,1,5,50,0,0
102572,-133.333333333333,4,1,5,45,0,0
102722,-133.333333333333,4,1,5,40,0,0
102872,-133.333333333333,4,1,5,35,0,0
103022,-133.333333333333,4,1,5,30,0,0
103919,-100,4,1,5,50,0,0
104372,-100,4,1,1,50,0,0
104522,-100,4,1,5,50,0,0
104672,-100,4,1,1,50,0,0
104822,-100,4,1,5,50,0,0
104972,-100,4,1,1,50,0,0
105422,-100,4,1,5,50,0,0
106022,-100,4,1,1,50,0,0
106622,-100,4,1,5,50,0,0
106922,-100,4,1,1,50,0,0
107222,-100,4,1,5,50,0,0
107522,-100,4,1,1,50,0,0
108103,-100,4,1,5,50,0,0
108722,-100,4,1,1,50,0,0
109022,-100,4,1,5,50,0,0
109172,-100,4,1,1,50,0,0
109622,-100,4,1,5,50,0,0
109697,-100,4,1,1,50,0,0
110222,-100,4,1,5,50,0,0
110372,-100,4,1,1,50,0,0
110822,-100,4,1,5,50,0,0
110897,-100,4,1,1,50,0,0
110972,-100,4,1,5,50,0,0
111047,-100,4,1,1,50,0,0
111422,-100,4,1,5,50,0,0
111572,-100,4,1,1,50,0,0
112322,-100,4,1,5,50,0,0
113222,-100,4,1,1,70,0,0
114272,-100,4,1,5,70,0,0
114347,-100,4,1,1,70,0,0
114722,-100,4,1,5,70,0,0
115547,-100,4,1,1,70,0,0
116822,-100,4,1,5,70,0,0
117872,-100,4,1,1,70,0,0
118322,-100,4,1,5,70,0,0
118472,-100,4,1,1,70,0,0
118922,-100,4,1,5,70,0,0
119072,-100,4,1,1,70,0,0
119522,-100,4,1,5,70,0,0
119672,-100,4,1,1,70,0,0
120122,-100,4,1,5,70,0,0
120272,-100,4,1,1,70,0,0
120722,-100,4,1,5,70,0,0
120872,-100,4,1,1,70,0,0
121322,-100,4,1,5,70,0,0
121472,-100,4,1,1,70,0,0
121622,-100,4,1,5,70,0,0
121772,-100,4,1,1,70,0,0
121922,-100,4,1,5,70,0,0
122072,-100,4,1,1,70,0,0
122222,-100,4,1,5,70,0,0
122822,-83.3333333333333,4,1,5,70,0,0
122897,-83.3333333333333,4,1,1,70,0,0
123272,-100,4,1,5,70,0,0
123347,-100,4,1,1,70,0,0
123722,-100,4,1,5,70,0,0
123797,-100,4,1,1,70,0,0
124172,-100,4,1,5,70,0,0
125072,-100,4,1,1,70,0,0
125072,-83.3333333333333,4,1,1,70,0,0
125522,-100,4,1,5,70,0,0
125822,-100,4,1,20,70,0,0
125822,-100,4,1,1,70,0,0
125972,-100,4,1,1,70,0,0
126122,-80,4,1,5,70,0,0
126422,-100,4,1,5,50,0,0
126722,-100,4,1,1,50,0,0
127322,-100,4,1,5,50,0,0
127472,-100,4,1,1,50,0,0
127772,-100,4,1,5,60,0,0
128072,-83.3333333333333,4,1,5,60,0,0
128972,-100,4,1,1,60,0,0
129122,-100,4,1,5,60,0,0
129872,-100,4,1,1,60,0,0
130322,-83.3333333333333,4,1,5,60,0,0
130922,-100,4,1,1,60,0,0
131522,-83.3333333333333,4,1,5,60,0,0
131597,-80,4,1,1,60,0,0
131822,-80,4,1,5,60,0,0
132122,-100,4,1,5,65,0,0
132272,-100,4,1,5,70,0,0
134447,-100,4,1,5,50,0,0
134822,-100,4,1,5,75,0,1
138422,-100,4,1,5,65,0,1
139622,-100,4,1,5,75,0,1
141272,-86.9565217391304,4,1,5,75,0,1
142772,-100,4,1,5,75,0,1
148322,-100,4,1,5,75,0,0
149972,-100,4,1,20,75,0,0
150122,-100,4,1,5,75,0,0
151622,-83.3333333333333,4,1,5,75,0,1
161222,-100,4,1,5,55,0,1
161972,-83.3333333333333,4,1,5,65,0,1
163322,-83.3333333333333,4,1,5,75,0,1
164072,-100,4,1,5,75,0,1
166922,-83.3333333333333,4,1,5,75,0,1
168722,-117.647058823529,4,1,5,75,0,1
169622,-100,4,1,5,65,0,1
169772,-100,4,1,5,55,0,1
170672,-80,4,1,1,75,0,1
171122,-80,4,1,5,75,0,1
171422,-80,4,1,1,75,0,1
171722,-80,4,1,5,75,0,1
172922,-80,4,1,5,65,0,1
173072,-80,4,1,1,55,0,1
173222,-80,4,1,1,30,0,1
173447,-80,4,1,1,75,0,0
184022,-133.333333333333,4,1,1,75,0,0
184472,-100,4,1,1,75,0,0
186422,-133.333333333333,4,1,1,75,0,0
186872,-100,4,1,1,75,0,0
187322,-83.3333333333333,4,1,1,75,0,0
188672,-83.3333333333333,4,1,1,75,0,0
188822,-100,4,1,5,75,0,0
188972,-100,4,1,1,75,0,0
189422,-100,4,1,5,75,0,0
189572,-100,4,1,1,75,0,0
190022,-100,4,1,5,75,0,0
190172,-100,4,1,1,75,0,0
190622,-100,4,1,5,75,0,0
190772,-100,4,1,1,75,0,0
191222,-100,4,1,5,75,0,0
191297,-100,4,1,1,75,0,0
191822,-100,4,1,5,75,0,0
191897,-100,4,1,1,75,0,0
192422,-100,4,1,5,75,0,0
192497,-100,4,1,1,75,0,0
192722,-100,4,1,5,75,0,0
194072,-66.6666666666667,4,1,1,75,0,0
194522,-80,4,1,1,75,0,0
195272,-133.333333333333,4,1,1,75,0,0
196022,-133.333333333333,4,1,5,75,0,0
196697,-133.333333333333,4,1,1,75,0,0
198422,-133.333333333333,4,1,5,75,0,0
198622,-133.333333333333,4,1,5,70,0,0
198822,-133.333333333333,4,1,5,60,0,0
199022,-133.333333333333,4,1,5,55,0,0
199222,-133.333333333333,4,1,5,50,0,0
199422,-133.333333333333,4,1,5,40,0,0
199622,-133.333333333333,4,1,1,75,0,0
200022,-133.333333333333,4,1,1,65,0,0
200422,-133.333333333333,4,1,1,55,0,0
200822,-133.333333333333,4,1,1,50,0,0
201122,-133.333333333333,4,1,1,55,0,0
201322,-133.333333333333,4,1,1,60,0,0
201522,-133.333333333333,4,1,1,65,0,0
201722,-133.333333333333,4,1,1,70,0,0
201822,-133.333333333333,4,1,5,75,0,0
202022,-133.333333333333,4,1,5,75,0,0
203023,-133.333333333333,4,1,1,75,0,0
206447,-100,4,1,1,75,0,0
206747,-200,4,1,1,75,0,0
207572,-133.333333333333,4,1,1,75,0,0
208472,-200,4,1,1,75,0,0
210122,-133.333333333333,4,1,1,75,0,0
211994,-200,4,1,1,75,0,0
212822,-133.333333333333,4,1,1,75,0,0
213197,-200,4,1,1,75,0,0
213794,-200,4,1,1,5,0,0
213872,-200,4,1,1,75,0,0
214022,-250,4,1,1,75,0,0
214922,-333.333333333333,4,1,1,75,0,0
217622,-100,4,1,1,75,0,1
235997,-100,4,1,20,75,0,1
236147,-100,4,1,1,75,0,1
241922,-80,4,1,1,75,0,1
246422,-100,4,1,1,75,0,0

[Colours]
Combo1 : 255,255,255
Combo2 : 147,5,163
Combo3 : 249,235,113
Combo4 : 87,94,221
Combo5 : 247,113,230

[HitObjects]
220,48,13622,1,0,0:0:0:0:
224,60,13697,1,0,0:0:0:0:
228,72,13772,1,0,0:0:0:0:
232,84,13847,1,0,0:0:0:0:
236,96,13922,1,0,0:0:0:0:
116,224,14072,1,0,0:0:0:0:
117,211,14147,1,0,0:0:0:0:
118,198,14222,1,0,0:0:0:0:
119,185,14297,1,0,0:0:0:0:
120,172,14372,1,0,0:0:0:0:
324,300,14522,5,2,0:0:0:0:
324,301,14822,6,0,P|291:327|251:343,1,85,0|0,0:0|0:0,0:0:0:0:
208,232,15122,1,0,0:0:0:0:
288,100,15272,2,0,P|292:144|316:204,2,85
368,48,15722,1,2,0:0:0:0:
208,156,15872,1,2,0:0:0:0:
348,272,16022,2,0,P|408:312|456:324,2,85,2|0|2,0:0|0:0|0:0,0:0:0:0:
252,160,16472,2,0,P|196:104|156:88,2,85
248,276,16922,1,0,0:0:0:0:
152,344,17072,1,2,0:0:0:0:
64,276,17222,6,0,L|92:164,1,85,10|0,0:0|0:0,0:0:0:0:
224,104,17522,2,0,L|206:192,1,85
456,152,17822,2,0,P|404:164|352:184,1,85
104,108,18122,2,0,P|160:112|212:136,1,85
320,196,18422,2,0,P|364:122|312:48,1,170
256,208,18872,1,2,0:0:0:0:
424,312,19022,5,0,0:0:0:0:
424,312,19172,1,2,0:0:0:0:
424,312,19322,1,2,0:0:0:0:
288,320,19472,2,0,P|272:272|280:200,1,85,0|10,0:0|0:0,0:0:0:0:
144,280,19772,2,0,P|155:230|192:176,1,85,0|0,0:0|0:0,0:0:0:0:
392,112,20072,1,0,0:0:0:0:
392,112,20372,6,0,B|400:112|400:112|408:72|376:56|392:24,2,85,0|2|0,0:0|0:0|0:0,0:0:0:0:
400,264,20822,1,2,0:0:0:0:
268,196,20972,1,0,0:0:0:0:
412,188,21122,1,0,0:0:0:0:
276,281,21272,1,0,0:0:0:0:
274,244,21347,1,0,0:0:0:0:
269,206,21422,1,2,0:0:0:0:
312,40,21572,1,2,0:0:0:0:
152,96,21722,2,0,P|188:115|236:123,1,85
408,56,22022,6,0,L|400:168,1,85,14|0,0:0|0:0,0:0:0:0:
297,212,22322,2,4,L|304:128,1,85,6|0,0:0|0:0,0:0:0:0:
119,268,22622,2,0,L|112:352,1,85,6|0,0:0|0:0,0:0:0:0:
217,276,22922,2,0,L|224:192,1,85,4|0,0:0|0:0,0:0:0:0:
256,72,23222,5,2,0:0:0:0:
192,184,23372,1,0,0:0:0:0:
248,296,23522,1,2,0:0:0:0:
360,232,23672,2,0,L|460:272,1,106.25,0|2,0:0|0:0,0:0:0:0:
152,152,23972,2,0,L|52:108,1,106.25,2|0,0:0|0:0,0:0:0:0:
328,88,24422,5,0,0:0:0:0:
268,64,28922,6,0,L|224:-16,1,63.7500024318696
352,52,29222,5,0,0:0:0:0:
392,124,29372,1,0,0:0:0:0:
332,248,29522,1,0,0:0:0:0:
372,320,29672,1,0,0:0:0:0:
388,184,29822,6,0,P|336:156|308:152,1,63.7500024318696
252,176,30122,1,0,0:0:0:0:
272,256,30272,1,0,0:0:0:0:
304,100,30422,2,0,P|272:88|228:92,1,63.7500024318696
104,252,30722,2,0,P|136:272|180:284,1,63.7500024318696
180,288,30947,1,0,0:0:0:0:
200,292,31022,1,0,0:0:0:0:
420,248,31172,6,0,P|360:252|344:260,1,63.7500024318696
296,336,31472,1,0,0:0:0:0:
144,256,31622,1,0,0:0:0:0:
244,228,31772,1,0,0:0:0:0:
416,108,31922,1,0,0:0:0:0:
312,128,32072,1,0,0:0:0:0:
224,60,32222,1,0,0:0:0:0:
224,60,32372,1,0,0:0:0:0:
72,172,32522,2,0,P|128:164|144:152,1,63.7500024318696
160,80,32822,5,0,0:0:0:0:
176,104,32972,1,0,0:0:0:0:
192,128,33122,1,0,0:0:0:0:
208,152,33272,1,0,0:0:0:0:
224,176,33422,1,0,0:0:0:0:
248,208,33572,5,0,0:0:0:0:
277,238,33647,1,0,0:0:0:0:
314,258,33722,1,0,0:0:0:0:
356,264,33797,1,0,0:0:0:0:
397,254,33872,1,0,0:0:0:0:
431,229,33947,1,0,0:0:0:0:
448,192,34022,2,0,P|448:120|360:56,1,170
328,176,34472,6,0,P|288:192|232:184,1,85
164,88,34772,1,0,0:0:0:0:
280,40,34922,2,0,P|280:88|256:136,1,85
144,224,35222,1,0,0:0:0:0:
175,252,35297,1,0,0:0:0:0:
212,273,35372,1,0,0:0:0:0:
252,285,35447,1,0,0:0:0:0:
294,288,35522,1,0,0:0:0:0:
400,224,35672,1,0,0:0:0:0:
352,40,35822,2,0,P|328:128|328:152,1,85
112,128,36122,6,0,P|160:136|216:104,1,85
272,112,36422,1,0,0:0:0:0:
336,224,36572,1,0,0:0:0:0:
256,328,36722,1,0,0:0:0:0:
176,224,36872,2,0,P|289:236|329:292,1,170
88,296,37322,2,0,L|80:200,1,85
144,72,37622,2,0,P|208:120|224:208,1,170
224,232,37997,1,0,0:0:0:0:
232,256,38072,1,0,0:0:0:0:
352,320,38222,5,0,0:0:0:0:
378,302,38297,1,0,0:0:0:0:
400,279,38372,1,0,0:0:0:0:
415,251,38447,1,0,0:0:0:0:
416,224,38522,2,0,P|376:168|376:120,1,85
416,12,38822,2,0,P|456:52|456:108,1,85
264,112,39122,5,0,0:0:0:0:
132,40,39272,1,0,0:0:0:0:
200,224,39422,1,0,0:0:0:0:
264,96,39572,1,0,0:0:0:0:
416,112,39722,1,0,0:0:0:0:
344,200,39872,2,0,P|320:248|256:272,1,85
264,280,40097,1,0,0:0:0:0:
232,288,40172,1,0,0:0:0:0:
104,312,40322,1,0,0:0:0:0:
176,208,40472,1,0,0:0:0:0:
320,352,40622,2,0,P|368:336|416:344,1,85
376,200,40922,2,0,P|384:152|376:80,1,85
228,36,41222,5,0,0:0:0:0:
56,84,41372,1,0,0:0:0:0:
184,144,41522,1,0,0:0:0:0:
80,168,41672,2,0,P|56:240|64:280,1,85
59,273,41897,1,0,0:0:0:0:
64,296,41972,1,0,0:0:0:0:
184,256,42122,1,0,0:0:0:0:
288,328,42272,1,0,0:0:0:0:
288,328,42422,1,0,0:0:0:0:
440,160,42572,6,0,L|424:264,1,85
440,160,42872,1,0,0:0:0:0:
312,152,43022,1,0,0:0:0:0:
291,176,43097,1,0,0:0:0:0:
271,201,43172,1,0,0:0:0:0:
251,226,43247,1,0,0:0:0:0:
231,250,43322,1,0,0:0:0:0:
144,344,43472,1,0,0:0:0:0:
64,116,43622,6,0,P|136:60|232:84,1,170,10|0,0:0|0:0,0:0:0:0:
264,236,44072,1,0,0:0:0:0:
408,176,44222,1,0,0:0:0:0:
392,80,44372,2,0,P|328:56|280:80,1,85
288,64,44597,1,0,0:0:0:0:
264,72,44672,1,0,0:0:0:0:
72,208,44822,2,0,P|136:232|184:232,1,85
432,268,45122,5,0,0:0:0:0:
272,344,45272,1,0,0:0:0:0:
360,188,45422,1,0,0:0:0:0:
380,364,45572,1,0,0:0:0:0:
260,236,45722,1,0,0:0:0:0:
260,236,45797,1,0,0:0:0:0:
260,236,45872,1,0,0:0:0:0:
160,316,46022,6,8,P|99:293|88:192,1,170,2|0,0:0|0:0,0:0:0:0:
144,128,46472,2,0,P|132:87|103:57,1,85
184,208,46772,2,0,P|232:184|256:152,1,85
368,88,47072,1,0,0:0:0:0:
371,115,47147,1,0,0:0:0:0:
385,139,47222,1,0,0:0:0:0:
404,161,47297,1,0,0:0:0:0:
424,176,47372,2,0,P|440:240|360:280,1,170,2|0,0:0|0:0,0:0:0:0:
200,352,47822,1,0,0:0:0:0:
320,180,47972,1,0,0:0:0:0:
204,260,48122,5,0,0:0:0:0:
292,128,48272,1,0,0:0:0:0:
208,64,48422,2,0,P|236:28|296:0,2,85
92,216,48872,1,0,0:0:0:0:
92,216,48947,1,0,0:0:0:0:
92,216,49022,1,0,0:0:0:0:
192,228,49172,2,0,B|200:204|200:204|171:180|160:148,1,85
124,312,49472,2,0,P|172:344|228:344,1,85
360,304,49772,2,0,P|320:184|360:144,1,170
432,84,50222,2,0,L|418:167,1,85
336,256,50522,5,0,0:0:0:0:
460,224,50672,1,0,0:0:0:0:
304,152,50822,1,0,0:0:0:0:
188,96,50972,1,0,0:0:0:0:
304,48,51122,1,0,0:0:0:0:
212,204,51272,1,0,0:0:0:0:
52,124,51422,1,0,0:0:0:0:
208,208,51572,1,0,0:0:0:0:
168,348,51722,5,2,0:0:0:0:
168,348,51797,1,0,0:0:0:0:
168,348,51872,1,2,0:0:0:0:
272,336,52022,2,0,P|320:332|368:316,1,85,0|0,0:0|0:0,0:0:0:0:
340,216,52322,2,0,P|392:196|440:156,1,85,2|2,0:0|0:0,0:0:0:0:
428,76,52622,6,0,P|476:92|516:116,1,85,2|2,0:0|0:0,0:0:0:0:
243,144,52922,2,0,P|202:136|168:112,1,85,0|0,0:0|0:0,0:0:0:0:
80,56,53222,2,0,P|39:129|72:216,1,170,4|0,0:0|0:0,0:0:0:0:
120,336,53672,1,2,0:0:0:0:
400,208,53972,1,2,0:0:0:0:
400,208,54122,1,0,0:0:0:0:
208,48,54422,1,0,0:0:0:0:
208,48,54572,1,2,0:0:0:0:
104,128,54722,6,0,L|128:232,1,85,0|2,0:0|0:0,0:0:0:0:
176,336,55022,2,0,P|216:312|280:312,1,85,2|0,0:0|0:0,0:0:0:0:
240,168,55322,2,0,P|288:176|352:216,1,85
472,240,55622,1,0,0:0:0:0:
472,240,55697,1,0,0:0:0:0:
472,240,55772,1,0,0:0:0:0:
372,320,55922,2,0,B|354:340|324:348|294:350,1,85
364,168,56222,2,0,P|412:144|456:144,1,85
272,108,56522,5,0,0:0:0:0:
256,80,56597,1,0,0:0:0:0:
241,53,56672,1,0,0:0:0:0:
364,168,56822,1,0,0:0:0:0:
260,240,56972,1,0,0:0:0:0:
136,188,57122,1,0,0:3:0:0:
136,216,57197,1,0,0:3:0:0:
140,244,57272,1,0,0:3:0:0:
148,272,57347,1,0,0:0:0:0:
160,296,57422,1,0,0:0:0:0:
332,208,57572,1,0,0:0:0:0:
256,40,57722,6,0,L|256:144,1,85,0|0,0:0|0:0,0:0:0:0:
256,344,58022,2,0,L|256:240,1,85,6|0,0:0|0:0,0:0:0:0:
168,136,58322,2,0,L|80:48,1,85
404,75,58622,2,0,L|344:136,1,85
344,248,58922,2,0,L|404:308,1,85
107,308,59222,2,0,L|168:248,1,85
336,96,59522,1,0,0:0:0:0:
216,120,59672,1,0,0:0:0:0:
240,240,59822,1,0,0:0:0:0:
360,216,59972,1,0,0:0:0:0:
256,56,60122,1,0,0:0:0:0:
104,152,60272,1,0,0:0:0:0:
208,312,60422,1,0,0:0:0:0:
408,152,60572,5,0,0:0:0:0:
200,40,60722,1,0,0:0:0:0:
88,240,60872,1,0,0:0:0:0:
296,352,61022,1,0,0:0:0:0:
392,72,61172,1,0,0:0:0:0:
120,72,61322,2,0,P|96:128|104:180,1,101.999996887207
248,240,61622,2,0,P|272:200|264:144,1,101.999996887207
160,240,61922,1,0,0:0:0:0:
56,192,62072,1,0,0:0:0:0:
40,52,62222,6,0,P|116:80|196:64,1,152.999995330811
224,100,62522,2,0,P|280:100|320:120,1,101.999996887207
424,292,62822,2,0,P|368:296|308:260,1,101.999996887207
184,256,63122,5,0,0:0:0:0:
80,336,63272,1,0,0:0:0:0:
112,168,63422,1,0,0:0:0:0:
280,304,63572,1,0,0:0:0:0:
312,104,63722,1,0,0:0:0:0:
120,48,63872,1,2,0:0:0:0:
120,48,63947,1,0,0:0:0:0:
120,48,64022,6,0,L|176:116,1,76.4999976654053,2|0,0:0|0:0,0:0:0:0:
176,216,64322,2,0,L|232:284,1,63.7500024318696,0|0,0:0|0:0,0:0:0:0:
372,228,64622,2,0,L|420:284,1,50.9999984436036,0|0,0:0|0:0,0:0:0:0:
432,128,64922,6,0,B|376:104|376:104|328:56|328:56|248:72,1,170,0|8,0:0|0:0,0:0:0:0:
160,72,65372,2,0,L|72:32,2,85
272,136,65822,2,0,P|280:208|312:248,1,85
172,297,66122,2,0,P|175:255|160:216,1,85,2|2,0:0|0:0,0:0:0:0:
88,112,66422,6,0,B|120:80|120:80|176:104|264:48,1,170
344,136,66872,1,0,0:0:0:0:
296,256,67022,1,0,0:0:0:0:
408,320,67172,1,0,0:0:0:0:
448,200,67322,6,0,P|424:112|432:80,1,85,2|2,0:0|0:0,0:0:0:0:
304,72,67622,1,2,0:0:0:0:
280,80,67697,1,0,0:0:0:0:
256,88,67772,2,0,P|193:102|144:96,1,85,0|2,0:0|0:0,0:0:0:0:
52,216,68072,1,2,0:0:0:0:
76,228,68147,1,0,0:0:0:0:
100,240,68222,2,0,P|164:264|212:264,1,85
300,152,68522,1,2,0:0:0:0:
328,280,68672,2,0,L|348:360,2,42.5,0|0|2,0:0|0:0|0:0,0:0:0:0:
416,184,68972,1,2,0:0:0:0:
200,124,69122,1,0,0:0:0:0:
332,68,69272,1,2,0:0:0:0:
312,216,69422,5,2,0:0:0:0:
256,152,69572,1,0,0:0:0:0:
192,208,69722,1,0,0:0:0:0:
248,272,69872,1,0,0:0:0:0:
420,228,70022,2,0,L|468:318,1,85,10|0,0:0|0:0,0:0:0:0:
364,148,70322,2,0,P|284:92|140:148,1,255,0|2,0:0|0:0,0:0:0:0:
40,288,70922,2,0,L|104:180,1,85,2|2,0:0|0:0,0:0:0:0:
136,128,71222,38,0,P|255:68|380:144,2,280.500008560181,2|2|2,0:0|0:0|0:0,0:0:0:0:
132,208,72272,5,0,0:0:0:0:
156,232,72422,1,2,0:0:0:0:
180,256,72572,1,0,0:0:0:0:
204,280,72722,1,2,0:0:0:0:
228,304,72872,1,0,0:0:0:0:
280,312,73022,37,2,0:0:0:0:
344,304,73172,1,0,0:0:0:0:
408,280,73322,1,2,0:0:0:0:
456,216,73472,1,2,0:0:0:0:
480,136,73622,1,2,0:0:0:0:
448,48,73772,1,2,0:0:0:0:
352,16,73922,1,0,0:0:0:0:
204,100,74072,6,8,L|292:156,1,101.999996887207,8|8,0:0|0:0,0:0:0:0:
308,304,74372,2,8,L|212:248,2,101.999996887207,8|8|8,0:0|0:0|0:0,0:0:0:0:
360,196,74822,1,0,0:0:0:0:
333,193,74897,1,0,0:0:0:0:
306,190,74972,1,0,0:0:0:0:
404,100,75122,2,0,P|468:104|524:132,1,101.999996887207
328,304,75422,2,0,P|268:324|208:324,1,101.999996887207,0|0,0:0|0:0,0:0:0:0:
344,200,75722,1,0,0:0:0:0:
412,256,75872,1,2,0:0:0:0:
376,228,75947,1,0,0:0:0:0:
344,200,76022,2,0,L|328:96,1,95.6250036478044,2|2,0:0|0:0,0:0:0:0:
136,192,76322,5,0,0:0:0:0:
156,196,76397,1,0,0:0:0:0:
180,200,76472,1,0,0:0:0:0:
204,204,76547,1,0,0:0:0:0:
232,212,76622,2,0,L|244:272,1,42.5
224,104,76847,1,0,0:0:0:0:
200,120,76922,2,0,B|108:132,1,85
72,300,77222,2,0,L|184:284,1,85
348,276,77522,2,0,P|328:328|284:364,1,85
216,224,77822,2,0,L|168:204,2,42.5,0|0|2,0:0|0:0|0:0,0:0:0:0:
448,240,78122,2,0,L|488:260,2,42.5
360,76,78422,6,0,L|304:152,1,85,2|2,0:0|0:0,0:0:0:0:
208,88,78722,1,0,0:0:0:0:
384,184,78872,1,2,0:0:0:0:
368,200,78947,1,0,0:0:0:0:
351,216,79023,2,0,P|276:249|196:204,1,170,0|2,0:0|0:0,0:0:0:0:
136,120,79472,1,0,0:0:0:0:
136,120,79622,6,0,P|120:80|64:48,1,85,0|2,0:0|0:0,0:0:0:0:
56,176,79922,2,0,B|40:246|47:255|47:255|30:261|30:261|35:294|19:373,2,170,2|0|2,0:0|0:0|0:0,0:0:0:0:
152,280,80672,1,2,0:0:0:0:
192,120,80822,1,0,0:0:0:0:
220,107,80897,1,0,0:0:0:0:
249,94,80972,1,0,0:0:0:0:
279,89,81047,1,0,0:0:0:0:
310,93,81122,1,0,0:0:0:0:
341,99,81197,1,0,0:0:0:0:
371,110,81272,1,0,0:0:0:0:
398,126,81347,1,0,0:0:0:0:
420,148,81422,5,0,0:0:0:0:
440,176,81497,1,0,0:0:0:0:
464,200,81572,1,0,0:0:0:0:
488,224,81647,1,0,0:0:0:0:
460,252,81722,1,0,0:0:0:0:
432,280,81797,1,0,0:0:0:0:
400,304,81872,1,0,0:0:0:0:
368,324,81947,1,0,0:0:0:0:
332,340,82022,1,0,0:0:0:0:
256,244,82172,1,0,0:0:0:0:
296,244,82247,6,0,L|384:192,1,53.125,0|0,0:0|0:0,0:0:0:0:
132,240,82472,2,0,L|40:296,2,106.25,2|0|2,0:0|0:0|0:0,0:0:0:0:
164,92,82922,2,0,L|112:0,2,106.25,2|0|2,0:0|0:0|0:0,0:0:0:0:
364,136,83372,2,0,L|488:136,1,106.25,2|0,0:0|0:0,0:0:0:0:
208,328,83672,2,0,L|80:328,1,106.25,2|2,0:0|0:0,0:0:0:0:
76,328,83897,1,0,0:0:0:0:
52,328,83972,1,2,0:0:0:0:
132,200,84122,1,0,0:0:0:0:
260,128,84272,1,0,0:0:0:0:
392,200,84422,1,8,0:0:0:0:
212,192,92822,5,8,0:0:0:0:
300,160,92972,1,8,0:0:0:0:
344,244,93122,1,8,0:0:0:0:
232,56,93272,5,0,0:0:0:0:
364,100,93422,1,0,0:0:0:0:
404,232,93572,1,0,0:0:0:0:
328,348,93722,1,0,0:0:0:0:
176,96,94022,6,0,P|144:80|96:64,1,63.7500024318696
144,176,94322,1,0,0:0:0:0:
80,232,94472,2,0,P|64:288|64:320,1,63.7500024318696
264,304,94772,2,0,P|320:320|344:312,1,63.7500024318696
428,196,95072,1,0,0:0:0:0:
272,232,95222,1,0,0:0:0:0:
416,292,95372,1,0,0:0:0:0:
336,156,95522,1,0,0:0:0:0:
348,152,95822,6,0,L|372:80,1,63.7500024318696
160,188,96122,1,0,0:0:0:0:
160,188,96272,1,0,0:0:0:0:
156,296,96422,2,0,P|196:312|244:312,1,63.7500024318696
296,308,96722,2,0,P|332:304|372:284,1,63.7500024318696
428,256,97022,2,0,P|460:232|476:200,1,63.7500024318696
400,148,97322,1,0,0:0:0:0:
320,96,97472,1,0,0:0:0:0:
240,164,97622,1,0,0:0:0:0:
236,172,97922,1,0,0:0:0:0:
232,184,98222,6,0,L|256:272,1,63.7500024318696
304,136,98522,2,0,P|292:92|200:56,1,127.500004863739
160,152,98972,1,0,0:0:0:0:
124,256,99122,1,0,0:0:0:0:
200,336,99272,1,0,0:0:0:0:
240,256,99422,5,0,0:0:0:0:
368,264,99572,1,0,0:0:0:0:
464,184,99722,1,0,0:0:0:0:
472,56,99872,1,0,0:0:0:0:
316,116,100022,2,0,P|316:80|332:48,1,63.7500024318696
464,184,100322,2,0,P|500:212|512:252,1,63.7500024318696
352,288,100622,6,0,P|312:312|280:312,1,63.7500024318696
216,316,100922,2,0,P|168:308|136:292,1,63.7500024318696
84,264,101222,2,0,P|60:240|44:200,1,63.7500024318696
88,80,101522,5,2,0:0:0:0:
136,64,101672,1,0,0:0:0:0:
184,48,101822,1,2,0:0:0:0:
284,112,101972,1,0,0:0:0:0:
392,56,102122,1,0,0:0:0:0:
284,196,102272,1,2,0:0:0:0:
184,48,102422,5,2,0:0:0:0:
110,140,102572,1,2,0:0:0:0:
114,164,102722,1,0,0:0:0:0:
120,190,102872,1,0,0:0:0:0:
129,222,103022,1,0,0:0:0:0:
141,252,103172,5,0,0:0:0:0:
156,277,103247,1,0,0:0:0:0:
178,300,103322,1,0,0:0:0:0:
204,317,103397,1,0,0:0:0:0:
234,329,103472,1,0,0:0:0:0:
265,335,103547,1,0,0:0:0:0:
296,336,103622,6,0,P|360:304|408:312,1,95.6250036478044,6|0,0:0|0:0,0:0:0:0:
416,312,103922,2,0,P|448:240|440:144,1,170,2|8,0:0|0:0,0:0:0:0:
328,88,104372,2,0,P|284:68|272:24,1,85,2|8,0:0|0:0,0:0:0:0:
408,52,104672,2,0,P|416:116|384:156,1,85,2|8,0:0|0:0,0:0:0:0:
328,240,104972,1,0,0:0:0:0:
228,124,105122,5,0,0:0:0:0:
324,140,105272,1,0,0:0:0:0:
176,276,105422,1,2,0:0:0:0:
84,308,105572,1,2,0:0:0:0:
104,152,105722,2,8,L|88:48,1,85,8|8,0:0|0:0,0:0:0:0:
216,48,106022,6,0,P|256:24|304:24,2,85
176,168,106472,2,0,P|144:224|96:248,1,85,2|8,0:0|0:0,0:0:0:0:
48,256,106772,1,8,0:0:0:0:
72,168,106922,1,2,0:0:0:0:
128,232,107072,1,0,0:0:0:0:
168,336,107222,2,0,P|130:354|88:364,2,85,10|10|0,0:0|0:0|0:0,0:0:0:0:
240,232,107672,1,0,0:0:0:0:
264,216,107747,1,0,0:0:0:0:
288,208,107822,1,0,0:0:0:0:
312,208,107897,1,0,0:0:0:0:
336,216,107972,1,0,0:0:0:0:
328,344,108122,6,0,L|296:248,1,85,8|0,0:0|0:0,0:0:0:0:
336,104,108422,2,0,L|304:8,2,85,2|2|2,0:0|0:0|0:0,0:0:0:0:
240,232,108872,1,0,0:0:0:0:
184,88,109022,1,8,0:0:0:0:
60,148,109172,1,0,0:0:0:0:
216,160,109322,1,0,0:0:0:0:
152,20,109472,1,0,0:0:0:0:
128,176,109622,1,0,0:0:0:0:
115,153,109697,1,0,0:0:0:0:
103,131,109772,1,2,0:0:0:0:
104,320,109922,2,0,P|144:288|192:264,1,85,2|2,0:0|0:0,0:0:0:0:
256,240,110222,2,0,P|320:232|376:244,1,85,8|0,0:0|0:0,0:0:0:0:
428,248,110522,6,2,L|476:192,1,42.5,2|0,0:0|0:0,0:0:0:0:
380,172,110672,2,0,L|384:120,1,42.5,0|0,0:0|0:0,0:0:0:0:
296,132,110822,2,8,L|288:64,1,42.5,8|0,0:0|0:0,0:0:0:0:
200,128,110972,2,0,L|176:76,1,42.5,0|0,0:0|0:0,0:0:0:0:
108,168,111122,2,0,P|72:212|48:264,1,85,2|0,0:0|0:0,0:0:0:0:
180,244,111422,2,0,P|220:284|276:300,2,85,8|0|10,0:0|0:0|0:0,0:0:0:0:
88,312,111872,2,0,P|112:368|152:400,2,85,0|0|0,0:0|0:0|0:0,0:0:0:0:
59,134,112322,5,2,0:0:0:0:
181,244,112472,1,2,0:0:0:0:
153,67,112622,1,2,0:0:0:0:
165,79,112697,1,0,0:0:0:0:
175,90,112772,1,2,0:0:0:0:
298,88,112922,2,0,L|338:40,2,42.5,2|0|0,0:0|0:0|0:0,0:0:0:0:
240,160,113222,6,0,P|296:176|352:144,1,85,0|0,0:0|0:0,0:0:0:0:
416,60,113522,2,0,P|440:148|416:236,2,170
240,144,114272,1,0,0:0:0:0:
240,144,114347,1,0,0:0:0:0:
240,144,114422,2,0,P|320:168|352:160,1,85
171,44,114722,1,0,0:3:0:0:
52,204,114872,1,0,0:3:0:0:
167,249,115022,1,0,0:3:0:0:
243,147,115172,1,0,0:3:0:0:
48,80,115322,1,0,0:3:0:0:
88,220,115472,6,0,P|72:260|56:340,2,85
144,136,115922,2,0,P|208:80|304:64,1,170
424,112,116372,2,0,L|385:35,1,85
320,144,116672,2,0,L|376:256,1,85
296,336,116972,5,0,0:0:0:0:
408,280,117122,1,0,0:0:0:0:
312,200,117272,1,0,0:0:0:0:
432,144,117422,1,0,0:0:0:0:
384,336,117572,1,0,0:0:0:0:
248,192,117722,1,0,0:0:0:0:
160,144,117872,1,0,0:0:0:0:
160,144,117947,1,0,0:0:0:0:
160,143,118021,2,0,P|148:183|155:225,1,85
240,96,118322,6,0,P|224:56|176:40,1,85,8|0,0:0|0:0,0:0:0:0:
88,120,118622,2,0,P|92:168|76:240,2,85,0|0|8,0:0|0:0|0:0,0:0:0:0:
196,248,119072,2,0,P|180:316|156:364,2,85,0|0|0,0:0|0:0|0:0,0:0:0:0:
248,32,119522,2,0,P|260:92|264:132,1,85
284,232,119822,1,2,0:0:0:0:
388,160,119972,1,0,0:0:0:0:
352,332,120122,1,8,0:0:0:0:
436,236,120272,1,2,0:0:0:0:
453,240,120422,5,0,0:0:0:0:
412,60,120572,1,2,0:0:0:0:
420,44,120722,1,10,0:0:0:0:
232,36,120872,1,2,0:0:0:0:
224,20,121022,1,0,0:0:0:0:
108,176,121172,1,2,0:0:0:0:
92,172,121322,1,8,0:0:0:0:
76,168,121472,1,2,0:0:0:0:
60,164,121622,1,0,0:0:0:0:
196,236,121772,5,0,0:0:0:0:
220,232,121922,1,8,0:0:0:0:
244,228,122072,1,0,0:0:0:0:
268,224,122222,1,8,0:0:0:0:
292,220,122372,1,8,0:0:0:0:
364,148,122522,2,0,L|392:88,3,42.5
388,80,122822,2,0,P|332:36|192:64,1,203.999993774414,4|0,0:0|0:0,0:0:0:0:
92,208,123272,2,0,P|168:244|268:192,1,170,2|0,0:0|0:0,0:0:0:0:
404,132,123722,2,0,P|440:232|400:296,1,170,2|0,0:0|0:0,0:0:0:0:
272,296,124172,1,2,0:0:0:0:
280,320,124247,1,0,0:0:0:0:
288,344,124322,1,2,0:0:0:0:
220,212,124472,6,0,P|257:191|299:186,1,85
104,260,124772,2,0,P|116:204|144:164,1,85,2|0,0:0|0:0,0:0:0:0:
180,16,125072,1,0,0:0:0:0:
192,44,125147,1,0,0:0:0:0:
212,64,125222,2,0,B|256:108|300:104|300:104|320:104|328:192,1,170,0|2,0:0|0:0,0:0:0:0:
168,340,125672,2,0,B|132:320|132:320|84:328|48:316|48:316|8:264,1,170,0|2,0:0|0:0,0:0:0:0:
176,152,126122,2,0,P|135:184|111:231,1,106.25,2|0,0:0|0:0,0:0:0:0:
248,272,126422,1,2,0:0:0:0:
248,272,126572,1,2,0:0:0:0:
401,225,126722,5,0,0:0:0:0:
396,252,126797,1,0,0:0:0:0:
391,280,126872,1,2,0:0:0:0:
448,92,127022,2,0,L|368:132,1,85,2|0,0:0|0:0,0:0:0:0:
256,184,127322,1,0,0:0:0:0:
276,56,127472,2,0,P|336:80|360:124,1,85,0|4,0:0|0:0,0:0:0:0:
224,112,127772,5,0,0:0:0:0:
112,52,127922,1,0,0:0:0:0:
46,185,128072,2,0,B|78:145|78:145|82:117|82:117|102:89|102:89|114:45,1,152.999995330811
112,52,128372,2,0,B|140:112|204:128|204:128|264:124|256:72|384:104,1,305.999990661621,0|0,0:0|0:0,0:0:0:0:
448,156,128972,5,0,0:0:0:0:
408,40,129122,1,0,0:0:0:0:
352,220,129272,1,0,0:0:0:0:
200,324,129422,5,0,0:0:0:0:
264,216,129572,1,0,0:0:0:0:
200,324,129722,1,0,0:0:0:0:
148,140,129872,1,0,0:0:0:0:
124,264,130022,1,0,0:0:0:0:
248,100,130172,1,0,0:0:0:0:
344,240,130322,2,0,P|360:284|408:328,1,101.999996887207
436,132,130622,2,0,P|416:84|340:36,1,101.999996887207,0|0,0:0|0:0,0:0:0:0:
188,72,130922,2,0,B|140:92|140:92|112:160|72:148|32:160|16:192|16:248,1,255
192,272,131522,6,0,P|176:324|144:376,1,101.999996887207,8|0,0:0|0:0,0:0:0:0:
60,176,131822,2,0,P|76:120|112:68,1,106.25,10|0,0:0|0:0,0:0:0:0:
244,44,132122,1,0,0:0:0:0:
356,148,132272,1,8,0:0:0:0:
256,264,132422,1,8,0:0:0:0:
144,160,132572,1,8,0:0:0:0:
244,44,132722,1,8,0:0:0:0:
396,44,132872,5,8,0:0:0:0:
396,336,133022,1,8,0:0:0:0:
116,336,133172,1,8,0:0:0:0:
116,44,133322,1,0,0:0:0:0:
256,192,133472,12,2,134522,0:0:0:0:
244,84,134822,6,0,P|288:92|352:124,1,85,12|0,0:0|0:0,0:0:0:0:
136,136,135122,2,0,P|112:84|112:24,2,85,2|0|10,0:0|0:0|0:0,0:0:0:0:
232,276,135572,1,10,0:0:0:0:
132,320,135722,1,0,0:0:0:0:
332,176,135872,1,0,0:0:0:0:
340,200,135947,1,0,0:0:0:0:
344,224,136022,2,0,P|340:288|296:324,1,85,8|0,0:0|0:0,0:0:0:0:
260,248,136322,1,2,0:0:0:0:
444,280,136472,1,2,0:0:0:0:
352,188,136622,5,0,0:0:0:0:
336,168,136697,1,0,0:0:0:0:
324,148,136772,2,0,P|300:108|288:56,1,85,10|0,0:0|0:0,0:0:0:0:
184,32,137072,1,10,0:0:0:0:
76,104,137222,1,8,0:0:0:0:
224,112,137372,1,8,0:0:0:0:
140,216,137522,1,2,0:0:0:0:
296,180,137672,1,0,0:0:0:0:
204,344,137822,1,10,0:0:0:0:
400,328,137972,1,10,0:0:0:0:
440,248,138122,6,0,B|428:192|424:192|432:152,1,85,2|8,0:0|0:0,0:0:0:0:
340,76,138422,1,8,0:0:0:0:
342,101,138497,1,0,0:0:0:0:
342,127,138572,1,8,0:0:0:0:
339,153,138647,1,0,0:0:0:0:
334,178,138722,1,0,0:0:0:0:
325,203,138797,1,0,0:0:0:0:
314,226,138872,1,0,0:0:0:0:
208,343,139022,2,0,P|249:332|291:327,1,85,8|8,0:0|0:0,0:0:0:0:
152,200,139322,2,0,P|111:189|69:184,1,85,2|0,0:0|0:0,0:0:0:0:
293,157,139622,1,8,0:0:0:0:
328,152,139697,1,0,0:0:0:0:
368,140,139772,1,0,0:0:0:0:
483,117,139922,6,0,P|467:49|443:5,2,85,8|8|0,0:0|0:0|0:0,0:0:0:0:
344,232,140372,2,0,P|379:255|419:270,2,85,10|8|10,0:0|0:0|0:0,0:0:0:0:
184,232,140822,2,8,B|187:186|224:160|224:160|263:146|308:160,1,170,0|0,0:0|0:0,0:0:0:0:
116,312,141272,2,0,B|68:284|52:232|52:232|60:180|144:144|64:116|100:40,1,293.2500055933,10|8,0:0|0:0,0:0:0:0:
112,48,141797,1,0,0:0:0:0:
136,48,141872,1,0,0:0:0:0:
160,48,141947,1,0,0:0:0:0:
184,44,142022,1,0,0:0:0:0:
208,40,142097,1,0,0:0:0:0:
232,44,142172,1,0,0:0:0:0:
252,56,142247,1,0,0:0:0:0:
276,64,142322,2,0,B|304:96|304:96|348:120|400:96,1,97.7500018644333,10|0,0:0|0:0,0:0:0:0:
464,228,142622,6,0,B|480:180|480:180|504:152|504:152|496:96|448:48,1,195.500003728867,8|0,0:0|0:0,0:0:0:0:
278,192,143072,1,0,0:0:0:0:
316,200,143147,1,0,0:0:0:0:
360,200,143222,1,0,0:0:0:0:
232,104,143372,1,0,0:0:0:0:
59,164,143522,2,0,P|53:184|49:205,3,42.5,8|0|8|0,0:0|0:0|0:0|0:0,0:0:0:0:
104,244,143822,2,8,P|103:265|105:286,3,42.5,8|0|8|0,0:0|0:0|0:0|0:0,0:0:0:0:
176,312,144122,2,0,P|179:332|186:352,3,42.5,2|0|2|0,0:0|0:0|0:0|0:0,0:0:0:0:
276,332,144422,2,0,P|348:288|436:296,1,170
280,200,144872,2,8,P|232:168|204:132,2,85,10|0|2,0:0|0:0|0:0,0:0:0:0:
424,276,145322,2,0,P|480:228|488:180,1,85,2|2,0:0|0:0,0:0:0:0:
396,102,145622,5,8,0:0:0:0:
404,128,145697,1,0,0:0:0:0:
411,153,145772,1,0,0:0:0:0:
236,72,145922,1,10,0:0:0:0:
238,45,145997,1,0,0:0:0:0:
240,18,146072,1,0,0:0:0:0:
116,200,146222,2,0,B|87:234|35:258,1,85,2|0,0:0|0:0,0:0:0:0:
136,116,146522,6,0,P|196:140|228:168,1,85
324,280,146822,1,0,0:0:0:0:
352,272,146897,1,0,0:0:0:0:
378,274,146972,2,0,P|372:332|348:364,2,85
300,88,147422,2,0,B|296:109|236:124|236:124|176:84|176:140,1,127.5,2|0,0:0|0:0,0:0:0:0:
180,140,147722,2,0,P|140:176|124:224,1,85,2|10,0:0|0:0,0:0:0:0:
56,352,148022,2,0,P|32:308|40:256,1,85,8|0,0:0|0:0,0:0:0:0:
108,276,148322,5,10,0:0:0:0:
155,311,148622,1,0,0:0:0:0:
201,344,148922,1,10,0:0:0:0:
356,268,149222,2,0,B|388:208|436:184|436:184|488:104|412:52,2,255,2|2|2,0:0|0:0|0:0,0:0:0:0:
424,332,150272,6,0,P|400:256|376:228,1,85,2|8,0:0|0:0,0:0:0:0:
296,320,150572,1,10,0:0:0:0:
396,252,150722,1,2,0:0:0:0:
360,140,150872,1,0,0:0:0:0:
200,260,151022,2,0,P|280:248|304:224,1,85,10|8,0:0|0:0,0:0:0:0:
360,140,151322,1,0,0:0:0:0:
296,24,151472,1,2,0:0:0:0:
176,96,151622,5,8,0:0:0:0:
196,80,151697,2,0,L|202:29,1,50.9999984436036,10|2,0:0|0:0,0:0:0:0:
80,148,151922,1,10,0:0:0:0:
80,148,152072,1,2,0:0:0:0:
224,288,152222,1,8,0:0:0:0:
248,300,152297,2,0,L|240:396,1,50.9999984436036,0|0,0:0|0:0,0:0:0:0:
352,228,152522,1,2,0:0:0:0:
252,136,152672,1,2,0:0:0:0:
284,120,152747,1,0,0:0:0:0:
320,116,152822,1,0,0:0:0:0:
356,124,152897,1,0,0:0:0:0:
400,140,152972,2,0,P|428:140|460:128,2,50.9999984436036,8|0|8,0:0|0:0|0:0,0:0:0:0:
460,96,153197,2,0,P|500:68|508:56,2,50.9999984436036
484,112,153422,5,0,0:0:0:0:
469,147,153497,1,0,0:0:0:0:
463,185,153572,1,0,0:0:0:0:
465,223,153647,1,0,0:0:0:0:
475,260,153722,1,0,0:0:0:0:
352,228,153872,1,8,0:0:0:0:
352,228,154022,2,0,P|304:272|184:220,1,203.999993774414,0|0,0:0|0:0,0:0:0:0:
320,148,154472,1,2,0:0:0:0:
384,256,154622,2,0,P|367:319|214:342,1,203.999993774414,8|0,0:0|0:0,0:0:0:0:
132,284,155072,1,2,0:0:0:0:
84,152,155222,6,0,P|140:88|248:112,1,203.999993774414
228,216,155672,1,0,0:0:0:0:
100,260,155822,2,0,P|88:164|176:88,1,203.999993774414,2|8,0:0|0:0,0:0:0:0:
180,108,156197,1,0,0:0:0:0:
204,128,156272,1,0,0:0:0:0:
228,148,156347,1,2,0:0:0:0:
252,164,156422,2,0,P|328:176|360:72,1,203.999993774414
372,276,156872,2,0,P|416:196|384:88,1,203.999993774414
240,232,157322,5,10,0:0:0:0:
216,352,157472,1,10,0:0:0:0:
124,132,157622,1,6,0:0:0:0:
152,272,157772,1,8,0:0:0:0:
284,44,157922,1,2,0:0:0:0:
272,172,158072,1,0,0:0:0:0:
112,56,158222,6,0,B|128:80|136:124|136:124|188:116|224:128|220:188|184:204,1,203.999993774414,2|0,0:0|0:0,0:0:0:0:
120,316,158672,1,2,0:0:0:0:
276,168,158822,2,0,P|248:208|196:256,1,101.999996887207,10|0,0:0|0:0,0:0:0:0:
120,316,159122,1,0,0:0:0:0:
268,260,159272,2,0,P|287:298|320:356,1,101.999996887207
328,100,159572,1,10,0:0:0:0:
328,100,159722,1,10,0:0:0:0:
96,164,159872,2,0,P|160:184|220:184,1,101.999996887207,0|2,0:0|0:0,0:0:0:0:
328,100,160172,1,0,0:0:0:0:
328,100,160247,1,0,0:0:0:0:
328,100,160322,1,0,0:0:0:0:
457,49,160472,2,0,B|401:49|377:21|329:29,1,101.999996887207,10|2,0:0|0:0,0:0:0:0:
331,27,160697,1,0,0:0:0:0:
309,39,160772,1,0,0:0:0:0:
284,36,160847,1,0,0:0:0:0:
264,44,160922,6,0,P|192:68|140:140,1,152.999995330811
107,107,161222,2,8,P|119:219|166:265,1,170,8|8,0:0|0:0,0:0:0:0:
199,245,161597,1,0,0:0:0:0:
245,248,161672,1,8,0:0:0:0:
280,282,161747,1,0,0:0:0:0:
274,330,161822,2,0,L|256:292,1,42.5,8|0,0:0|0:0,0:0:0:0:
368,320,161972,2,0,L|392:368,1,50.9999984436036
420,240,162122,2,0,B|444:220|480:208|480:208|492:172|492:152|432:128|432:128|400:68|476:0,1,305.999990661621,8|0,0:0|0:0,0:0:0:0:
240,112,162722,5,8,0:0:0:0:
240,112,162872,1,0,0:0:0:0:
240,112,163022,1,10,0:0:0:0:
240,112,163172,1,10,0:0:0:0:
136,228,163322,2,0,P|97:222|52:240,1,50.9999984436036,8|0,0:0|0:0,0:0:0:0:
156,248,163472,1,0,0:0:0:0:
172,268,163547,1,0,0:0:0:0:
192,292,163622,2,0,B|296:308|320:256|320:256|296:224|288:168,1,203.999993774414,8|0,0:0|0:0,0:0:0:0:
356,51,164072,2,0,P|378:87|392:128,2,85,0|8|0,0:0|0:0|0:0,0:0:0:0:
404,220,164522,1,0,0:0:0:0:
372,232,164597,1,0,0:0:0:0:
340,240,164672,1,0,0:0:0:0:
212,172,164822,1,10,0:0:0:0:
232,80,164972,6,0,P|270:96|300:126,1,85,10|0,0:0|0:0,0:0:0:0:
120,96,165272,2,0,P|128:60|160:16,2,85
140,116,165647,1,0,0:0:0:0:
162,141,165722,1,0,0:0:0:0:
176,172,165797,1,0,0:0:0:0:
176,204,165872,1,0,0:0:0:0:
156,232,165947,1,0,0:0:0:0:
124,244,166022,1,0,0:0:0:0:
16,180,166172,2,0,P|56:166|98:167,1,85
210,336,166473,2,0,P|167:334|128:320,1,85
288,240,166772,1,0,0:0:0:0:
464,240,166922,2,0,P|496:160|492:128,1,101.999996887207,8|2,0:0|0:0,0:0:0:0:
345,69,167222,2,0,P|353:133|380:184,1,101.999996887207,2|0,0:0|0:0,0:0:0:0:
248,264,167522,2,0,P|232:184|216:160,1,101.999996887207
64,96,167822,2,0,P|76:156|104:204,1,101.999996887207,8|0,0:0|0:0,0:0:0:0:
160,348,168122,6,0,P|224:328|284:328,1,101.999996887207,8|0,0:0|0:0,0:0:0:0:
464,300,168422,2,0,P|396:276|344:272,1,101.999996887207,2|0,0:0|0:0,0:0:0:0:
132,240,168722,2,0,P|104:172|148:96,2,144.500002756119,10|0|10,0:0|0:0|0:0,0:0:0:0:
268,132,169472,1,2,0:0:0:0:
292,124,169547,1,0,0:0:0:0:
316,120,169622,1,8,0:0:0:0:
340,120,169697,1,0,0:0:0:0:
364,128,169772,1,0,0:0:0:0:
384,140,169847,1,0,0:0:0:0:
400,160,169922,5,8,0:0:0:0:
412,184,169997,1,0,0:0:0:0:
424,208,170072,1,0,0:0:0:0:
440,228,170147,1,0,0:0:0:0:
460,244,170222,2,8,P|456:320|448:364,2,85,8|0|8,0:0|0:0|0:0,0:0:0:0:
412,68,170672,1,2,0:0:0:0:
340,140,170822,2,0,P|276:152|188:156,1,106.25
340,140,171122,1,10,0:0:0:0:
340,140,171272,1,10,0:0:0:0:
88,272,171422,2,0,P|192:264|236:240,1,106.25
200,80,171722,1,10,0:0:0:0:
260,292,171872,1,10,0:0:0:0:
260,292,171947,1,0,0:0:0:0:
260,292,172022,6,0,P|244:180|248:136,1,106.25
364,64,172322,2,0,P|376:124|376:180,1,106.25,10|0,0:0|0:0,0:0:0:0:
112,336,172622,1,10,0:0:0:0:
320,224,172772,1,2,0:0:0:0:
176,188,172922,1,8,0:0:0:0:
408,336,173072,1,0,0:0:0:0:
424,60,173222,2,0,L|452:28,4,35.4166666666667,0|0|0|0|0,0:0|0:0|0:0|0:0|0:0,0:0:0:0:
180,56,183722,5,8,0:0:0:0:
180,56,184022,6,0,P|240:40|296:80,1,127.500004863739,0|0,0:0|0:0,0:0:0:0:
292,280,184472,1,0,0:0:0:0:
292,280,184622,2,0,P|324:248|344:204,1,85
452,152,184922,2,0,P|480:216|480:260,2,85
364,24,185372,2,0,P|428:32|460:72,2,85
288,164,185822,1,0,0:0:0:0:
400,288,185972,1,0,0:0:0:0:
500,176,186122,1,0,0:0:0:0:
400,288,186272,1,0,0:0:0:0:
252,236,186422,6,0,B|264:200|304:184|304:184|332:124,1,127.500004863739,0|0,0:0|0:0,0:0:0:0:
100,216,186872,2,0,B|144:260|128:280|120:308|144:320|164:320|200:320|216:328|232:348,1,170
436,212,187322,2,0,B|376:228|352:188|352:188|340:164|280:192|316:128|216:152,1,203.999993774414,0|0,0:0|0:0,0:0:0:0:
136,64,187772,1,0,0:0:0:0:
328,108,187922,5,0,0:0:0:0:
256,260,188072,1,0,0:0:0:0:
96,192,188222,1,0,0:0:0:0:
416,192,188372,1,0,0:0:0:0:
256,332,188522,1,4,0:0:0:0:
168,216,188672,5,0,0:0:0:0:
168,216,188747,1,0,0:0:0:0:
168,216,188822,1,0,0:0:0:0:
264,104,188972,1,0,0:0:0:0:
304,184,189122,1,0,0:0:0:0:
220,24,189272,1,0,0:0:0:0:
166,125,189422,2,0,P|129:146|88:152,1,85
252,88,189722,5,0,0:0:0:0:
348,80,189872,1,0,0:0:0:0:
424,132,190022,1,0,0:0:0:0:
428,224,190172,1,0,0:0:0:0:
296,280,190322,2,0,P|332:324|376:344,2,85
312,196,190772,2,0,L|372:180,1,42.5
272,120,190922,2,0,L|231:131,1,42.5
272,32,191071,2,0,L|316:16,1,42.5
176,48,191222,6,0,L|100:32,1,42.5
152,96,191372,2,0,L|80:104,1,42.5
136,144,191522,2,0,L|64:160,1,42.5
128,188,191672,2,0,L|124:248,2,42.5
136,268,191897,2,0,L|160:316,2,42.5
184,328,192122,1,0,0:0:0:0:
223,342,192197,1,0,0:0:0:0:
265,337,192272,1,0,0:0:0:0:
298,310,192347,1,0,0:0:0:0:
331,284,192422,5,0,0:0:0:0:
372,277,192497,1,0,0:0:0:0:
414,286,192572,1,0,0:0:0:0:
452,304,192647,1,0,0:0:0:0:
480,324,192722,2,0,P|448:260|448:216,1,85
424,80,193022,2,0,P|387:100|340:112,1,85
224,152,193322,1,0,0:0:0:0:
116,84,193472,1,0,0:0:0:0:
84,208,193622,1,0,0:0:0:0:
212,228,193772,1,0,0:0:0:0:
176,104,193922,5,0,0:0:0:0:
128,328,194072,1,0,0:0:0:0:
352,368,194222,1,0,0:0:0:0:
408,144,194372,1,0,0:0:0:0:
264,72,194522,1,0,0:0:0:0:
256,108,194597,1,0,0:0:0:0:
248,144,194672,1,0,0:0:0:0:
108,200,194822,5,0,0:0:0:0:
248,144,194972,1,0,0:0:0:0:
384,200,195122,1,0,0:0:0:0:
248,264,195272,1,0,0:0:0:0:
152,88,195422,2,0,L|180:160,1,63.7500024318696
336,4,195722,2,0,L|320:80,1,63.7500024318696
512,132,196022,2,0,L|440:176,1,63.7500024318696
140,328,196322,2,0,L|208:284,1,63.7500024318696
418,227,196622,6,0,B|456:240|428:288|392:280|336:296,1,127.500004863739
316,68,197222,1,4,0:0:0:0:
160,48,198422,2,0,L|140:86,1,42.5000016212464
103,126,198622,2,0,L|110:169,1,42.5000016212464
108,224,198822,2,0,L|127:262,1,42.5000016212464
148,312,199022,2,0,L|184:334,1,42.5000016212464
232,360,199222,2,0,L|273:350,1,42.5000016212464
328,352,199422,2,0,L|360:324,1,42.5000016212464
468,244,199622,5,8,0:0:0:0:
84,64,200022,1,0,0:0:0:0:
274,159,200422,1,0,0:0:0:0:
224,61,200822,6,0,L|230:4,2,42.5000016212464,0|0|0,0:0|0:0|0:0,0:0:0:0:
219,101,201122,1,0,0:0:0:0:
204,132,201222,1,0,0:0:0:0:
184,160,201322,1,0,0:0:0:0:
156,180,201422,1,0,0:0:0:0:
124,184,201522,1,0,0:0:0:0:
92,176,201622,1,0,0:0:0:0:
60,160,201722,1,0,0:0:0:0:
144,36,201822,6,0,L|252:80,1,85.0000032424928,0|4,0:0|0:0,0:0:0:0:
392,180,202822,1,0,0:0:0:0:
392,180,203022,1,0,0:0:0:0:
312,260,203222,2,0,B|300:284|268:300|268:300|228:292|228:292|200:316|160:312,1,170.000006484986
156,280,203722,1,0,0:0:0:0:
136,252,203822,1,0,0:0:0:0:
104,232,203922,1,0,0:0:0:0:
108,200,204022,1,0,0:0:0:0:
124,168,204122,1,0,0:0:0:0:
152,152,204222,1,0,0:0:0:0:
184,144,204322,1,0,0:0:0:0:
216,148,204422,5,4,0:0:0:0:
436,180,204822,1,0,0:0:0:0:
96,208,205222,1,0,0:0:0:0:
336,52,205622,1,0,0:0:0:0:
296,40,205772,5,0,0:0:0:0:
252,56,205922,1,0,0:0:0:0:
208,76,206072,1,0,0:0:0:0:
168,104,206222,2,0,L|112:84,2,31.8750012159348
232,188,206447,2,0,L|288:212,2,42.5
76,216,206822,6,0,P|118:217|157:233,1,85,12|0,0:0|0:0,0:0:0:0:
312,200,207272,1,0,0:0:0:0:
372,320,207422,1,0,0:0:0:0:
220,316,207572,2,0,L|236:404,1,63.7500024318696
60,336,207872,1,0,0:0:0:0:
60,336,208022,2,0,L|56:392,2,31.8750012159348
16,148,208322,5,0,0:0:0:0:
16,148,208472,2,0,L|20:204,1,42.5
112,56,208772,1,0,0:0:0:0:
244,104,208922,2,0,L|236:160,1,42.5
328,296,209222,2,0,P|352:220|348:200,1,85,8|0,0:0|0:0,0:0:0:0:
296,32,209672,1,0,0:0:0:0:
160,176,209822,1,0,0:0:0:0:
160,192,210122,6,0,L|176:268,1,63.75,0|0,0:0|0:0,0:0:0:0:
408,320,210422,2,0,L|424:240,1,63.7500024318696
500,160,210722,2,0,P|464:144|420:136,1,63.7500024318696
412,132,210947,1,0,0:0:0:0:
384,132,211022,1,0,0:0:0:0:
356,136,211097,1,0,0:0:0:0:
328,144,211172,1,0,0:0:0:0:
304,160,211247,1,0,0:0:0:0:
280,176,211322,1,0,0:0:0:0:
176,248,211472,1,0,0:0:0:0:
152,232,211622,6,0,B|136:168|136:168|156:96,1,127.500004863739,4|0,0:0|0:0,0:0:0:0:
172,84,211997,2,0,P|236:40|304:64,1,148.75
299,59,212672,1,0,0:0:0:0:
380,184,212822,2,0,B|352:260|352:260|380:316,1,127.5
380,344,213197,2,0,P|320:356|232:320,1,148.75
240,328,213797,1,0,0:0:0:0:
240,328,213872,1,0,0:0:0:0:
104,56,214022,6,0,P|152:16|196:12,1,102
432,272,214922,2,8,B|412:328|376:336|344:304|336:292|336:292|300:372|208:368|157:305|174:239|208:204,1,407.999987548829,0|8,0:0|0:0,0:0:0:0:
172,60,217622,6,0,B|196:96|232:92|260:144|260:144|324:148,1,170,4|0,0:0|0:0,0:0:0:0:
128,280,218072,2,0,P|104:312|32:336,1,85,2|0,0:0|0:0,0:0:0:0:
260,344,218372,1,2,0:0:0:0:
260,344,218447,1,0,0:0:0:0:
260,344,218522,1,0,0:0:0:0:
424,256,218672,1,2,0:0:0:0:
308,320,218822,1,2,0:0:0:0:
420,168,218972,2,0,L|380:92,2,85
212,160,219422,5,0,0:0:0:0:
212,160,219497,1,0,0:0:0:0:
212,160,219572,2,0,L|244:240,1,85,2|2,0:0|0:0,0:0:0:0:
80,160,219872,2,0,P|38:166|1:188,2,85,0|2|0,0:0|0:0|0:0,0:0:0:0:
272,96,220322,1,0,0:0:0:0:
208,232,220472,1,0,0:0:0:0:
80,160,220622,1,2,0:0:0:0:
144,36,220772,1,2,0:0:0:0:
312,228,220922,5,2,0:0:0:0:
364,160,221072,1,2,0:0:0:0:
296,108,221222,1,0,0:0:0:0:
244,176,221372,1,2,0:0:0:0:
172,280,221522,5,2,0:0:0:0:
144,256,221597,1,0,0:0:0:0:
124,224,221672,1,2,0:0:0:0:
116,188,221747,1,0,0:0:0:0:
112,152,221822,1,0,0:0:0:0:
192,32,221972,1,0,0:0:0:0:
280,96,222122,1,0,0:0:0:0:
352,20,222272,1,0,0:0:0:0:
436,136,222422,6,0,P|376:168|344:192,1,85,10|0,0:0|0:0,0:0:0:0:
312,344,222722,2,0,P|388:308|412:284,2,85
184,260,223172,1,2,0:0:0:0:
184,260,223247,1,0,0:0:0:0:
184,260,223322,1,2,0:0:0:0:
112,52,223472,1,2,0:0:0:0:
208,132,223622,1,2,0:0:0:0:
32,220,223772,1,0,0:0:0:0:
32,220,223847,1,0,0:0:0:0:
32,220,223922,2,0,P|40:268|64:320,1,85
200,320,224222,5,0,0:0:0:0:
144,236,224372,1,0,0:0:0:0:
312,304,224522,1,2,0:0:0:0:
296,192,224672,1,2,0:0:0:0:
460,284,224822,1,8,0:0:0:0:
492,136,224972,1,0,0:0:0:0:
492,136,225122,1,0,0:0:0:0:
312,300,225272,1,0,0:0:0:0:
216,224,225422,6,0,P|192:152|196:104,1,85
312,36,225722,1,0,0:0:0:0:
315,67,225797,1,0,0:0:0:0:
309,98,225872,1,0,0:0:0:0:
295,127,225947,1,0,0:0:0:0:
273,150,226022,1,0,0:0:0:0:
48,256,226172,6,0,P|60:324|68:352,1,85,0|2,0:0|0:0,0:0:0:0:
188,92,226472,2,0,P|152:84|92:88,1,85,0|0,0:0|0:0,0:0:0:0:
196,252,226772,2,0,P|264:260|300:252,1,85
360,152,227072,1,0,0:0:0:0:
164,148,227222,1,10,0:0:0:0:
148,168,227297,1,0,0:0:0:0:
132,184,227372,2,0,P|108:120|112:80,2,85
244,324,227822,5,0,0:0:0:0:
264,300,227897,1,0,0:0:0:0:
280,276,227972,1,0,0:0:0:0:
292,248,228047,1,0,0:0:0:0:
296,220,228122,1,2,0:0:0:0:
204,72,228272,2,0,P|192:128|172:164,1,85
308,72,228572,2,0,P|320:128|340:164,1,85,2|0,0:0|0:0,0:0:0:0:
172,132,228872,2,0,P|148:192|108:220,1,85
340,132,229172,2,0,P|364:192|404:220,1,85
128,184,229472,2,0,P|96:228|48:256,1,85,0|2,0:0|0:0,0:0:0:0:
384,184,229772,2,0,P|416:228|464:256,1,85
352,332,230072,6,0,P|324:292|308:228,1,85
160,332,230372,2,0,P|188:292|204:228,1,85
332,76,230672,2,0,P|376:48|412:36,1,85,0|2,0:0|0:0,0:0:0:0:
180,76,230972,2,0,P|136:48|100:36,1,85,2|2,0:0|0:0,0:0:0:0:
76,128,231272,37,2,0:0:0:0:
52,220,231422,1,0,0:0:0:0:
92,304,231572,1,0,0:0:0:0:
180,340,231722,1,0,0:0:0:0:
256,288,231872,5,0,0:0:0:0:
332,340,232022,53,8,0:0:0:0:
420,304,232172,1,0,0:0:0:0:
460,220,232322,1,0,0:0:0:0:
436,128,232472,1,0,0:0:0:0:
360,72,232622,54,0,P|264:84|188:56,2,170,0|0|2,0:0|0:0|0:0,0:0:0:0:
352,180,233297,2,0,L|400:216,1,42.5
240,200,233447,2,0,L|208:160,1,42.5
212,312,233597,2,0,L|236:376,1,42.5
104,340,233747,1,0,0:0:0:0:
104,340,233822,2,0,B|80:312|92:288|92:288|60:260|84:208,1,127.5
96,176,234122,2,0,P|144:176|192:160,1,85
272,32,234422,6,0,P|204:20|148:28,2,85,10|0|0,0:0|0:0|0:0,0:0:0:0:
320,196,234872,1,0,0:0:0:0:
416,88,235022,1,0,0:0:0:0:
320,196,235172,2,0,P|278:204|237:194,2,85
464,220,235622,1,2,0:0:0:0:
464,262,235697,1,0,0:0:0:0:
449,301,235772,1,2,0:0:0:0:
422,334,235847,1,0,0:0:0:0:
388,352,235922,2,0,B|360:328|360:328|312:352|312:352|224:328,1,170,2|0,0:0|0:0,0:0:0:0:
100,212,236372,1,0,0:0:0:0:
100,212,236447,1,0,0:0:0:0:
100,212,236522,2,0,B|112:248|112:248|88:272|72:296,1,85
264,208,236822,1,0,0:0:0:0:
96,120,236972,6,0,P|48:124|32:120,1,42.5
152,24,237122,2,0,P|128:32|88:28,1,42.5
176,28,237272,2,0,P|204:88|208:140,1,85
344,136,237572,2,0,P|368:200|368:224,2,85
224,128,238022,1,2,0:0:0:0:
224,128,238097,1,0,0:0:0:0:
224,128,238172,1,2,0:0:0:0:
352,28,238322,5,2,0:0:0:0:
352,28,238397,1,0,0:0:0:0:
352,28,238472,1,0,0:0:0:0:
424,168,238622,1,0,0:0:0:0:
332,280,238772,1,0,0:0:0:0:
456,352,238922,1,0,0:0:0:0:
388,224,239072,1,0,0:0:0:0:
272,312,239222,2,0,P|200:328|112:260,1,170,10|0,0:0|0:0,0:0:0:0:
108,256,239597,1,0,0:0:0:0:
88,236,239672,1,0,0:0:0:0:
64,220,239747,1,0,0:0:0:0:
32,212,239822,1,0,0:0:0:0:
52,188,239897,5,0,0:0:0:0:
64,160,239972,1,0,0:0:0:0:
72,132,240047,1,0,0:0:0:0:
73,102,240122,1,0,0:0:0:0:
232,16,240272,1,0,0:3:0:0:
216,43,240347,1,0,0:3:0:0:
200,68,240422,2,0,B|228:116|228:116|196:168,1,85
152,252,240722,2,0,B|144:284|144:284|176:336,2,85
284,164,241172,2,0,L|272:124,2,42.5
248,328,241472,2,0,L|268:388,1,42.5
148,136,241622,5,2,0:0:0:0:
240,220,241772,6,0,L|209:190,1,42.5
241,221,241922,54,0,L|318:295,1,106.25
88,256,242222,2,0,L|166:327,1,106.25
312,116,242522,2,0,L|233:44,1,106.25,2|2,0:0|0:0,0:0:0:0:
128,192,242822,1,2,0:0:0:0:
384,192,242972,2,0,L|264:192,2,106.25
128,192,243422,5,0,0:0:0:0:
384,192,243572,1,0,0:0:0:0:
80,192,243722,1,2,0:0:0:0:
432,192,243872,1,2,0:0:0:0:
216,316,244022,1,0,0:0:0:0:
256,192,244172,1,0,0:0:0:0:
296,76,244322,1,2,0:0:0:0:
256,192,244472,12,2,245522,0:0:0:0:
376,192,245672,21,2,0:0:0:0:
128,192,245822,1,2,0:0:0:0:
144,192,245897,1,0,0:0:0:0:
160,192,245972,1,2,0:0:0:0:
176,192,246047,1,0,0:0:0:0:
192,192,246122,1,2,0:0:0:0:
208,192,246197,1,0,0:0:0:0:
224,192,246272,1,0,0:0:0:0:
240,192,246347,1,0,0:0:0:0:
256,192,246422,1,10,0:0:0:0:
