osu file format v11

[General]
AudioFilename: DDR .. Break Down! n___n!!.mp3
AudioLeadIn: 500
PreviewTime: 48975
Countdown: 0
SampleSet: Normal
StackLeniency: 0.7
Mode: 0
LetterboxInBreaks: 0

[Editor]
Bookmarks: 43473
DistanceSpacing: 1.4
BeatDivisor: 4
GridSize: 4

[Metadata]
Title:BREAK DOWN!
TitleUnicode:BREAK DOWN!
Artist:BeForU
ArtistUnicode:BeForU
Creator:mebins
Version:Mebinsane!
Source:Dance Dance Revolution 7thMIX
Tags:DDR,Teru21,mebins
BeatmapID:117330
BeatmapSetID:36306

[Difficulty]
HPDrainRate:5
CircleSize:4
OverallDifficulty:7
ApproachRate:9
SliderMultiplier:1.79999990463257
SliderTickRate:1

[Events]
//Background and Video events
0,0,"BREAK DOWN!-bg.png"
//Break Periods
//Storyboard Layer 0 (Background)
//Storyboard Layer 1 (Fail)
//Storyboard Layer 2 (Pass)
//Storyboard Layer 3 (Foreground)
//Storyboard Sound Samples
//Background Colour Transformations
3,100,163,162,255

[TimingPoints]
3975,315.623356128354,4,1,0,80,1,0
49448,-100,4,1,0,80,0,1
69624,-100,4,1,0,80,0,0
79942,-100,4,2,0,80,0,0
84683,-100,4,1,0,80,0,0

[Colours]
Combo1 : 200,0,0
Combo2 : 0,200,0
Combo3 : 206,0,175
Combo4 : 46,102,148
Combo5 : 255,255,0

[HitObjects]
128,96,3974,2,0,B|60:136|64:224|156:248,1,179.999990463257
320,96,4606,2,0,B|388:136|384:224|292:248,1,179.999990463257
64,236,5237,2,0,P|44:288|80:340,1,89.9999952316285
180,324,5553,2,0,B|208:284|176:216,1,89.9999952316285
312,244,5868,2,0,P|288:284|312:348,1,89.9999952316285
420,324,6184,2,0,B|440:284|408:240,1,89.9999952316285
428,116,6499,6,4,B|372:88|332:164,1,89.9999952316285
260,48,6815,1,0,0:0:0
216,200,6973,2,4,B|272:228|312:152,1,89.9999952316285
260,48,7289,1,0,0:0:0
440,136,7446,6,0,B|432:80|368:100,2,89.9999952316285
360,232,7920,1,0,0:0:0
316,112,8078,1,0,0:0:0
272,232,8235,2,0,B|212:256|184:176,1,89.9999952316285
180,76,8551,2,0,B|228:56|260:124,1,89.9999952316285
88,256,9024,6,4,B|64:212|128:176,1,89.9999952316285
216,248,9340,2,4,B|232:308|168:312,2,89.9999952316285
144,160,9814,2,0,B|184:120|232:144,1,89.9999952316285
288,252,10129,1,0,0:0:0
188,328,10287,5,0,0:0:0
80,260,10445,1,0,0:0:0
80,132,10603,1,0,0:0:0
192,72,10760,1,0,0:0:0
464,184,10918,2,0,B|408:176|384:224,1,89.9999976158142
440,240,11234,1,0,0:0:0
440,240,11392,2,0,B|400:152,1,89.9999952316285
300,160,11707,6,0,P|244:160|224:188,1,89.9999952316285
340,236,12023,1,0,0:0:0
228,336,12181,2,0,P|277:336|281:284,1,89.9999952316285
180,236,12496,1,0,0:0:0
64,316,12654,2,0,P|120:318|120:274,1,89.9999952316285
16,236,12970,5,0,0:0:0
40,112,13128,2,0,B|32:168|88:176,1,89.9999952316285
160,112,13443,1,0,0:0:0
160,232,13601,1,2,0:0:0
256,112,13759,1,0,0:0:0
256,232,13917,1,2,0:0:0
376,196,14074,5,0,0:0:0
364,72,14232,2,0,B|356:124|412:136,1,89.9999952316285
472,104,14548,2,0,B|480:52|424:40,1,89.9999952316285
480,192,14864,1,0,0:0:0
432,308,15021,1,0,0:0:0
308,292,15179,1,0,0:0:0
332,196,15337,5,0,0:0:0
208,184,15495,1,0,0:0:0
156,68,15653,1,0,0:0:0
80,220,15810,2,2,B|56:168|96:132,2,89.9999952316285
168,312,16284,1,0,0:0:0
256,56,16599,5,0,0:0:0
180,156,16757,1,0,0:0:0
260,252,16915,1,0,0:0:0
256,56,17231,5,0,0:0:0
328,156,17388,1,0,0:0:0
260,252,17546,1,0,0:0:0
416,96,17862,6,0,B|388:144|448:184,2,89.9999952316285
328,156,18335,1,0,0:0:0
240,68,18493,1,0,0:0:0
28,276,18809,1,4,0:0:0
28,276,19124,5,0,0:0:0
132,344,19282,1,2,0:0:0
252,304,19440,1,0,0:0:0
376,316,19598,1,0,0:0:0
444,212,19756,1,2,0:0:0
376,104,19913,1,0,0:0:0
252,92,20071,2,0,P|212:68|180:104,1,89.9999952316285
252,196,20387,5,0,0:0:0
168,288,20545,1,0,0:0:0
80,96,20703,6,0,P|120:176|128:176,2,89.9999952316285
136,208,21176,1,0,0:0:0
136,208,21334,1,0,0:0:0
28,168,21649,5,0,0:0:0
28,40,21807,1,0,0:0:0
152,24,21965,1,0,0:0:0
276,40,22123,1,0,0:0:0
276,168,22281,1,0,0:0:0
264,296,22438,1,0,0:0:0
152,332,22596,1,0,0:0:0
28,296,22754,1,0,0:0:0
104,156,22912,5,0,0:0:0
104,156,23070,1,0,0:0:0
104,156,23228,1,0,0:0:0
104,156,23385,2,2,B|156:204|196:188|264:188|228:72|328:152|380:168,1,269.999985694885,0|4,0:0|0:0,0:0:0
48,304,24174,5,0,0:0:0
164,352,24332,1,0,0:0:0
280,304,24490,1,0,0:0:0
412,304,24648,1,0,0:0:0
464,188,24806,1,0,0:0:0
144,72,24963,6,0,B|112:96|104:136|168:176,1,89.9999952316285,0|0,0:0|0:0,0:0:0
256,72,25279,1,0,0:0:0
384,72,25437,6,2,B|416:96|424:136|360:176,4,89.9999952316285
328,240,26226,1,0,0:0:0
368,332,26384,1,0,0:0:0
448,240,26542,1,0,0:0:0
328,240,26699,5,0,0:0:0
440,264,26857,1,2,0:0:0
320,264,27015,1,0,0:0:0
432,296,27173,1,2,0:0:0
312,288,27331,1,0,0:0:0
424,312,27488,1,2,0:0:0
304,304,27646,1,0,0:0:0
416,336,27804,1,2,0:0:0
296,320,27962,1,0,0:0:0
408,352,28120,1,2,0:0:0
168,56,28277,5,2,0:0:0
160,336,28435,1,0,0:0:0
8,184,28593,1,0,0:0:0
288,192,28751,1,2,0:0:0
72,264,28909,1,0,0:0:0
240,120,29067,1,6,0:0:0
488,80,29382,5,0,0:0:0
488,80,29540,1,0,0:0:0
488,80,29698,1,0,0:0:0
448,200,29856,1,0,0:0:0
488,320,30013,1,0,0:0:0
344,296,30171,2,0,B|296:272|296:272|256:232,2,89.9999952316284
284,184,30645,1,0,0:0:0
348,60,30802,1,0,0:0:0
384,184,30960,2,0,B|376:304|528:304,2,179.999990463257,4|0|4,0:0|0:0|0:0,0:0:0
328,48,31749,5,0,0:0:0
328,168,31907,1,2,0:0:0
208,168,32065,1,2,0:0:0
208,48,32223,1,0,0:0:0
80,48,32381,1,0,0:0:0
80,168,32538,1,2,0:0:0
190,240,32696,6,0,B|280:240,4,89.9999952316284
112,340,33485,1,0,0:0:0
24,248,33643,1,0,0:0:0
148,216,33801,1,0,0:0:0
148,216,33959,1,0,0:0:0
128,88,34117,6,0,P|132:36|184:56,1,89.9999952316285,0|4,0:0|0:0,0:0:0
276,80,34432,2,0,P|280:128|212:128,1,89.9999952316285
272,272,34748,2,0,P|244:288|248:344,1,89.9999952316285
332,356,35063,2,0,P|364:304|324:272,1,89.9999952316285
376,160,35379,2,0,P|336:168|352:232,1,89.9999952316285
456,220,35695,2,0,P|456:264|408:280,1,89.9999952316285
436,156,36010,1,0,0:0:0
224,232,36168,5,0,0:0:0
144,144,36326,1,0,0:0:0
64,232,36484,1,0,0:0:0
144,328,36642,1,0,0:0:0
424,280,36799,1,0,0:0:0
424,280,37115,6,0,B|416:232|416:232|424:200|424:200|392:176,5,89.9999952316284
208,52,38220,5,2,0:0:0
208,52,38377,1,2,0:0:0
268,296,38693,1,0,0:0:0
268,296,38851,1,4,0:0:0
120,136,39324,5,0,0:0:0
192,232,39482,1,0,0:0:0
312,232,39640,1,2,0:0:0
384,136,39798,1,2,0:0:0
168,72,40113,6,0,B|239:45|303:53|343:77,1,179.999990463257,0|4,0:0|0:0,0:0:0
468,100,40587,1,0,0:0:0
492,224,40745,1,0,0:0:0
416,320,40902,1,0,0:0:0
308,376,41060,1,0,0:0:0
196,320,41218,1,0,0:0:0
92,268,41376,5,0,0:0:0
208,220,41534,1,0,0:0:0
328,256,41691,1,0,0:0:0
416,152,41849,1,0,0:0:0
288,148,42007,1,0,0:0:0
216,60,42165,1,2,0:0:0
96,152,42323,6,0,B|104:96|144:80,1,89.9999952316285
416,152,42638,2,0,B|408:96|368:80,1,89.9999952316285
96,232,42954,2,0,B|104:288|144:304,1,89.9999952316285
256,192,43270,1,0,0:0:0
416,152,43427,2,0,B|408:96|368:80,1,89.9999952316285
96,232,43743,2,0,B|104:288|144:304,2,89.9999952316285
256,192,44216,1,0,0:0:0
416,232,44374,6,0,B|408:288|368:304,3,89.9999952316285
152,108,45006,5,0,0:0:0
160,96,45084,1,0,0:0:0
168,88,45163,1,0,0:0:0
176,80,45242,1,0,0:0:0
184,76,45321,1,0,0:0:0
192,68,45400,1,0,0:0:0
204,64,45479,1,0,0:0:0
212,60,45558,1,0,0:0:0
360,88,45637,6,0,B|368:144|312:152,1,89.9999952316285,4|0,0:0|0:0,0:0:0
212,176,45952,1,0,0:0:0
80,216,46110,2,0,B|48:260|96:312,1,89.9999952316285
212,304,46426,1,0,0:0:0
212,176,46584,1,0,0:0:0
336,192,46741,5,0,0:0:0
328,68,46899,1,0,0:0:0
452,48,47057,1,2,0:0:0
468,172,47215,1,6,0:0:0
468,360,47373,2,0,P|484:304|424:288,1,89.9999952316285
360,356,47688,2,0,P|376:300|316:284,1,89.9999952316285
256,356,48004,2,0,P|272:300|212:284,1,89.9999952316285
312,188,48320,5,0,0:0:0
196,236,48477,1,2,0:0:0
148,120,48635,1,2,0:0:0
264,68,48793,1,4,0:0:0
264,68,49109,1,0,0:0:0
60,216,49424,5,4,0:0:0
196,236,49582,2,0,P|204:332|252:324,1,89.9999952316285
280,236,49898,2,0,P|272:332|224:324,1,89.9999952316285
336,192,50213,2,0,B|290:171|310:115,1,89.9999952316285
436,112,50529,2,0,B|456:168|404:192,1,89.9999952316285
372,68,50845,1,0,0:0:0
492,32,51002,5,0,0:0:0
500,156,51160,1,0,0:0:0
424,260,51318,2,0,B|400:308|340:280,3,89.9999952316285
240,220,51949,2,0,P|204:129|148:233,1,269.999985694885
260,328,52580,5,0,0:0:0
136,348,52738,1,0,0:0:0
12,328,52896,1,0,0:0:0
12,200,53054,1,0,0:0:0
12,72,53212,1,0,0:0:0
136,32,53370,1,0,0:0:0
256,72,53527,1,0,0:0:0
260,200,53685,1,0,0:0:0
396,192,53843,1,0,0:0:0
396,192,54001,1,0,0:0:0
396,192,54159,2,0,B|432:156|480:180,1,89.9999952316285
320,264,54474,2,0,P|252:308|172:248,2,179.999990463257
100,156,55263,6,0,B|88:84|128:32|128:32,1,89.9999952316285
412,156,55579,2,0,B|424:84|392:40|392:40,1,89.9999952316285
288,120,55895,2,0,P|264:72|220:68,1,89.9999952316285
220,192,56210,2,0,P|196:144|152:140,1,89.9999952316285
156,264,56526,2,0,P|132:216|88:212,1,89.9999952316285
160,312,56999,2,0,P|280:372|372:280,1,269.999985694885
472,368,57630,5,8,0:0:0
492,244,57788,1,0,0:0:0
460,120,57946,1,8,0:0:0
340,76,58104,1,0,0:0:0
340,76,58262,1,0,0:0:0
224,124,58420,2,0,P|192:164|212:188,1,89.9999952316285
328,236,58735,2,0,P|364:280|332:312,1,89.9999952316285
228,276,59051,2,0,P|216:344|260:360,1,89.9999952316285
96,152,59366,2,0,B|100:96|144:80,1,89.9999952316285
260,36,59682,5,0,0:0:0
384,48,59840,1,0,0:0:0
432,164,59998,1,0,0:0:0
392,284,60155,1,0,0:0:0
132,64,60313,5,0,0:0:0
132,64,60471,1,0,0:0:0
68,172,60629,1,0,0:0:0
196,172,60787,1,0,0:0:0
276,268,60945,1,0,0:0:0
408,296,61102,2,0,B|448:244|384:216,1,89.9999952316285
384,96,61418,1,0,0:0:0
304,184,61576,2,0,P|260:144|272:100,1,89.9999952316285
140,92,61891,2,0,P|112:60|100:112,1,89.9999952316285
36,316,62207,6,0,B|68:296|132:312|128:328,1,89.9999952316285
440,248,62523,2,0,B|368:224|332:260,1,89.9999952316285
40,140,62838,2,0,B|100:108|160:164,1,89.9999952316285
448,72,63154,2,0,B|400:48|328:80,1,89.9999952316285
128,48,63470,6,0,B|84:88|24:48,1,89.9999952316285
368,176,63785,2,0,B|407:204|449:166,1,89.9999952316285
128,288,64101,2,0,B|84:328|24:288,1,89.9999952316285
256,64,64416,2,0,P|256:116|256:120|252:116|252:116|260:116|260:116|252:128|252:128|260:128|260:128|252:140|252:140|260:140|260:140|252:152|252:152|260:152|260:152|252:164|252:164|260:164|260:164|252:176|252:176|260:176|260:176|252:188|252:188|260:188|260:188|252:200|252:200|260:200|260:200|252:212|252:212|260:212|260:212|252:224|252:224|260:224|260:224|252:236|252:236|260:236|260:236|252:248|252:248|260:248|260:248|256:256|252:264|252:264|260:264|260:264|256:288,1,359.999980926514
96,104,65205,2,0,B|48:140|104:192,2,89.9999952316285,0|0|0,0:0|0:0|0:0,0:0:0
168,104,65679,2,0,B|208:144|160:192,2,89.9999952316285
164,232,66152,5,0,0:0:0
260,316,66310,1,0,0:0:0
140,352,66468,1,0,0:0:0
164,232,66626,1,0,0:0:0
140,352,66784,1,0,0:0:0
260,320,66941,1,0,0:0:0
408,344,67099,1,0,0:0:0
488,264,67257,5,0,0:0:0
468,140,67415,1,0,0:0:0
364,68,67573,1,0,0:0:0
252,44,67730,2,0,P|256:124|144:24,1,359.999980926514
168,256,68519,6,4,B|208:288|256:252,3,89.9999952316285
256,188,69624,1,0,0:0:0
208,92,70729,6,0,P|188:140|204:176,1,89.9999952316285
304,92,71044,2,0,P|324:140|308:176,1,89.9999952316285
296,236,71360,2,0,P|263:249|215:229,1,89.9999952316285
464,260,71676,1,0,0:0:0
464,260,71834,2,2,B|464:148,2,89.9999952316284
92,272,73175,6,0,P|72:320|88:356,1,89.9999952316285
184,240,73490,2,0,P|204:288|188:324,1,89.9999952316285
432,328,73885,2,0,B|432:232,2,89.9999952316284
432,72,74359,6,4,B|432:168,1,89.9999952316284,0|0,0:0|0:0,0:0:0
356,328,74674,2,0,B|356:232,1,89.9999952316284
352,72,74990,6,0,B|352:184,1,89.9999952316285
272,332,75305,2,0,B|272:244,1,89.9999952316284
268,72,75621,6,0,B|268:168,1,89.9999952316284
192,332,75937,2,0,B|192:236,1,89.9999952316284
188,80,76252,6,0,B|188:176,1,89.9999952316284
120,332,76568,2,0,P|120:224,1,89.9999952316285
116,80,76883,6,0,P|116:184,1,89.9999952316285
240,192,77199,1,0,0:0:0
488,344,77515,2,0,P|376:344,1,89.9999952316285
480,192,77830,2,0,P|368:192,1,89.9999952316285
32,48,78146,2,2,B|136:48,1,89.9999952316284
124,176,78462,5,0,0:0:0
192,112,78619,1,0,0:0:0
284,112,78777,1,0,0:0:0
340,176,78935,1,0,0:0:0
340,256,79093,1,0,0:0:0
284,312,79251,1,0,0:0:0
136,320,79487,2,0,P|88:312|104:96,1,314.9999833107
256,48,80355,5,0,0:0:0
48,192,80671,1,0,0:0:0
256,336,80987,1,0,0:0:0
468,192,81302,1,0,0:0:0
256,196,81618,5,0,0:0:0
256,196,82249,5,4,0:0:0
256,196,82880,1,0,0:0:0
256,196,83511,1,0,0:0:0
256,196,84143,5,0,0:0:0
144,84,84458,2,0,B|228:12|320:96,1,179.999990463257
80,280,84932,5,0,0:0:0
204,272,85090,2,0,B|252:228|216:192,1,89.9999952316285
144,92,85405,1,0,0:0:0
256,48,85563,2,0,B|304:8|344:56,1,89.9999952316285
380,168,85879,1,0,0:0:0
352,248,86036,2,0,B|312:312|256:208,1,89.9999976158143
168,188,86352,1,0,0:0:0
40,168,86510,2,0,B|44:224|120:224,1,89.9999952316285
140,100,86826,5,0,0:0:0
280,24,86983,2,0,B|296:72|240:96,1,89.9999952316285
324,192,87299,1,0,0:0:0
416,128,87457,2,0,B|412:180|480:192,1,89.9999952316285
268,276,87772,2,0,B|308:316|364:300,1,89.9999976158143
472,268,88088,2,0,B|424:324|360:292,3,89.9999976158143
208,212,88719,6,0,P|172:144|200:116,1,89.9999952316285
276,212,89035,2,0,P|312:144|284:116,1,89.9999952316285
240,264,89351,1,0,0:0:0
40,272,89508,2,0,B|152:272,1,89.9999976158143
240,336,89824,2,0,B|128:336,1,89.9999976158143
260,268,90140,2,0,B|372:268,1,89.9999976158143
460,332,90456,2,0,B|348:332,1,89.9999976158143
148,204,90771,2,0,B|260:204,1,89.9999976158143
348,268,91087,6,0,B|236:268,1,89.9999952316285
60,204,91402,2,0,B|172:204,1,89.9999976158143
260,268,91718,2,0,B|148:268,1,89.9999976158143
284,196,92033,2,0,B|396:196,1,89.9999976158143
484,260,92349,2,0,B|372:260,1,89.9999976158143
396,132,92665,1,0,0:0:0
256,24,92822,6,0,B|256:120,1,89.9999976158143
256,368,93138,2,0,B|256:256,1,89.9999976158143
80,160,93454,2,0,B|184:160,1,89.9999976158143
384,160,93769,1,2,0:0:0
248,256,93927,1,0,0:0:0
184,192,94243,5,0,0:0:0
288,192,94558,1,2,0:0:0
144,192,94874,5,0,0:0:0
352,192,95190,1,2,0:0:0
80,192,95505,5,0,0:0:0
416,192,95821,1,2,0:0:0
32,192,96136,5,0,0:0:0
480,192,96452,1,2,0:0:0
496,320,96768,5,0,0:0:0
244,328,97083,1,0,0:0:0
244,76,97399,1,0,0:0:0
248,328,97715,1,0,0:0:0
244,76,98030,1,0,0:0:0
248,328,98346,1,0,0:0:0
88,64,98661,5,0,0:0:0
148,160,98819,1,0,0:0:0
256,252,98977,1,0,0:0:0
364,160,99135,1,0,0:0:0
408,64,99293,1,0,0:0:0
256,192,99766,12,4,101186,0:0:0
