osu file format v12

[General]
AudioFilename: bayani agbayani - otso otso.mp3
AudioLeadIn: 2000
PreviewTime: 58937
Countdown: 0
SampleSet: Soft
StackLeniency: 0.7
Mode: 0
LetterboxInBreaks: 0
WidescreenStoryboard: 0

[Editor]
Bookmarks: 19830,62522,74967,106953,106967,133633,151397,179856,194706,214892,227632
DistanceSpacing: 1.1
BeatDivisor: 4
GridSize: 4
TimelineZoom: 1

[Metadata]
Title:Otso Otso
TitleUnicode:Otso Otso
Artist:Bayani Agbayani
ArtistUnicode:Bayani Agbayani
Creator:Tsukasa
Version:Hard
Source:
Tags:Filipino Tagalog Anzo-nii eight
BeatmapID:166465
BeatmapSetID:54787

[Difficulty]
HPDrainRate:6
CircleSize:4
OverallDifficulty:5
ApproachRate:7
SliderMultiplier:1.6
SliderTickRate:2

[Events]
//Background and Video events
0,0,"61qd6jFQvIL._SS500_.jpg",0,0
//Break Periods
2,16467,18923
2,75143,77598
2,137375,150497
2,192495,193833
//Storyboard Layer 0 (Background)
//Storyboard Layer 1 (Fail)
//Storyboard Layer 2 (Pass)
//Storyboard Layer 3 (Foreground)
//Storyboard Sound Samples
//Background Colour Transformations
3,100,255,255,255

[TimingPoints]
268,444.444444444444,4,2,0,25,1,0
3823,-100,4,2,0,60,0,0
5934,-100,4,2,1,60,0,0
6156,-100,4,2,0,60,0,0
9490,-100,4,2,1,60,0,0
9712,-100,4,2,0,60,0,0
13045,-100,4,2,1,60,0,0
13267,-100,4,2,0,60,0,0
14601,-100,4,2,0,30,0,0
16156,-100,4,2,0,60,0,0
40601,-100,4,2,1,60,0,0
40823,-100,4,2,0,60,0,0
51267,-100,4,2,1,60,0,0
51490,-100,4,2,0,60,0,0
54823,-100,4,2,1,60,0,0
55045,-100,4,2,0,60,0,0
58379,-100,4,2,1,60,0,0
58601,-100,4,2,0,60,0,0
59267,-100,4,2,0,30,0,0
60601,-100,4,2,0,60,0,0
61156,447.761194029851,4,2,0,25,1,0
62499,444.444444444444,4,2,0,60,1,1
74943,-100,4,2,0,60,0,0
79721,-100,4,2,1,60,0,0
79943,-100,4,2,0,60,0,0
95721,-100,4,2,1,60,0,0
95943,-100,4,2,0,60,0,0
99276,-100,4,2,1,60,0,0
99498,-100,4,2,0,60,0,0
102832,-100,4,2,1,60,0,0
103054,-100,4,2,0,60,0,0
103832,-100,4,2,0,30,0,0
105165,-100,4,2,0,60,0,0
105610,447.761194029851,4,2,0,25,1,0
106953,444.444444444444,4,2,0,60,1,1
119397,-100,4,2,0,60,0,0
121175,-100,4,2,0,60,0,1
133619,-100,4,2,0,60,0,0
133841,-100,4,2,0,30,0,0
151397,-100,4,2,0,60,0,0
152619,-100,4,2,1,60,0,0
152841,-100,4,2,0,60,0,0
168619,-100,4,2,1,60,0,0
168841,-100,4,2,0,60,0,0
175730,-100,4,2,1,60,0,0
175952,-100,4,2,0,60,0,0
176730,-100,4,2,0,30,0,0
178064,-100,4,2,0,60,0,0
178508,447.761194029851,4,2,0,25,1,0
179851,444.444444444444,4,2,0,60,1,1
192295,-100,4,2,0,60,0,0
194733,681.818181818182,4,2,0,60,1,0
196768,681.818181818182,4,2,0,60,1,1
213112,444.444444444444,4,2,0,60,1,0
213889,-100,4,2,0,30,0,0
214889,376.766091051805,4,2,0,60,1,0
216398,-100,4,2,0,60,0,1
225832,461.538461538462,4,2,0,60,1,0
227632,447.761194029851,4,2,0,60,1,1
228975,444.444444444444,4,2,0,60,1,1
241419,-100,4,2,0,60,0,0

[Colours]
Combo1 : 255,255,128
Combo2 : 255,128,128
Combo3 : 128,128,255
Combo4 : 192,192,192

[HitObjects]
256,192,268,12,0,3379,0:0:0:0:
184,104,3823,6,0,B|212:76|256:60|300:76|328:104,2,160,0|8|0,0:0|0:0|0:0,0:0:0:0:
256,156,4934,2,0,B|212:168|204:212,2,80,0|8|0,0:0|0:0|0:0,0:0:0:0:
292,236,5601,1,0,0:0:0:0:
292,236,5823,2,0,B|320:264|364:276|408:264|436:236,2,160
224,292,6934,2,0,B|240:332|220:368,1,80,8|0,0:0|0:0,0:0:0:0:
148,324,7379,6,0,B|108:336|64:324|36:284|40:240,2,160,0|8|0,0:0|0:0|0:0,0:0:0:0:
128,236,8490,2,0,B|100:196|128:152,2,80,0|8|0,0:0|0:0|0:0,0:0:0:0:
204,192,9156,1,0,0:0:0:0:
204,192,9379,2,0,B|224:160|272:148|320:160|344:192,2,160
268,252,10490,2,0,B|244:300|288:340,1,80,8|0,0:0|0:0,0:0:0:0:
348,280,10934,6,0,B|388:280|432:264|456:224|456:176,2,160,0|8|0,0:0|0:0|0:0,0:0:0:0:
368,192,12045,2,0,B|368:144|324:120,2,80,0|8|0,0:0|0:0|0:0,0:0:0:0:
280,196,12712,1,0,0:0:0:0:
280,196,12934,2,0,B|256:160|208:148|160:164|136:200,2,160
208,248,14045,2,0,B|192:292|228:324,2,80,8|0|4,0:0|0:0|0:0,0:0:0:0:
124,272,14712,6,0,B|72:276|48:232,1,80
124,188,15156,1,0,0:0:0:0:
124,188,15379,2,0,B|160:164|176:124|160:80|124:52,2,160,0|0|4,0:0|0:0|0:0,0:0:0:0:
256,192,19823,6,0,B|336:192,2,80,0|0|8,0:0|0:0|0:0,0:0:0:0:
292,272,20490,1,0,0:0:0:0:
292,272,20712,2,0,B|248:268|208:284|184:324|184:368,1,160,0|8,0:0|0:0,0:0:0:0:
112,312,21379,2,0,B|120:264|152:236|152:236|112:168,1,160
48,112,22045,2,0,B|76:76|124:88,1,80,8|0,0:0|0:0,0:0:0:0:
204,116,22490,2,0,B|248:128|288:112,1,80
344,176,22934,1,8,0:0:0:0:
296,248,23156,6,0,B|320:284|296:328,1,80
220,284,23601,2,0,B|184:260|144:284,1,80,0|8,0:0|0:0,0:0:0:0:
88,216,24045,1,0,0:0:0:0:
88,216,24267,2,0,B|48:148|48:148|56:104|112:80,1,160,0|8,0:0|0:0,0:0:0:0:
152,156,24934,2,0,B|176:120|216:96|264:104|312:128,1,160
236,188,25601,2,0,B|272:212|268:264,1,80,8|0,0:0|0:0,0:0:0:0:
180,252,26045,1,0,0:0:0:0:
228,328,26267,1,0,0:0:0:0:
316,324,26490,2,8,B|356:324|396:304|412:256|400:212,2,160,8|0|8,0:0|0:0|0:0,0:0:0:0:
316,236,27601,6,0,B|272:236|248:200,1,80
320,152,28045,2,0,B|296:112|244:108,1,80,0|8,0:0|0:0,0:0:0:0:
228,24,28490,2,0,B|188:36|160:72|156:120|184:172,1,160
100,200,29156,1,8,0:0:0:0:
40,264,29379,6,0,B|72:300|128:288,1,80
136,376,29823,2,0,B|180:368|200:328,1,80,0|8,0:0|0:0,0:0:0:0:
252,264,30267,1,0,0:0:0:0:
252,264,30490,2,0,B|412:264,1,160,0|8,0:0|0:0,0:0:0:0:
388,180,31156,6,0,B|296:184|248:96,1,160
184,56,31823,1,8,0:0:0:0:
116,112,32045,1,0,0:0:0:0:
32,144,32267,2,0,B|52:192|104:196|104:196|104:268,1,160,0|8,0:0|0:0,0:0:0:0:
184,228,32934,2,0,B|172:264|196:312|236:332|288:324,1,160
268,236,33601,2,0,B|312:236|340:196,2,80,8|0|0,0:0|0:0|0:0,0:0:0:0:
264,148,34267,6,0,B|288:112|336:112,1,80,0|8,0:0|0:0,0:0:0:0:
304,28,34712,1,0,0:0:0:0:
304,28,34934,2,0,B|140:28,1,160,0|8,0:0|0:0,0:0:0:0:
72,80,35601,2,0,B|88:120|136:120|136:120|84:192,1,160
176,192,36267,2,0,B|180:240|224:252,1,80,8|0,0:0|0:0,0:0:0:0:
260,172,36712,1,0,0:0:0:0:
288,88,36934,2,0,B|332:96|344:148,2,80,0|8|0,0:0|0:0|0:0,0:0:0:0:
376,44,37601,6,0,B|412:24|460:44,1,80
476,128,38045,1,8,0:0:0:0:
420,196,38267,2,0,B|376:192|348:244,1,80
432,280,38712,2,0,B|404:316|364:316,1,80,0|8,0:0|0:0,0:0:0:0:
288,276,39156,1,0,0:0:0:0:
212,320,39379,1,0,0:0:0:0:
176,240,39601,2,0,B|132:244|120:292,1,80,0|8,0:0|0:0,0:0:0:0:
44,244,40045,1,0,0:0:0:0:
108,184,40267,1,0,0:0:0:0:
108,184,40490,2,0,B|64:168|48:128|48:128|76:56,1,160
144,112,41156,1,0,0:0:0:0:
228,80,41379,6,0,B|268:100|308:80,1,80,0|8,0:0|0:0,0:0:0:0:
340,160,41823,1,0,0:0:0:0:
304,240,42045,2,0,B|266:221|226:241,1,80,0|0,0:0|0:0,0:0:0:0:
268,320,42490,1,8,0:0:0:0:
268,320,42712,2,0,B|224:336|180:324|144:288|152:232,1,160
72,212,43379,2,0,B|88:168|132:164,2,80,8|0|0,0:0|0:0|0:0,0:0:0:0:
40,120,44045,1,0,0:0:0:0:
116,80,44267,1,8,0:0:0:0:
116,80,44490,2,0,B|156:56|196:76|196:76|236:100|272:76,1,160
332,140,45156,5,8,0:0:0:0:
332,140,45379,2,0,B|308:176|260:176|260:176|296:244,1,160
376,212,46045,1,8,0:0:0:0:
464,212,46267,1,0,0:0:0:0:
376,212,46490,2,0,B|396:252|384:296|352:324|300:324,1,160,0|8,0:0|0:0,0:0:0:0:
220,300,47156,2,0,B|188:276|148:260|100:276|76:308,1,160
56,220,47823,2,0,B|88:192|136:192,2,80,8|0|4,0:0|0:0|0:0,0:0:0:0:
16,140,48490,6,0,B|-4:100|16:64,1,80,0|8,0:0|0:0,0:0:0:0:
96,100,48934,1,0,0:0:0:0:
96,100,49156,2,0,B|124:76|168:60|212:76|244:100,1,160,0|8,0:0|0:0,0:0:0:0:
180,164,49823,2,0,B|212:200|256:188,1,80
328,144,50267,1,0,0:0:0:0:
404,188,50490,1,8,0:0:0:0:
404,188,50712,2,0,B|428:224|428:276|396:308|352:320,2,160
448,112,51823,6,0,B|408:96|368:112,1,80
336,32,52267,2,0,B|288:44|280:96,1,80,8|0,0:0|0:0,0:0:0:0:
232,160,52712,2,0,B|200:192|152:180|152:180|100:236,1,160,0|8,0:0|0:0,0:0:0:0:
184,264,53379,2,0,B|228:268|264:236,1,80
328,296,53823,1,0,0:0:0:0:
416,292,54045,1,8,0:0:0:0:
416,292,54267,2,0,B|416:248|448:220|448:220|416:188|416:148,2,160
344,224,55379,6,0,B|312:196|316:148|316:148|240:148,1,160,0|8,0:0|0:0,0:0:0:0:
248,236,56045,1,0,0:0:0:0:
256,324,56267,2,0,B|180:324|180:324|184:276|152:248,1,160,0|8,0:0|0:0,0:0:0:0:
72,212,56934,2,0,B|88:168|140:160,1,80
84,84,57379,1,0,0:0:0:0:
160,36,57601,1,8,0:0:0:0:
232,88,57823,2,0,B|264:112|308:124|352:112|388:84,2,160
304,24,58934,1,4,0:0:0:0:
388,180,59379,6,0,B|424:208|412:256,1,80
324,244,59823,2,0,B|297:281|264:304|220:304|180:296,1,160
220,220,60490,2,0,B|176:200|136:228,1,80,0|4,0:0|0:0,0:0:0:0:
27,348,61156,5,0,0:0:0:0:
151,223,61603,5,0,0:0:0:0:
275,347,62051,5,0,0:0:0:0:
400,220,62499,6,0,B|444:220|464:176,1,80
384,140,62943,1,8,0:0:0:0:
384,140,63165,2,0,B|336:140|316:108|316:108|232:108,1,160
272,188,63832,2,0,B|184:188,1,80,8|0,0:0|0:0,0:0:0:0:
196,276,64276,6,0,B|152:276|124:240,1,80
56,192,64721,1,8,0:0:0:0:
56,192,64943,2,0,B|28:156|28:112|52:72|92:60,1,160
136,136,65610,2,0,B|220:136,1,80,8|0,0:0|0:0,0:0:0:0:
200,48,66054,6,0,B|284:48,1,80
344,108,66498,1,8,0:0:0:0:
344,108,66721,2,0,B|348:152|376:184|424:200|468:172,1,160
428,260,67387,1,8,0:0:0:0:
356,312,67610,6,0,B|332:276|288:264|240:276|220:312,1,160
152,256,68276,1,8,0:0:0:0:
84,312,68498,1,0,0:0:0:0:
60,228,68721,2,0,B|52:184|76:152|76:152|40:128|32:80,2,160,0|8|0,0:0|0:0|0:0,0:0:0:0:
144,204,69832,6,0,B|184:220|224:180,1,80,0|8,0:0|0:0,0:0:0:0:
160,120,70276,2,0,B|192:92|240:84|284:108|304:148,1,160
340,60,70943,2,0,B|380:84|392:136,1,80,8|0,0:0|0:0,0:0:0:0:
456,180,71387,6,0,B|432:220|376:212,2,80,0|0|8,0:0|0:0|0:0,0:0:0:0:
388,124,72054,2,0,B|220:124,1,160
268,204,72721,2,0,B|180:204,2,80,8|0|4,0:0|0:0|0:0,0:0:0:0:
256,192,73610,12,4,74943,0:0:0:0:
132,64,78498,6,0,B|216:64,2,80,0|0|8,0:0|0:0|0:0,0:0:0:0:
164,148,79165,1,0,0:0:0:0:
248,176,79387,1,0,0:0:0:0:
304,108,79610,2,0,B|340:128|356:176|340:220|304:240,2,160
388,84,80721,2,0,B|424:108|464:84,1,80,8|0,0:0|0:0,0:0:0:0:
480,172,81165,2,0,B|456:212|480:256,1,80
404,300,81610,1,8,0:0:0:0:
360,376,81832,6,0,B|320:360|312:312,1,80
224,308,82276,2,0,B|224:260|264:240,1,80,0|8,0:0|0:0,0:0:0:0:
204,172,82721,1,0,0:0:0:0:
204,172,82943,2,0,B|116:172,2,80,0|0|8,0:0|0:0|0:0,0:0:0:0:
200,84,83610,2,0,B|248:76|284:100|304:144|288:192,1,160
368,144,84276,2,0,B|448:144,1,80,8|0,0:0|0:0,0:0:0:0:
408,224,84721,2,0,B|360:236|360:288,1,80
284,236,85165,1,8,0:0:0:0:
284,236,85387,2,0,B|284:284|236:312,1,80
120,184,86054,5,8,0:0:0:0:
120,184,86276,2,0,B|168:184|192:136,1,80
112,100,86721,2,0,B|136:60|184:60,1,80,0|8,0:0|0:0,0:0:0:0:
256,104,87165,2,0,B|416:104,1,160
384,188,87832,1,8,0:0:0:0:
384,188,88054,2,0,B|376:228|396:276|452:296|492:288,1,160
424,360,88721,1,8,0:0:0:0:
424,360,88943,2,0,B|256:360,1,160
232,276,89610,5,8,0:0:0:0:
232,276,89832,2,0,B|184:284|168:320|168:320|92:276,1,160
160,216,90498,1,8,0:0:0:0:
160,216,90721,2,0,B|96:168|96:168|92:116|136:88,1,160
200,140,91387,1,8,0:0:0:0:
200,140,91610,2,0,B|240:140|276:116|276:116|312:140|360:140,1,160
384,220,92276,2,0,B|364:256|376:300,1,80,8|0,0:0|0:0,0:0:0:0:
288,284,92721,5,4,0:0:0:0:
220,228,92943,2,0,B|188:256|200:304,1,80,0|8,0:0|0:0,0:0:0:0:
116,276,93387,1,0,0:0:0:0:
116,276,93610,2,0,B|76:276|44:244|32:188|60:152,1,160,0|8,0:0|0:0,0:0:0:0:
140,188,94276,2,0,B|152:144|128:108,1,80
192,48,94721,1,0,0:0:0:0:
272,84,94943,1,8,0:0:0:0:
240,164,95165,2,0,B|284:188|324:160|324:160|396:200,2,160
228,252,96276,6,0,B|184:240|152:272,1,80
112,192,96721,2,0,B|64:200|40:160,1,80,8|0,0:0|0:0,0:0:0:0:
112,108,97165,2,0,B|152:128|200:116|232:80|232:40,1,160,0|8,0:0|0:0,0:0:0:0:
284,116,97832,1,0,0:0:0:0:
284,116,98054,2,0,B|304:160|360:160,1,80
296,232,98498,1,8,0:0:0:0:
376,272,98721,2,0,B|356:316|304:336|248:320|228:288,2,160
464,256,99832,6,0,B|452:204|404:192|404:192|436:112,1,160,0|8,0:0|0:0,0:0:0:0:
340,124,100498,1,0,0:0:0:0:
340,124,100721,2,0,B|324:88|276:76|228:88|204:120,1,160,0|8,0:0|0:0,0:0:0:0:
272,180,101387,2,0,B|244:216|200:212,2,80
276,276,102054,1,8,0:0:0:0:
276,276,102276,2,0,B|324:268|348:224|348:224|428:224,2,160
188,276,103387,1,4,0:0:0:0:
108,120,103832,6,0,B|56:120|40:80,1,80
116,36,104276,2,0,B|276:36,2,160,0|0|4,0:0|0:0|0:0,0:0:0:0:
240,160,105610,5,0,0:0:0:0:
416,160,106057,1,0,0:0:0:0:
240,160,106505,1,0,0:0:0:0:
96,152,106953,6,0,B|52:152|32:196,1,80
112,232,107397,1,8,0:0:0:0:
112,232,107619,2,0,B|160:232|180:264|180:264|264:264,1,160
224,184,108286,2,0,B|312:184,1,80,8|0,0:0|0:0,0:0:0:0:
304,96,108730,6,0,B|348:96|376:132,1,80
440,180,109175,1,8,0:0:0:0:
440,180,109397,2,0,B|468:216|468:260|444:300|404:312,1,160
360,236,110064,2,0,B|276:236,1,80,8|0,0:0|0:0,0:0:0:0:
296,324,110508,6,0,B|212:324,1,80
152,264,110952,1,8,0:0:0:0:
152,264,111175,2,0,B|148:220|120:188|72:172|28:200,1,160
68,112,111841,1,8,0:0:0:0:
140,60,112064,6,0,B|164:96|208:108|256:96|276:60,1,160
344,116,112730,1,8,0:0:0:0:
412,60,112952,1,0,0:0:0:0:
436,144,113175,2,0,B|444:188|420:220|420:220|456:244|464:292,2,160,0|8|0,0:0|0:0|0:0,0:0:0:0:
352,168,114286,6,0,B|312:152|272:192,1,80,0|8,0:0|0:0,0:0:0:0:
336,252,114730,2,0,B|304:280|256:288|212:264|192:224,1,160
156,312,115397,2,0,B|116:288|104:236,1,80,8|0,0:0|0:0,0:0:0:0:
40,192,115841,6,0,B|64:152|120:160,2,80,0|0|8,0:0|0:0|0:0,0:0:0:0:
108,248,116508,2,0,B|276:248,1,160
228,168,117175,2,0,B|316:168,2,80,8|0|4,0:0|0:0|0:0,0:0:0:0:
256,192,118064,12,4,119397,0:0:0:0:
184,96,119841,6,0,B|212:68|256:52|300:68|328:96,2,160
72,232,121175,6,0,B|92:268|136:272,1,80
140,184,121619,1,8,0:0:0:0:
140,184,121841,2,0,B|104:148|108:100|132:64|168:52,1,160
208,132,122508,2,0,B|288:160,1,80,8|0,0:0|0:0,0:0:0:0:
316,76,122952,6,0,B|356:88|372:132,1,80
432,192,123397,1,8,0:0:0:0:
432,192,123619,2,0,B|400:224|356:216|356:216|312:284,1,160
248,220,124286,2,0,B|248:264|200:280,1,80,8|0,0:0|0:0,0:0:0:0:
164,200,124730,6,0,B|84:200,1,80
124,120,125175,1,8,0:0:0:0:
124,120,125397,2,0,B|168:112|188:64|188:64|260:64,1,160
248,152,126064,1,8,0:0:0:0:
336,164,126286,6,0,B|332:208|300:236|256:252|212:232,1,160
224,316,126952,2,0,B|212:360|160:360,1,80,8|0,0:0|0:0,0:0:0:0:
156,272,127397,2,0,B|112:272|96:228,2,80,0|0|8,0:0|0:0|0:0,0:0:0:0:
184,188,128064,1,0,0:0:0:0:
124,124,128286,6,0,B|160:92|208:104,1,80
272,148,128730,1,8,0:0:0:0:
272,148,128952,2,0,B|304:176|348:192|384:176|416:144,1,160
436,232,129619,2,0,B|408:272|436:312,1,80,8|0,0:0|0:0,0:0:0:0:
348,288,130064,6,0,B|348:336|312:360,1,80
264,288,130508,1,8,0:0:0:0:
264,288,130730,2,0,B|224:292|180:276|160:232|164:180,1,160
116,116,131397,2,0,B|164:92|212:116,2,80,8|0|4,0:0|0:0|0:0,0:0:0:0:
116,116,132286,1,4,0:0:0:0:
64,284,132730,6,0,B|140:320,1,80
140,228,133175,2,0,B|224:228,2,80,0|0|4,0:0|0:0|0:0,0:0:0:0:
256,192,133841,12,0,137175,0:0:0:0:
380,320,151397,6,0,B|296:320,2,80,0|0|8,0:0|0:0|0:0,0:0:0:0:
348,236,152064,1,0,0:0:0:0:
264,208,152286,1,0,0:0:0:0:
208,276,152508,2,0,B|172:256|156:208|172:164|208:144,2,160
124,300,153619,2,0,B|88:276|48:300,1,80,8|0,0:0|0:0,0:0:0:0:
32,212,154064,2,0,B|56:172|32:128,1,80
108,84,154508,1,8,0:0:0:0:
152,8,154730,6,0,B|192:24|200:72,1,80
288,76,155175,2,0,B|288:124|248:144,1,80,0|8,0:0|0:0,0:0:0:0:
308,212,155619,1,0,0:0:0:0:
308,212,155841,2,0,B|396:212,2,80,0|0|8,0:0|0:0|0:0,0:0:0:0:
312,300,156508,2,0,B|264:308|228:284|208:240|224:192,1,160
144,240,157175,2,0,B|64:240,1,80,8|0,0:0|0:0,0:0:0:0:
104,160,157619,2,0,B|152:148|152:96,1,80
228,148,158064,1,8,0:0:0:0:
228,148,158286,2,0,B|228:100|276:72,1,80
392,200,158953,5,8,0:0:0:0:
392,200,159175,2,0,B|344:200|320:248,1,80
400,284,159619,2,0,B|376:324|328:324,1,80,0|8,0:0|0:0,0:0:0:0:
256,280,160064,2,0,B|96:280,1,160
128,196,160730,1,8,0:0:0:0:
128,196,160953,2,0,B|136:156|116:108|60:88|20:96,1,160
88,24,161619,1,8,0:0:0:0:
88,24,161841,2,0,B|256:24,1,160
280,108,162508,5,8,0:0:0:0:
280,108,162730,2,0,B|328:100|344:64|344:64|420:108,1,160
352,168,163397,1,8,0:0:0:0:
352,168,163619,2,0,B|416:216|416:216|420:268|376:296,1,160
312,244,164286,1,8,0:0:0:0:
312,244,164508,2,0,B|272:244|236:268|236:268|200:244|152:244,1,160
128,164,165175,2,0,B|148:128|136:84,1,80,8|0,0:0|0:0,0:0:0:0:
224,100,165619,5,4,0:0:0:0:
292,156,165841,2,0,B|324:128|312:80,1,80,0|8,0:0|0:0,0:0:0:0:
396,108,166286,1,0,0:0:0:0:
396,108,166508,2,0,B|436:108|468:140|480:196|452:232,1,160,0|8,0:0|0:0,0:0:0:0:
372,196,167175,2,0,B|360:240|384:276,1,80
320,336,167619,1,0,0:0:0:0:
240,300,167841,1,8,0:0:0:0:
272,220,168064,2,0,B|228:196|188:224|188:224|116:184,2,160
284,132,169175,6,0,B|328:144|360:112,1,80
400,192,169619,2,0,B|448:184|472:224,1,80,8|0,0:0|0:0,0:0:0:0:
400,276,170064,2,0,B|360:256|312:268|280:304|280:344,1,160,0|8,0:0|0:0,0:0:0:0:
228,268,170730,1,0,0:0:0:0:
228,268,170953,2,0,B|208:224|152:224,1,80
208,148,171397,2,0,B|228:104|280:84|336:100|352:140,2,160,8|0|8,0:0|0:0|0:0,0:0:0:0:
132,100,172508,1,0,0:0:0:0:
48,128,172730,6,0,B|60:180|108:192|108:192|76:272,1,160,0|8,0:0|0:0,0:0:0:0:
172,260,173397,1,0,0:0:0:0:
172,260,173619,2,0,B|188:296|236:308|284:296|308:264,1,160,0|8,0:0|0:0,0:0:0:0:
240,204,174286,2,0,B|268:168|312:172,2,80
236,108,174953,1,8,0:0:0:0:
236,108,175175,2,0,B|188:116|164:160|164:160|84:160,2,160
324,108,176286,1,4,0:0:0:0:
404,264,176730,6,0,B|456:264|472:304,1,80
396,348,177175,2,0,B|236:348,2,160,0|0|4,0:0|0:0|0:0,0:0:0:0:
272,224,178508,5,0,0:0:0:0:
96,224,178955,5,0,0:0:0:0:
272,224,179403,5,0,0:0:0:0:
416,232,179851,6,0,B|460:232|480:188,1,80
400,152,180295,1,8,0:0:0:0:
400,152,180517,2,0,B|352:152|332:120|332:120|248:120,1,160
288,200,181184,2,0,B|200:200,1,80,8|0,0:0|0:0,0:0:0:0:
212,288,181628,6,0,B|168:288|140:252,1,80
72,204,182073,1,8,0:0:0:0:
72,204,182295,2,0,B|44:168|44:124|68:84|108:72,1,160
152,148,182962,2,0,B|236:148,1,80,8|0,0:0|0:0,0:0:0:0:
216,60,183406,6,0,B|300:60,1,80
360,120,183851,1,8,0:0:0:0:
360,120,184073,2,0,B|364:164|392:196|440:212|484:184,1,160
444,272,184739,1,8,0:0:0:0:
372,324,184962,6,0,B|348:288|304:276|256:288|236:324,1,160
168,268,185628,1,8,0:0:0:0:
100,324,185851,1,0,0:0:0:0:
76,240,186073,2,0,B|68:196|92:164|92:164|56:140|48:92,2,160,0|8|0,0:0|0:0|0:0,0:0:0:0:
164,216,187184,6,0,B|204:232|244:192,1,80,0|8,0:0|0:0,0:0:0:0:
176,132,187628,2,0,B|208:104|256:96|300:120|320:160,1,160
356,72,188295,2,0,B|396:96|408:148,1,80,8|0,0:0|0:0,0:0:0:0:
472,192,188739,6,0,B|448:232|392:224,2,80,0|0|8,0:0|0:0|0:0,0:0:0:0:
404,136,189406,2,0,B|236:136,1,160
284,216,190073,2,0,B|196:216,2,80,8|0|4,0:0|0:0|0:0,0:0:0:0:
256,192,190962,12,4,192295,0:0:0:0:
104,88,194733,6,0,B|144:68|180:84|180:84|220:104|264:80,2,160
144,256,196768,6,0,B|132:304|180:340,1,80
228,268,197449,1,8,0:0:0:0:
228,268,197790,2,0,B|272:280|320:272|344:236|344:176,1,160
256,188,198813,2,0,B|260:140|220:120,1,80,8|0,0:0|0:0,0:0:0:0:
292,68,199495,6,0,B|332:88|368:64,1,80
412,140,200177,1,8,0:0:0:0:
412,140,200518,2,0,B|444:168|456:208|444:248|416:288,1,160
364,216,201540,2,0,B|361:255|307:272,1,80,8|0,0:0|0:0,0:0:0:0:
284,192,202222,6,0,B|248:168|208:192,1,80
248,272,202904,1,8,0:0:0:0:
248,272,203245,2,0,B|192:288|152:252|152:252|112:300,1,160
76,216,204268,1,8,0:0:0:0:
96,132,204608,6,0,B|140:136|184:120|200:72|192:28,1,160
268,80,205631,2,0,B|272:128|320:136,1,80,8|0,0:0|0:0,0:0:0:0:
260,204,206313,2,0,B|296:232|352:212,2,80,0|0|8,0:0|0:0|0:0,0:0:0:0:
260,292,207336,1,0,0:0:0:0:
184,336,207677,6,0,B|156:300|176:256,1,80
88,284,208358,1,8,0:0:0:0:
88,284,208699,2,0,B|84:232|112:200|112:200|80:128,1,160
172,120,209722,2,0,B|208:148|252:128,1,80,8|0,0:0|0:0,0:0:0:0:
284,48,210404,6,0,B|324:60|336:104,1,80
424,120,211086,1,8,0:0:0:0:
424,120,211427,2,0,B|412:172|368:184|368:184|404:256,1,160
312,252,212449,2,0,B|324:296|304:332,2,80,8|0|4,0:0|0:0|0:0,0:0:0:0:
312,252,213556,5,4,0:0:0:0:
200,116,214000,2,0,B|156:92|112:124,2,80
160,196,214667,1,0,0:0:0:0:
160,196,214889,1,4,0:0:0:0:
288,320,215265,6,0,B|328:340|368:352|404:336|440:316,2,160
368,164,216396,6,0,B|336:132|296:140,1,80
324,56,216772,1,8,0:0:0:0:
324,56,216961,2,0,B|280:48|240:64|212:96|208:152,1,160
136,88,217526,2,0,B|120:128|136:180,1,80,8|0,0:0|0:0,0:0:0:0:
68,228,217903,6,0,B|100:264|148:252,1,80
216,208,218279,1,8,0:0:0:0:
216,208,218468,2,0,B|236:248|220:292|220:292|296:292,1,160
308,204,219033,2,0,B|348:204|348:204|384:184,1,80,8|0,0:0|0:0,0:0:0:0:
324,120,219410,6,0,B|284:120|284:120|252:144,1,80
208,68,219786,1,8,0:0:0:0:
208,68,219975,2,0,B|172:92|172:92|172:168|172:168|128:216,1,160
88,132,220540,1,8,0:0:0:0:
88,132,220728,6,0,B|56:156|36:204|56:248|88:272,1,160
68,356,221294,2,0,B|112:364|144:328,1,80,8|0,0:0|0:0,0:0:0:0:
196,264,221670,2,0,B|232:236|276:264,2,80,0|0|8,0:0|0:0|0:0,0:0:0:0:
144,192,222235,1,0,0:0:0:0:
196,120,222424,6,0,B|232:148|276:120,1,80
232,44,222801,1,8,0:0:0:0:
232,44,222989,2,0,B|272:24|320:36|356:64|360:132,1,160
440,128,223554,2,0,B|432:168|384:180,1,80,8|0,0:0|0:0,0:0:0:0:
428,256,223931,6,0,B|328:256,1,80
344,344,224308,1,8,0:0:0:0:
344,344,224496,2,0,B|296:344|272:308|272:308|196:308,1,160
224,224,225061,2,0,B|132:224,2,80,8|0|4,0:0|0:0|0:0,0:0:0:0:
172,88,225832,5,4,0:0:0:0:
172,88,226293,2,0,B|340:88,2,160,0|0|4,0:0|0:0|0:0,0:0:0:0:
328,288,227632,6,0,B|300:316|256:332|212:316|184:288,2,160
440,152,228975,6,0,B|420:116|376:112,1,80
372,200,229419,1,8,0:0:0:0:
372,200,229641,2,0,B|408:236|404:284|380:320|344:332,1,160
304,252,230308,2,0,B|224:224,1,80,8|0,0:0|0:0,0:0:0:0:
192,304,230752,6,0,B|152:292|136:248,1,80
80,192,231197,1,8,0:0:0:0:
80,192,231419,2,0,B|112:160|156:168|156:168|200:100,1,160
264,164,232086,2,0,B|264:120|312:104,1,80,8|0,0:0|0:0,0:0:0:0:
348,184,232530,6,0,B|428:184,1,80
388,264,232975,1,8,0:0:0:0:
388,264,233197,2,0,B|344:272|324:320|324:320|252:320,1,160
260,232,233863,1,8,0:0:0:0:
176,220,234086,6,0,B|180:176|212:148|256:132|300:160,1,160
288,68,234752,2,0,B|300:24|352:24,1,80,8|0,0:0|0:0,0:0:0:0:
356,112,235197,2,0,B|400:112|416:156,2,80,0|0|8,0:0|0:0|0:0,0:0:0:0:
328,196,235863,1,0,0:0:0:0:
388,260,236086,6,0,B|352:292|304:280,1,80
240,236,236530,1,8,0:0:0:0:
240,236,236752,2,0,B|208:208|164:192|128:208|96:240,1,160
76,152,237419,2,0,B|104:112|76:72,1,80,8|0,0:0|0:0,0:0:0:0:
164,96,237863,6,0,B|164:48|200:24,1,80
248,96,238308,1,8,0:0:0:0:
248,96,238530,2,0,B|288:92|332:108|352:152|348:204,1,160
396,268,239197,2,0,B|348:292|300:268,2,80,8|0|4,0:0|0:0|0:0,0:0:0:0:
396,268,240086,1,4,0:0:0:0:
448,100,240530,6,0,B|372:64,1,80
372,156,240975,2,0,B|288:156,2,80,0|0|4,0:0|0:0|0:0,0:0:0:0:
