osu file format v12

[General]
AudioFilename: bayani agbayani - otso otso.mp3
AudioLeadIn: 2000
PreviewTime: 58937
Countdown: 0
SampleSet: Soft
StackLeniency: 0.7
Mode: 0
LetterboxInBreaks: 0
WidescreenStoryboard: 0

[Editor]
Bookmarks: 19830,62522,74967,106967,133633,179856,194706,214892
DistanceSpacing: 1.1
BeatDivisor: 4
GridSize: 4
TimelineZoom: 1

[Metadata]
Title:Otso Otso
TitleUnicode:Otso Otso
Artist:Bayani Agbayani
ArtistUnicode:Bayani Agbayani
Creator:Tsukasa
Version:Easy
Source:
Tags:Filipino Tagalog Anzo-nii eight
BeatmapID:168986
BeatmapSetID:54787

[Difficulty]
HPDrainRate:2
CircleSize:3
OverallDifficulty:1
ApproachRate:3
SliderMultiplier:0.999999999999999
SliderTickRate:2

[Events]
//Background and Video events
0,0,"61qd6jFQvIL._SS500_.jpg",0,0
//Break Periods
2,16468,18383
2,75143,77058
2,137375,149957
2,192495,193293
//Storyboard Layer 0 (Background)
//Storyboard Layer 1 (Fail)
//Storyboard Layer 2 (Pass)
//Storyboard Layer 3 (Foreground)
//Storyboard Sound Samples
//Background Colour Transformations
3,100,255,255,255

[TimingPoints]
268,444.444444444444,4,2,0,25,1,0
3823,-100,4,2,0,60,0,0
4156,-100,4,2,1,60,0,0
4379,-100,4,2,0,60,0,0
5045,-100,4,2,1,60,0,0
5267,-100,4,2,0,60,0,0
7712,-100,4,2,1,60,0,0
7934,-100,4,2,0,60,0,0
11267,-100,4,2,1,60,0,0
11490,-100,4,2,0,60,0,0
12156,-100,4,2,1,60,0,0
12379,-100,4,2,0,60,0,0
14601,-100,4,2,0,30,0,0
16156,-100,4,2,0,60,0,0
25490,-100,4,2,1,60,0,0
25712,-100,4,2,0,60,0,0
32601,-100,4,2,1,60,0,0
32823,-100,4,2,0,60,0,0
36156,-100,4,2,1,60,0,0
36379,-100,4,2,0,60,0,0
45045,-100,4,2,1,60,0,0
45267,-100,4,2,0,60,0,0
46823,-100,4,2,1,60,0,0
47045,-100,4,2,0,60,0,0
50379,-100,4,2,1,60,0,0
50601,-100,4,2,0,60,0,0
53934,-100,4,2,1,60,0,0
54156,-100,4,2,0,60,0,0
57490,-100,4,2,1,60,0,0
57712,-100,4,2,0,60,0,0
59267,-100,4,2,0,30,0,0
60601,-100,4,2,0,60,0,0
61156,447.761194029851,4,2,0,25,1,0
62499,444.444444444444,4,2,0,60,1,1
74943,-100,4,2,0,60,0,0
79721,-100,4,2,1,60,0,0
79943,-100,4,2,0,60,0,0
83276,-100,4,2,1,60,0,0
83498,-100,4,2,0,60,0,0
90387,-100,4,2,1,60,0,0
90610,-100,4,2,0,60,0,0
94832,-100,4,2,1,60,0,0
95054,-100,4,2,0,60,0,0
98387,-100,4,2,1,60,0,0
98610,-100,4,2,0,60,0,0
101943,-100,4,2,1,60,0,0
102165,-100,4,2,0,60,0,0
103832,-100,4,2,0,30,0,0
105165,-100,4,2,0,60,0,0
105610,447.761194029851,4,2,0,25,1,0
106953,444.444444444444,4,2,0,60,1,1
119397,-100,4,2,0,60,0,0
121175,-100,4,2,0,60,0,1
133619,-100,4,2,0,60,0,0
152619,-100,4,2,1,60,0,0
152841,-100,4,2,0,60,0,0
156175,-100,4,2,1,60,0,0
156397,-100,4,2,0,60,0,0
163286,-100,4,2,1,60,0,0
163508,-100,4,2,0,60,0,0
167730,-100,4,2,1,60,0,0
167952,-100,4,2,0,60,0,0
171286,-100,4,2,1,60,0,0
171508,-100,4,2,0,60,0,0
174841,-100,4,2,1,60,0,0
175064,-100,4,2,0,60,0,0
176730,-100,4,2,0,30,0,0
178064,-100,4,2,0,60,0,0
178508,447.761194029851,4,2,0,25,1,0
179851,444.444444444444,4,2,0,60,1,1
192295,-100,4,2,0,60,0,0
194733,681.818181818182,4,2,0,60,1,0
196768,681.818181818182,4,2,0,60,1,1
213112,444.444444444444,4,2,0,60,1,0
213889,-100,4,2,0,30,0,0
214889,376.766091051805,4,2,0,60,1,0
216398,-100,4,2,0,60,0,1
225832,461.538461538462,4,2,0,60,1,0
227632,447.761194029851,4,2,0,60,1,1
228975,444.444444444444,4,2,0,60,1,1
241419,-100,4,2,0,60,0,0

[Colours]
Combo1 : 255,255,128
Combo2 : 255,128,128
Combo3 : 128,128,255
Combo4 : 192,192,192

[HitObjects]
256,192,268,12,0,3379,0:0:0:0:
272,104,3823,6,0,B|480:104,2,200
176,140,6045,2,0,B|224:164|224:224,1,99.9999999999999,8|0,0:0|0:0,0:0:0:0:
116,228,6934,1,8,0:0:0:0:
176,320,7379,6,0,B|220:344|280:344|332:296|332:244,1,200
432,172,8712,1,8,0:0:0:0:
484,76,9156,2,0,B|436:52|388:72,1,99.9999999999999,0|8,0:0|0:0,0:0:0:0:
300,140,10045,1,0,0:0:0:0:
188,140,10490,1,8,0:0:0:0:
120,52,10934,6,0,B|76:76|56:140|76:192|112:224,2,200
188,140,13156,2,0,B|296:140,1,99.9999999999999,8|0,0:0|0:0,0:0:0:0:
252,244,14045,1,8,0:0:0:0:
364,244,14490,1,4,0:0:0:0:
256,192,14934,12,4,16268,0:0:0:0:
100,56,19823,6,0,B|148:28|204:56,1,99.9999999999999,0|8,0:0|0:0,0:0:0:0:
152,152,20712,1,0,0:0:0:0:
248,200,21156,5,8,0:0:0:0:
248,200,21601,2,0,B|360:200,1,99.9999999999999,0|8,0:0|0:0,0:0:0:0:
372,308,22490,2,0,B|312:300|272:356,1,99.9999999999999,0|8,0:0|0:0,0:0:0:0:
228,244,23379,5,0,0:0:0:0:
128,288,23823,1,8,0:0:0:0:
112,180,24267,2,0,B|124:144|160:116|204:116,1,99.9999999999999,0|8,0:0|0:0,0:0:0:0:
296,120,25156,6,0,B|328:152|368:172|416:160|444:136,2,150,0|0|8,0:0|0:0|0:0,0:0:0:0:
304,228,26934,1,0,0:0:0:0:
304,228,27379,6,0,B|328:276|296:324,1,99.9999999999999,8|0,0:0|0:0,0:0:0:0:
200,268,28267,1,8,0:0:0:0:
200,268,28712,2,0,B|148:276|108:232,1,99.9999999999999,0|8,0:0|0:0,0:0:0:0:
188,136,29601,6,0,B|192:80|248:60,2,99.9999999999999,0|8|0,0:0|0:0|0:0,0:0:0:0:
296,148,30934,2,8,B|344:172|392:148|392:148|448:248,1,200
332,240,32267,6,0,B|376:328|376:328|344:376|272:364,1,200
196,304,33601,1,8,0:0:0:0:
104,240,34045,6,0,B|128:188|196:184,2,99.9999999999999,0|8|0,0:0|0:0|0:0,0:0:0:0:
36,152,35379,1,8,0:0:0:0:
36,152,35601,2,0,B|88:144|136:112|156:64|156:64|256:64,1,250
320,152,37156,1,8,0:0:0:0:
388,64,37601,6,0,B|436:100|428:160,1,99.9999999999999,0|8,0:0|0:0,0:0:0:0:
480,248,38490,1,0,0:0:0:0:
372,248,38934,1,8,0:0:0:0:
328,348,39379,6,0,B|276:328|264:272,1,99.9999999999999,0|8,0:0|0:0,0:0:0:0:
160,252,40267,1,0,0:0:0:0:
68,192,40712,1,8,0:0:0:0:
56,84,41156,1,0,0:0:0:0:
160,124,41601,6,0,B|208:140|268:116,1,99.9999999999999,8|0,0:0|0:0,0:0:0:0:
328,32,42490,1,8,0:0:0:0:
436,48,42934,2,0,B|480:80|480:136,1,99.9999999999999,0|8,0:0|0:0,0:0:0:0:
444,236,43823,2,0,B|416:292|340:284,1,99.9999999999999,0|8,0:0|0:0,0:0:0:0:
268,336,44712,6,0,B|220:312|176:344|176:344|132:312|72:336,1,200
176,248,46045,1,8,0:0:0:0:
77,158,46490,2,0,B|132:180|176:148|176:148|220:180|268:156,1,200
228,52,47823,1,8,0:0:0:0:
228,52,48267,6,0,B|280:36|332:64,1,99.9999999999999,4|8,0:0|0:0,0:0:0:0:
432,36,49156,2,0,B|448:100|400:132,1,99.9999999999999,0|8,0:0|0:0,0:0:0:0:
472,216,50045,2,0,B|432:248|376:252|324:212,2,150,0|0|8,0:0|0:0|0:0,0:0:0:0:
464,324,51823,6,0,B|408:324|372:360,1,99.9999999999999,0|8,0:0|0:0,0:0:0:0:
264,340,52712,2,0,B|204:332|192:264,1,99.9999999999999,0|8,0:0|0:0,0:0:0:0:
108,208,53601,2,0,B|144:168|196:156|248:176,2,150,0|0|8,0:0|0:0|0:0,0:0:0:0:
56,112,55379,6,0,B|112:112|132:60,1,99.9999999999999,0|8,0:0|0:0,0:0:0:0:
244,60,56267,2,0,B|264:113|320:113,1,99.9999999999999,0|8,0:0|0:0,0:0:0:0:
416,60,57156,2,0,B|444:88|448:132|440:168|400:200,2,150,0|0|8,0:0|0:0|0:0,0:0:0:0:
320,112,58934,1,4,0:0:0:0:
220,160,59379,6,0,B|236:212|292:220,1,99.9999999999999
200,280,60267,2,0,B|200:340|144:360,1,99.9999999999999,0|4,0:0|0:0,0:0:0:0:
84,268,61156,5,0,0:0:0:0:
68,160,61603,1,0,0:0:0:0:
168,116,62051,1,0,0:0:0:0:
276,136,62499,6,0,B|296:192|360:192,1,99.9999999999999,0|8,0:0|0:0,0:0:0:0:
388,87,63387,2,0,B|451:96|467:149,1,99.9999999999999,0|8,0:0|0:0,0:0:0:0:
456,248,64276,5,0,0:0:0:0:
388,336,64721,1,8,0:0:0:0:
280,352,65165,1,0,0:0:0:0:
188,292,65610,1,8,0:0:0:0:
280,236,66054,6,0,B|260:184|200:184,1,99.9999999999999,0|8,0:0|0:0,0:0:0:0:
280,104,66943,2,0,B|224:84|216:32,1,99.9999999999999,0|8,0:0|0:0,0:0:0:0:
136,108,67832,6,0,B|88:92|88:92|36:108,2,99.9999999999999,0|8|0,0:0|0:0|0:0,0:0:0:0:
84,204,69165,1,8,0:0:0:0:
84,204,69610,6,0,B|88:260|144:280,1,99.9999999999999,0|8,0:0|0:0,0:0:0:0:
200,184,70498,2,0,B|252:200|268:256,1,99.9999999999999,0|8,0:0|0:0,0:0:0:0:
364,308,71387,5,0,0:0:0:0:
448,236,71832,1,8,0:0:0:0:
480,132,72276,1,0,0:0:0:0:
440,28,72721,1,8,0:0:0:0:
376,116,73165,5,4,0:0:0:0:
376,116,73610,2,0,B|328:96|276:116,2,99.9999999999999
324,212,74943,1,4,0:0:0:0:
112,280,78498,6,0,B|136:336|208:336,1,99.9999999999999,0|8,0:0|0:0,0:0:0:0:
204,228,79387,1,0,0:0:0:0:
204,228,79610,2,0,B|360:228,1,150
300,132,80721,6,0,B|360:132|392:76,1,99.9999999999999,8|0,0:0|0:0,0:0:0:0:
452,176,81610,1,8,0:0:0:0:
468,284,82054,6,0,B|412:296|372:252,1,99.9999999999999,0|8,0:0|0:0,0:0:0:0:
288,324,82943,1,0,0:0:0:0:
288,324,83165,2,0,B|136:324,1,150
172,220,84276,2,0,B|116:228|76:176,2,99.9999999999999,8|0|8,0:0|0:0|0:0,0:0:0:0:
168,108,85610,1,0,0:0:0:0:
256,44,86054,6,0,B|284:96|348:84,1,99.9999999999999,8|0,0:0|0:0,0:0:0:0:
416,164,86943,2,0,B|416:212,2,50,8|0|0,0:0|0:0|0:0,0:0:0:0:
328,232,87832,2,0,B|336:288|396:308,1,99.9999999999999,8|0,0:0|0:0,0:0:0:0:
288,356,88721,2,0,B|176:356,2,99.9999999999999,8|0|8,0:0|0:0|0:0,0:0:0:0:
216,272,90054,6,0,B|156:260|120:296|120:296|64:216,1,200
168,176,91387,2,0,B|116:92|116:92|136:36|200:36,1,200,8|8,0:0|0:0,0:0:0:0:
256,124,92721,6,0,B|360:124,1,99.9999999999999,4|8,0:0|0:0,0:0:0:0:
464,152,93610,2,0,B|448:212|376:220,1,99.9999999999999,0|8,0:0|0:0,0:0:0:0:
464,300,94498,2,0,B|416:336|360:336|316:304,2,150,0|0|8,0:0|0:0|0:0,0:0:0:0:
396,216,96276,6,0,B|340:224|292:180,1,99.9999999999999,0|8,0:0|0:0,0:0:0:0:
300,80,97165,2,0,B|244:76|212:128,1,99.9999999999999,0|8,0:0|0:0,0:0:0:0:
124,60,98054,2,0,B|88:96|88:156|132:200,2,150,0|0|8,0:0|0:0|0:0,0:0:0:0:
216,124,99832,6,0,B|248:164|228:224,1,99.9999999999999,0|8,0:0|0:0,0:0:0:0:
144,288,100721,2,0,B|180:332|240:328,1,99.9999999999999,0|8,0:0|0:0,0:0:0:0:
328,280,101610,2,0,B|376:280|404:324|404:324|468:324,2,150,0|0|8,0:0|0:0|0:0,0:0:0:0:
412,212,103387,1,4,0:0:0:0:
256,192,103832,12,4,105165,0:0:0:0:
340,204,105610,6,0,B|388:180|436:204,2,99.9999999999999
248,164,106953,6,0,B|228:220|164:220,1,99.9999999999999,0|8,0:0|0:0,0:0:0:0:
136,116,107841,2,0,B|72:124|56:177,1,99.9999999999999,0|8,0:0|0:0,0:0:0:0:
68,276,108730,5,0,0:0:0:0:
136,364,109175,1,8,0:0:0:0:
244,380,109619,1,0,0:0:0:0:
336,320,110064,1,8,0:0:0:0:
244,264,110508,6,0,B|264:212|324:212,1,99.9999999999999,0|8,0:0|0:0,0:0:0:0:
244,132,111397,2,0,B|300:112|308:60,1,99.9999999999999,0|8,0:0|0:0,0:0:0:0:
388,136,112286,6,0,B|436:120|436:120|488:136,2,99.9999999999999,0|8|0,0:0|0:0|0:0,0:0:0:0:
440,232,113619,1,8,0:0:0:0:
440,232,114064,6,0,B|436:288|380:308,1,99.9999999999999,0|8,0:0|0:0,0:0:0:0:
324,212,114952,2,0,B|272:228|256:284,1,99.9999999999999,0|8,0:0|0:0,0:0:0:0:
160,336,115841,5,0,0:0:0:0:
76,264,116286,1,8,0:0:0:0:
44,160,116730,1,0,0:0:0:0:
84,56,117175,1,8,0:0:0:0:
148,144,117619,5,4,0:0:0:0:
148,144,118064,2,0,B|196:124|248:144,2,99.9999999999999
200,240,119397,1,4,0:0:0:0:
256,192,119841,12,0,121175,0:0:0:0:
216,60,121619,6,0,B|164:72|140:120,1,99.9999999999999,8|0,0:0|0:0,0:0:0:0:
64,200,122508,1,8,0:0:0:0:
164,248,122952,6,0,B|224:252|240:312,1,99.9999999999999,0|8,0:0|0:0,0:0:0:0:
344,280,123841,1,0,0:0:0:0:
404,188,124286,1,8,0:0:0:0:
420,80,124730,6,0,B|364:72|324:112,1,99.9999999999999,0|8,0:0|0:0,0:0:0:0:
244,40,125619,2,0,B|136:40,1,99.9999999999999,0|8,0:0|0:0,0:0:0:0:
80,128,126508,5,0,0:0:0:0:
116,232,126952,1,8,0:0:0:0:
200,304,127397,1,0,0:0:0:0:
308,308,127841,1,8,0:0:0:0:
256,212,128286,6,0,B|300:184|360:208,1,99.9999999999999,0|8,0:0|0:0,0:0:0:0:
428,124,129175,1,0,0:0:0:0:
348,48,129619,1,8,0:0:0:0:
428,124,130064,6,0,B|472:156|460:224,1,99.9999999999999,0|8,0:0|0:0,0:0:0:0:
380,288,130952,2,0,B|268:288,2,99.9999999999999,0|8|4,0:0|0:0|0:0,0:0:0:0:
312,200,132286,6,0,B|256:180|208:224,2,99.9999999999999,4|0|0,0:0|0:0|0:0,0:0:0:0:
264,100,133619,1,4,0:0:0:0:
256,192,133841,12,4,137175,0:0:0:0:
400,104,151397,6,0,B|376:48|304:48,1,99.9999999999999,0|8,0:0|0:0,0:0:0:0:
308,156,152286,1,0,0:0:0:0:
308,156,152730,2,0,B|200:156,1,99.9999999999999,8|0,0:0|0:0,0:0:0:0:
212,252,153619,6,0,B|152:252|120:308,1,99.9999999999999,8|0,0:0|0:0,0:0:0:0:
60,208,154508,1,8,0:0:0:0:
44,100,154953,6,0,B|100:88|140:132,1,99.9999999999999,0|8,0:0|0:0,0:0:0:0:
224,60,155841,1,0,0:0:0:0:
224,60,156064,2,0,B|376:60,1,150
340,164,157175,2,0,B|396:156|436:208,2,99.9999999999999,8|0|8,0:0|0:0|0:0,0:0:0:0:
344,276,158508,1,0,0:0:0:0:
256,340,158953,6,0,B|228:288|164:300,1,99.9999999999999,8|0,0:0|0:0,0:0:0:0:
96,220,159841,2,0,B|96:172,2,50,8|0|0,0:0|0:0|0:0,0:0:0:0:
184,152,160730,2,0,B|176:96|116:76,1,99.9999999999999,8|0,0:0|0:0,0:0:0:0:
224,28,161619,2,0,B|336:28,2,99.9999999999999,8|0|8,0:0|0:0|0:0,0:0:0:0:
296,112,162953,6,0,B|356:124|392:88|392:88|448:168,1,200
344,208,164286,2,0,B|396:292|396:292|376:348|312:348,1,200,8|8,0:0|0:0,0:0:0:0:
256,260,165619,6,0,B|152:260,1,99.9999999999999,4|8,0:0|0:0,0:0:0:0:
48,232,166508,2,0,B|64:172|136:164,1,99.9999999999999,0|8,0:0|0:0,0:0:0:0:
48,84,167397,2,0,B|96:48|152:48|196:80,2,150,0|0|8,0:0|0:0|0:0,0:0:0:0:
116,168,169175,6,0,B|172:160|220:204,1,99.9999999999999,0|8,0:0|0:0,0:0:0:0:
212,304,170064,2,0,B|268:308|300:256,1,99.9999999999999,0|8,0:0|0:0,0:0:0:0:
388,324,170953,2,0,B|424:288|424:216|380:184,2,150,0|0|8,0:0|0:0|0:0,0:0:0:0:
296,260,172730,6,0,B|264:220|284:160,1,99.9999999999999,0|8,0:0|0:0,0:0:0:0:
368,96,173619,2,0,B|332:52|272:56,1,99.9999999999999,0|8,0:0|0:0,0:0:0:0:
184,104,174508,2,0,B|136:104|108:60|108:60|44:60,2,150,0|0|8,0:0|0:0|0:0,0:0:0:0:
100,172,176286,1,4,0:0:0:0:
256,192,176730,12,4,178064,0:0:0:0:
176,168,178508,6,0,B|128:192|80:168,2,99.9999999999999
264,236,179851,6,0,B|284:180|348:180,1,99.9999999999999,0|8,0:0|0:0,0:0:0:0:
376,284,180739,2,0,B|439:275|455:222,1,99.9999999999999,0|8,0:0|0:0,0:0:0:0:
444,124,181628,5,0,0:0:0:0:
376,36,182073,1,8,0:0:0:0:
268,20,182517,1,0,0:0:0:0:
176,80,182962,1,8,0:0:0:0:
268,136,183406,6,0,B|248:188|188:188,1,99.9999999999999,0|8,0:0|0:0,0:0:0:0:
268,268,184295,2,0,B|212:288|204:340,1,99.9999999999999,0|8,0:0|0:0,0:0:0:0:
124,264,185184,6,0,B|76:280|76:280|24:264,2,99.9999999999999,0|8|0,0:0|0:0|0:0,0:0:0:0:
72,168,186517,1,8,0:0:0:0:
72,168,186962,6,0,B|76:112|132:92,1,99.9999999999999,0|8,0:0|0:0,0:0:0:0:
188,188,187851,2,0,B|240:172|256:116,1,99.9999999999999,0|8,0:0|0:0,0:0:0:0:
352,64,188739,5,0,0:0:0:0:
436,136,189184,1,8,0:0:0:0:
468,240,189628,1,0,0:0:0:0:
428,344,190073,1,8,0:0:0:0:
364,256,190517,5,4,0:0:0:0:
364,256,190962,2,0,B|316:276|264:256,2,99.9999999999999
312,160,192295,1,4,0:0:0:0:
88,72,194733,6,0,B|200:72,2,99.9999999999999
144,168,196768,6,0,B|200:180|208:244,1,99.9999999999999,0|8,0:0|0:0,0:0:0:0:
272,328,198131,2,0,B|324:300|312:240,1,99.9999999999999,0|8,0:0|0:0,0:0:0:0:
404,308,199495,5,0,0:0:0:0:
468,220,200177,1,8,0:0:0:0:
448,112,200858,1,0,0:0:0:0:
344,76,201540,1,8,0:0:0:0:
292,172,202222,6,0,B|236:156|236:88,1,99.9999999999999,0|8,0:0|0:0,0:0:0:0:
168,184,203586,2,0,B|148:244|80:248,2,99.9999999999999,0|8|0,0:0|0:0|0:0,0:0:0:0:
64,148,205631,1,8,0:0:0:0:
148,76,206313,2,0,B|208:76,2,50,0|0|8,0:0|0:0|0:0,0:0:0:0:
232,148,207677,6,0,B|304:220,1,99.9999999999999,0|8,0:0|0:0,0:0:0:0:
228,300,209040,2,0,B|264:348|328:336,1,99.9999999999999,0|8,0:0|0:0,0:0:0:0:
412,284,210404,5,0,0:0:0:0:
488,204,211086,1,8,0:0:0:0:
472,96,211768,1,0,0:0:0:0:
376,44,212449,1,8,0:0:0:0:
224,116,213112,6,4,B|176:84|120:120,1,99.9999999999999
180,212,214000,6,0,B|192:264|252:276,1,99.9999999999999
304,160,214889,1,8,0:0:0:0:
256,192,215265,12,0,216396,0:0:0:0:
156,152,216772,6,0,B|132:200|160:248,1,99.9999999999999,8|0,0:0|0:0,0:0:0:0:
224,336,217526,1,8,0:0:0:0:
320,280,217903,6,0,B|376:280|408:328,1,99.9999999999999,0|8,0:0|0:0,0:0:0:0:
484,248,218656,1,0,0:0:0:0:
444,144,219033,1,8,0:0:0:0:
348,92,219410,6,0,B|304:128|252:92,1,99.9999999999999,0|8,0:0|0:0,0:0:0:0:
172,164,220163,1,0,0:0:0:0:
140,268,220540,1,8,0:0:0:0:
244,236,220917,2,0,B|344:264,2,99.9999999999999,0|8|0,0:0|0:0|0:0,0:0:0:0:
316,140,222047,1,8,0:0:0:0:
380,44,222424,6,0,B|432:68|432:124,1,99.9999999999999,0|8,0:0|0:0,0:0:0:0:
400,240,223177,1,0,0:0:0:0:
312,324,223554,1,8,0:0:0:0:
192,304,223931,6,0,B|144:276|88:304,1,99.9999999999999,0|8,0:0|0:0,0:0:0:0:
40,192,224684,1,0,0:0:0:0:
68,76,225061,1,8,0:0:0:0:
180,32,225438,1,4,0:0:0:0:
268,116,225832,6,0,B|304:160|368:152,2,99.9999999999999,4|0|0,0:0|0:0|0:0,0:0:0:0:
184,204,227216,1,4,0:0:0:0:
256,192,227632,12,0,228975,0:0:0:0:
372,264,229419,6,0,B|348:312|296:324,1,99.9999999999999,8|0,0:0|0:0,0:0:0:0:
276,216,230308,1,8,0:0:0:0:
348,136,230752,6,0,B|288:132|272:72,1,99.9999999999999,0|8,0:0|0:0,0:0:0:0:
168,104,231641,1,0,0:0:0:0:
108,196,232086,1,8,0:0:0:0:
92,304,232530,6,0,B|148:312|188:272,1,99.9999999999999,0|8,0:0|0:0,0:0:0:0:
268,344,233419,2,0,B|376:344,1,99.9999999999999,0|8,0:0|0:0,0:0:0:0:
432,256,234308,5,0,0:0:0:0:
396,152,234752,1,8,0:0:0:0:
312,80,235197,1,0,0:0:0:0:
204,76,235641,1,8,0:0:0:0:
256,172,236086,6,0,B|212:200|152:176,1,99.9999999999999,0|8,0:0|0:0,0:0:0:0:
84,260,236975,1,0,0:0:0:0:
164,336,237419,1,8,0:0:0:0:
84,260,237863,6,0,B|40:228|52:160,1,99.9999999999999,0|8,0:0|0:0,0:0:0:0:
132,96,238752,2,0,B|244:96,2,99.9999999999999,0|8|4,0:0|0:0|0:0,0:0:0:0:
200,184,240086,6,0,B|256:204|304:160,2,99.9999999999999,4|0|0,0:0|0:0|0:0,0:0:0:0:
248,284,241419,1,4,0:0:0:0:
