osu file format v13

[General]
AudioFilename: Bastille - Pompeii.mp3
AudioLeadIn: 0
PreviewTime: -1
Countdown: 1
SampleSet: Normal
StackLeniency: 0.7
Mode: 0
LetterboxInBreaks: 1
WidescreenStoryboard: 0

[Editor]
DistanceSpacing: 0.8
BeatDivisor: 6
GridSize: 4
TimelineZoom: 1

[Metadata]
Title:Pompeii
TitleUnicode:Pompeii
Artist:Bastille
ArtistUnicode:Bastille
Creator:CABERMAN
Version:Insane
Source:youtube
Tags:pompeii vesuvius caberman
BeatmapID:494682
BeatmapSetID:210257

[Difficulty]
HPDrainRate:6
CircleSize:4.2
OverallDifficulty:8
ApproachRate:9
SliderMultiplier:2.7
SliderTickRate:4

[Events]
//Background and Video events
//Break Periods
//Storyboard Layer 0 (Background)
//Storyboard Layer 1 (Fail)
//Storyboard Layer 2 (Pass)
//Storyboard Layer 3 (Foreground)
//Storyboard Sound Samples
//Background Colour Transformations
3,100,163,162,255

[TimingPoints]
15356,472.44094488189,4,1,0,100,1,0
15828,-200,4,1,0,100,0,0
29703,-83.3333333333333,4,1,0,100,0,0
47486,-71.4285714285714,4,1,0,100,0,1

[HitObjects]
112,144,15356,5,0,0:0:0:0:
392,140,15670,1,0,0:0:0:0:
424,276,15985,2,0,P|256:328|132:312,1,292.5,0|0,0:0|0:0,0:0:0:0:
220,52,17245,5,0,0:0:0:0:
288,172,17560,1,0,0:0:0:0:
260,312,17796,2,0,P|344:232|348:156,1,180,0|0,0:0|0:0,0:0:0:0:
212,68,18741,1,0,0:0:0:0:
112,200,18978,1,0,0:0:0:0:
272,180,19844,6,0,L|440:180,2,157.5,0|0|0,0:0|0:0|0:0,0:0:0:0:
56,184,21576,1,0,0:0:0:0:
412,68,22915,5,0,0:0:0:0:
244,204,23151,1,0,0:0:0:0:
256,192,23387,12,0,24490,0:0:0:0:
384,192,24804,5,0,0:0:0:0:
120,192,25041,1,0,0:0:0:0:
256,36,25434,2,0,B|176:112|264:168|312:252|252:296|244:356,1,337.5,0|0,0:0|0:0,0:0:0:0:
256,200,27481,1,0,0:0:0:0:
268,72,28111,2,0,L|352:72,1,67.5,0|0,0:0|0:0,0:0:0:0:
256,192,28584,12,0,29686,0:0:0:0:
400,88,30001,5,0,0:0:0:0:
256,148,30237,1,0,0:0:0:0:
112,80,30474,2,0,P|72:152|88:272,1,161.999995056153,0|0,0:0|0:0,0:0:0:0:
260,232,30946,5,0,0:0:0:0:
208,64,31182,1,0,0:0:0:0:
352,96,31418,1,0,0:0:0:0:
432,212,31733,2,0,L|308:264|308:264,1,107.999996704102,0|0,0:0|0:0,0:0:0:0:
184,300,32127,1,0,0:0:0:0:
44,192,32363,5,0,0:0:0:0:
144,56,32600,1,0,0:0:0:0:
296,56,32836,2,0,P|368:112|392:200,1,161.999995056153,0|0,0:0|0:0,0:0:0:0:
384,200,33308,1,0,0:0:0:0:
372,240,33544,6,0,P|240:308|204:300,1,161.999995056153,0|0,0:0|0:0,0:0:0:0:
76,228,34017,1,0,0:0:0:0:
200,144,34253,1,0,0:0:0:0:
80,48,34489,1,0,0:0:0:0:
68,132,34726,2,0,P|144:184|200:272,1,161.999995056153,0|0,0:0|0:0,0:0:0:0:
288,324,35198,5,0,0:0:0:0:
116,284,35434,1,0,0:0:0:0:
232,192,35670,1,0,0:0:0:0:
332,84,35907,2,0,P|400:160|412:248,1,161.999995056153,0|0,0:0|0:0,0:0:0:0:
356,280,36379,1,0,0:0:0:0:
184,296,36615,5,0,0:0:0:0:
80,236,36852,1,0,0:0:0:0:
152,132,37088,1,0,0:0:0:0:
232,56,37324,2,0,P|332:64|388:96,1,161.999995056153,0|0,0:0|0:0,0:0:0:0:
432,212,37796,2,0,P|332:192|248:236,1,161.999995056153,0|0,0:0|0:0,0:0:0:0:
168,280,38269,5,0,0:0:0:0:
340,312,38505,1,0,0:0:0:0:
384,136,38741,1,0,0:0:0:0:
244,104,38978,2,0,P|128:124|60:168,1,161.999995056153,0|0,0:0|0:0,0:0:0:0:
52,272,39450,1,0,0:0:0:0:
216,204,39686,5,0,0:0:0:0:
76,68,39922,1,0,0:0:0:0:
212,112,40159,2,0,P|152:176|152:264,1,161.999995056153,0|0,0:0|0:0,0:0:0:0:
304,260,40631,1,0,0:0:0:0:
148,320,40867,1,0,0:0:0:0:
88,180,41104,6,0,P|172:152|296:144,1,161.999995056153,0|0,0:0|0:0,0:0:0:0:
396,164,41576,1,0,0:0:0:0:
460,296,41812,1,0,0:0:0:0:
304,336,42048,1,0,0:0:0:0:
232,272,42285,2,0,B|224:176|272:128|296:116,1,161.999995056153,0|0,0:0|0:0,0:0:0:0:
392,108,42757,6,0,P|464:200|464:280,1,161.999995056153,0|0,0:0|0:0,0:0:0:0:
392,320,43230,1,0,0:0:0:0:
272,156,43466,1,0,0:0:0:0:
160,272,43702,2,0,P|76:188|48:108,1,161.999995056153,0|0,0:0|0:0,0:0:0:0:
108,88,44174,1,0,0:0:0:0:
240,52,44411,5,0,0:0:0:0:
356,136,44647,1,0,0:0:0:0:
444,220,44966,1,0,0:0:0:0:
444,56,45124,1,0,0:0:0:0:
292,176,45281,1,0,0:0:0:0:
368,268,45753,6,0,P|280:316|216:272,1,161.999995056153,0|0,0:0|0:0,0:0:0:0:
196,276,46226,1,0,0:0:0:0:
160,256,46462,1,0,0:0:0:0:
44,120,46935,2,0,P|136:88|264:164,1,215.999993408203,0|0,0:0|0:0,0:0:0:0:
352,104,47407,5,0,0:0:0:0:
420,188,47643,1,0,0:0:0:0:
352,272,47879,1,0,0:0:0:0:
256,208,48116,2,0,P|148:140|24:152,1,251.999992309571,0|0,0:0|0:0,0:0:0:0:
72,256,48588,5,0,0:0:0:0:
168,168,48824,1,0,0:0:0:0:
64,56,49061,1,0,0:0:0:0:
228,64,49297,2,0,P|336:96|436:200,1,251.999992309571,0|0,0:0|0:0,0:0:0:0:
432,228,49844,1,0,0:0:0:0:
288,312,50080,5,0,0:0:0:0:
244,288,50316,2,0,P|212:156|312:56,1,251.999992309571,0|0,0:0|0:0,0:0:0:0:
320,144,50946,1,0,0:0:0:0:
208,192,51261,1,0,0:0:0:0:
168,336,51576,2,0,P|60:228|48:120,1,251.999992309571,0|0,0:0|0:0,0:0:0:0:
148,80,52206,5,0,0:0:0:0:
272,168,52442,1,0,0:0:0:0:
368,84,52678,1,0,0:0:0:0:
268,80,52915,2,0,P|168:156|64:280,1,251.999992309571,0|0,0:0|0:0,0:0:0:0:
168,304,53466,1,0,0:0:0:0:
320,264,53781,5,0,0:0:0:0:
144,140,54017,1,0,0:0:0:0:
48,56,54253,2,0,P|192:64|284:136,1,251.999992309571,0|0,0:0|0:0,0:0:0:0:
328,152,54726,1,0,0:0:0:0:
248,268,54963,1,0,0:0:0:0:
400,280,55199,5,0,0:0:0:0:
436,160,55434,1,0,0:0:0:0:
328,56,55670,1,0,0:0:0:0:
216,56,55907,2,0,P|108:132|60:208,1,188.999994232178,0|0,0:0|0:0,0:0:0:0:
88,216,56379,2,0,P|212:296|272:296,1,188.999994232178,0|0,0:0|0:0,0:0:0:0:
356,232,56852,5,0,0:0:0:0:
256,132,57088,1,0,0:0:0:0:
104,184,57324,1,0,0:0:0:0:
216,268,57560,2,0,P|264:180|372:96,1,188.999994232178,0|0,0:0|0:0,0:0:0:0:
400,80,58033,1,0,0:0:0:0:
432,216,58269,5,0,0:0:0:0:
276,164,58505,1,0,0:0:0:0:
184,60,58741,2,0,P|100:128|40:236,1,188.999994232178,0|0,0:0|0:0,0:0:0:0:
96,256,59214,2,0,P|152:172|220:116,1,188.999994232178,0|0,0:0|0:0,0:0:0:0:
396,52,59686,1,0,0:0:0:0:
444,180,59922,5,0,0:0:0:0:
348,308,60159,1,0,0:0:0:0:
180,336,60395,1,0,0:0:0:0:
120,264,60631,2,0,P|72:160|72:84,1,188.999994232178,0|0,0:0|0:0,0:0:0:0:
208,176,61104,1,0,0:0:0:0:
