osu file format v14

[General]
AudioFilename: DJ Sona Concussive (Bassnectar x Renholder).mp3
AudioLeadIn: 0
PreviewTime: -1
Countdown: 1
SampleSet: Soft
StackLeniency: 0.7
Mode: 3
LetterboxInBreaks: 1
SpecialStyle: 0
WidescreenStoryboard: 0

[Editor]
DistanceSpacing: 1
BeatDivisor: 4
GridSize: 32
TimelineZoom: 1.4

[Metadata]
Title:DJ Sona Concussive
TitleUnicode:DJ Sona Concussive
Artist:Bassnectar x Renholder
ArtistUnicode:Bassnectar x Renholdër
Creator:Zillah
Version:HD
Source:
Tags:
BeatmapID:639111
BeatmapSetID:282647

[Difficulty]
HPDrainRate:8
CircleSize:7
OverallDifficulty:7
ApproachRate:5
SliderMultiplier:1.4
SliderTickRate:1

[Events]
//Background and Video events
0,0,"DJSona-Wallpaper-Concussive.jpg",0,0
//Break Periods
//Storyboard Layer 0 (Background)
//Storyboard Layer 1 (Fail)
//Storyboard Layer 2 (Pass)
//Storyboard Layer 3 (Foreground)
//Storyboard Sound Samples

[TimingPoints]
0,400,4,2,0,10,1,0

[HitObjects]
36,192,0,5,0,0:0:0:0:
182,192,200,1,0,0:0:0:0:
329,192,400,1,0,0:0:0:0:
109,192,600,1,0,0:0:0:0:
182,192,800,1,0,0:0:0:0:
329,192,1000,1,0,0:0:0:0:
36,192,1200,1,0,0:0:0:0:
182,192,1400,1,0,0:0:0:0:
329,192,1600,1,0,0:0:0:0:
109,192,1800,1,0,0:0:0:0:
182,192,2000,1,0,0:0:0:0:
329,192,2200,1,0,0:0:0:0:
36,192,2400,1,0,0:0:0:0:
182,192,2600,1,0,0:0:0:0:
329,192,2800,1,0,0:0:0:0:
402,192,3000,1,0,0:0:0:0:
36,192,3200,1,0,0:0:0:0:
182,192,3400,1,0,0:0:0:0:
329,192,3600,1,0,0:0:0:0:
109,192,3800,1,0,0:0:0:0:
182,192,4000,1,0,0:0:0:0:
329,192,4200,1,0,0:0:0:0:
36,192,4400,1,0,0:0:0:0:
182,192,4600,1,0,0:0:0:0:
329,192,4800,1,0,0:0:0:0:
256,192,4900,1,0,0:0:0:0:
109,192,5000,1,0,0:0:0:0:
182,192,5200,1,0,0:0:0:0:
329,192,5400,1,0,0:0:0:0:
36,192,5600,1,0,0:0:0:0:
182,192,5800,1,0,0:0:0:0:
329,192,6000,1,0,0:0:0:0:
402,192,6200,1,0,0:0:0:0:
475,192,6400,1,0,0:0:0:0:
329,192,6600,1,0,0:0:0:0:
182,192,6800,1,0,0:0:0:0:
475,192,7000,1,0,0:0:0:0:
329,192,7200,1,0,0:0:0:0:
182,192,7400,1,0,0:0:0:0:
402,192,7600,1,0,0:0:0:0:
329,192,7800,1,0,0:0:0:0:
182,192,8000,1,0,0:0:0:0:
475,192,8200,1,0,0:0:0:0:
329,192,8400,1,0,0:0:0:0:
182,192,8600,1,0,0:0:0:0:
402,192,8800,1,0,0:0:0:0:
329,192,9000,1,0,0:0:0:0:
182,192,9200,1,0,0:0:0:0:
402,192,9400,1,0,0:0:0:0:
475,192,9600,1,0,0:0:0:0:
329,192,9800,1,0,0:0:0:0:
182,192,10000,1,0,0:0:0:0:
402,192,10200,1,0,0:0:0:0:
329,192,10400,1,0,0:0:0:0:
182,192,10600,1,0,0:0:0:0:
109,192,10800,1,0,0:0:0:0:
329,192,11000,1,0,0:0:0:0:
182,192,11200,1,0,0:0:0:0:
475,192,11400,1,0,0:0:0:0:
329,192,11600,1,0,0:0:0:0:
182,192,11800,1,0,0:0:0:0:
402,192,12000,1,0,0:0:0:0:
329,192,12200,1,0,0:0:0:0:
182,192,12400,1,0,0:0:0:0:
109,192,12600,1,0,0:0:0:0:
182,192,12800,1,0,0:0:0:0:
256,192,13000,1,0,0:0:0:0:
402,192,13200,1,0,0:0:0:0:
109,192,13400,1,0,0:0:0:0:
256,192,13600,1,0,0:0:0:0:
402,192,13800,1,0,0:0:0:0:
182,192,14000,1,0,0:0:0:0:
256,192,14200,1,0,0:0:0:0:
402,192,14400,1,0,0:0:0:0:
109,192,14600,1,0,0:0:0:0:
256,192,14800,1,0,0:0:0:0:
402,192,15000,1,0,0:0:0:0:
182,192,15200,1,0,0:0:0:0:
256,192,15400,1,0,0:0:0:0:
402,192,15600,1,0,0:0:0:0:
475,192,15800,1,0,0:0:0:0:
109,192,16000,1,0,0:0:0:0:
256,192,16200,1,0,0:0:0:0:
402,192,16400,1,0,0:0:0:0:
182,192,16600,1,0,0:0:0:0:
256,192,16800,1,0,0:0:0:0:
402,192,17000,1,0,0:0:0:0:
109,192,17200,1,0,0:0:0:0:
182,192,17400,1,0,0:0:0:0:
402,192,17600,1,0,0:0:0:0:
109,192,17800,1,0,0:0:0:0:
256,192,18000,1,0,0:0:0:0:
402,192,18200,1,0,0:0:0:0:
109,192,18400,1,0,0:0:0:0:
182,192,18600,1,0,0:0:0:0:
402,192,18800,1,0,0:0:0:0:
475,192,19000,1,0,0:0:0:0:
329,192,19200,1,0,0:0:0:0:
256,192,19200,128,0,20800:0:0:0:0:
36,192,19200,1,0,0:0:0:0:
109,192,19400,1,0,0:0:0:0:
475,192,19600,1,0,0:0:0:0:
109,192,19800,1,0,0:0:0:0:
329,192,20000,1,0,0:0:0:0:
475,192,20200,1,0,0:0:0:0:
36,192,20400,1,0,0:0:0:0:
109,192,20600,1,0,0:0:0:0:
182,192,20800,128,0,22400:0:0:0:0:
475,192,20800,1,0,0:0:0:0:
109,192,21000,1,0,0:0:0:0:
256,192,21200,1,0,0:0:0:0:
475,192,21400,1,0,0:0:0:0:
36,192,21600,1,0,0:0:0:0:
109,192,21800,1,0,0:0:0:0:
475,192,22000,1,0,0:0:0:0:
329,192,22200,1,0,0:0:0:0:
109,192,22400,128,0,24000:0:0:0:0:
475,192,22400,1,0,0:0:0:0:
402,192,22600,1,0,0:0:0:0:
256,192,22800,1,0,0:0:0:0:
475,192,23000,1,0,0:0:0:0:
329,192,23200,1,0,0:0:0:0:
256,192,23400,1,0,0:0:0:0:
475,192,23600,1,0,0:0:0:0:
402,192,23800,1,0,0:0:0:0:
256,192,24000,1,0,0:0:0:0:
36,192,24000,128,0,25600:0:0:0:0:
475,192,24200,1,0,0:0:0:0:
329,192,24400,1,0,0:0:0:0:
256,192,24600,1,0,0:0:0:0:
475,192,24800,1,0,0:0:0:0:
329,192,25000,1,0,0:0:0:0:
256,192,25200,1,0,0:0:0:0:
475,192,25200,1,0,0:0:0:0:
402,192,25400,1,0,0:0:0:0:
475,192,25600,1,0,0:0:0:0:
329,192,25600,1,0,0:0:0:0:
109,192,25600,128,0,25800:0:0:0:0:
402,192,25700,1,0,0:0:0:0:
182,192,25800,128,0,26000:0:0:0:0:
475,192,25800,1,0,0:0:0:0:
329,192,25900,1,0,0:0:0:0:
256,192,26000,128,0,26200:0:0:0:0:
402,192,26000,1,0,0:0:0:0:
475,192,26100,1,0,0:0:0:0:
109,192,26200,128,0,26400:0:0:0:0:
329,192,26200,1,0,0:0:0:0:
182,192,26400,128,0,26600:0:0:0:0:
475,192,26400,1,0,0:0:0:0:
402,192,26400,1,0,0:0:0:0:
256,192,26600,128,0,26800:0:0:0:0:
329,192,26600,1,0,0:0:0:0:
475,192,26700,1,0,0:0:0:0:
36,192,26800,128,0,27000:0:0:0:0:
402,192,26800,1,0,0:0:0:0:
329,192,26900,1,0,0:0:0:0:
182,192,27000,128,0,27200:0:0:0:0:
475,192,27000,1,0,0:0:0:0:
109,192,27000,1,0,0:0:0:0:
402,192,27100,1,0,0:0:0:0:
256,192,27200,128,0,27400:0:0:0:0:
475,192,27200,1,0,0:0:0:0:
36,192,27200,1,0,0:0:0:0:
329,192,27200,1,0,0:0:0:0:
402,192,27300,1,0,0:0:0:0:
109,192,27400,128,0,27600:0:0:0:0:
475,192,27400,1,0,0:0:0:0:
182,192,27400,1,0,0:0:0:0:
329,192,27500,1,0,0:0:0:0:
182,192,27600,128,0,27800:0:0:0:0:
402,192,27600,1,0,0:0:0:0:
36,192,27600,1,0,0:0:0:0:
475,192,27700,1,0,0:0:0:0:
329,192,27800,128,0,28000:0:0:0:0:
256,192,27800,1,0,0:0:0:0:
36,192,28000,128,0,28200:0:0:0:0:
475,192,28000,1,0,0:0:0:0:
402,192,28000,1,0,0:0:0:0:
109,192,28000,1,0,0:0:0:0:
182,192,28200,128,0,28400:0:0:0:0:
329,192,28200,1,0,0:0:0:0:
256,192,28400,128,0,28600:0:0:0:0:
475,192,28400,1,0,0:0:0:0:
402,192,28500,1,0,0:0:0:0:
329,192,28600,128,0,28800:0:0:0:0:
475,192,28600,1,0,0:0:0:0:
36,192,28600,1,0,0:0:0:0:
109,192,28700,1,0,0:0:0:0:
36,192,28800,128,0,29000:0:0:0:0:
182,192,28800,1,0,0:0:0:0:
475,192,28800,1,0,0:0:0:0:
182,192,29000,128,0,29200:0:0:0:0:
402,192,29000,1,0,0:0:0:0:
329,192,29200,128,0,29400:0:0:0:0:
109,192,29200,1,0,0:0:0:0:
475,192,29200,1,0,0:0:0:0:
256,192,29200,1,0,0:0:0:0:
109,192,29400,128,0,29600:0:0:0:0:
402,192,29400,1,0,0:0:0:0:
182,192,29600,128,0,29800:0:0:0:0:
475,192,29600,1,0,0:0:0:0:
256,192,29600,1,0,0:0:0:0:
36,192,29600,1,0,0:0:0:0:
329,192,29800,128,0,30000:0:0:0:0:
402,192,29800,1,0,0:0:0:0:
256,192,29800,1,0,0:0:0:0:
36,192,30000,128,0,30200:0:0:0:0:
475,192,30000,1,0,0:0:0:0:
182,192,30200,128,0,30400:0:0:0:0:
402,192,30200,1,0,0:0:0:0:
109,192,30200,1,0,0:0:0:0:
329,192,30400,128,0,30600:0:0:0:0:
475,192,30400,1,0,0:0:0:0:
36,192,30400,1,0,0:0:0:0:
402,192,30500,1,0,0:0:0:0:
109,192,30600,128,0,30800:0:0:0:0:
475,192,30600,1,0,0:0:0:0:
256,192,30600,1,0,0:0:0:0:
402,192,30700,1,0,0:0:0:0:
182,192,30800,128,0,31000:0:0:0:0:
36,192,30800,1,0,0:0:0:0:
475,192,30800,1,0,0:0:0:0:
256,192,30900,1,0,0:0:0:0:
329,192,31000,128,0,31200:0:0:0:0:
475,192,31000,128,0,31200:0:0:0:0:
402,192,31000,1,0,0:0:0:0:
256,192,31100,1,0,0:0:0:0:
36,192,31200,128,0,31400:0:0:0:0:
182,192,31200,128,0,31400:0:0:0:0:
109,192,31200,1,0,0:0:0:0:
402,192,31200,1,0,0:0:0:0:
256,192,31400,128,0,31600:0:0:0:0:
329,192,31400,1,0,0:0:0:0:
475,192,31400,1,0,0:0:0:0:
329,192,31600,128,0,31800:0:0:0:0:
109,192,31600,1,0,0:0:0:0:
36,192,31700,1,0,0:0:0:0:
402,192,31800,128,0,32000:0:0:0:0:
182,192,31800,1,0,0:0:0:0:
36,192,31900,1,0,0:0:0:0:
256,192,32000,1,0,0:0:0:0:
109,192,32000,128,0,32200:0:0:0:0:
329,192,32000,1,0,0:0:0:0:
475,192,32000,1,0,0:0:0:0:
402,192,32100,1,0,0:0:0:0:
182,192,32200,128,0,32400:0:0:0:0:
475,192,32200,1,0,0:0:0:0:
329,192,32300,1,0,0:0:0:0:
402,192,32400,1,0,0:0:0:0:
256,192,32400,128,0,32600:0:0:0:0:
475,192,32500,1,0,0:0:0:0:
109,192,32600,128,0,32800:0:0:0:0:
329,192,32600,1,0,0:0:0:0:
475,192,32800,1,0,0:0:0:0:
182,192,32800,128,0,33000:0:0:0:0:
402,192,32800,1,0,0:0:0:0:
256,192,33000,128,0,33200:0:0:0:0:
329,192,33000,1,0,0:0:0:0:
475,192,33100,1,0,0:0:0:0:
402,192,33200,1,0,0:0:0:0:
36,192,33200,128,0,33400:0:0:0:0:
329,192,33300,1,0,0:0:0:0:
109,192,33400,1,0,0:0:0:0:
182,192,33400,128,0,33600:0:0:0:0:
475,192,33400,1,0,0:0:0:0:
402,192,33500,1,0,0:0:0:0:
329,192,33600,1,0,0:0:0:0:
475,192,33600,1,0,0:0:0:0:
36,192,33600,1,0,0:0:0:0:
256,192,33600,128,0,33800:0:0:0:0:
402,192,33700,1,0,0:0:0:0:
109,192,33800,128,0,34000:0:0:0:0:
182,192,33800,1,0,0:0:0:0:
475,192,33800,1,0,0:0:0:0:
329,192,33900,1,0,0:0:0:0:
402,192,34000,1,0,0:0:0:0:
182,192,34000,128,0,34200:0:0:0:0:
36,192,34000,1,0,0:0:0:0:
475,192,34100,1,0,0:0:0:0:
329,192,34200,128,0,34400:0:0:0:0:
256,192,34200,1,0,0:0:0:0:
475,192,34400,1,0,0:0:0:0:
402,192,34400,1,0,0:0:0:0:
109,192,34400,1,0,0:0:0:0:
36,192,34400,128,0,34600:0:0:0:0:
182,192,34600,128,0,34800:0:0:0:0:
329,192,34600,1,0,0:0:0:0:
256,192,34800,128,0,35000:0:0:0:0:
475,192,34800,1,0,0:0:0:0:
402,192,34900,1,0,0:0:0:0:
36,192,35000,1,0,0:0:0:0:
329,192,35000,128,0,35200:0:0:0:0:
475,192,35000,1,0,0:0:0:0:
109,192,35100,1,0,0:0:0:0:
475,192,35200,1,0,0:0:0:0:
182,192,35200,1,0,0:0:0:0:
36,192,35200,128,0,35400:0:0:0:0:
402,192,35400,1,0,0:0:0:0:
182,192,35400,128,0,35600:0:0:0:0:
329,192,35600,128,0,35800:0:0:0:0:
475,192,35600,1,0,0:0:0:0:
256,192,35600,1,0,0:0:0:0:
109,192,35600,1,0,0:0:0:0:
109,192,35800,128,0,36000:0:0:0:0:
402,192,35800,1,0,0:0:0:0:
36,192,36000,1,0,0:0:0:0:
182,192,36000,128,0,36200:0:0:0:0:
256,192,36000,1,0,0:0:0:0:
475,192,36000,1,0,0:0:0:0:
256,192,36200,1,0,0:0:0:0:
329,192,36200,128,0,36400:0:0:0:0:
402,192,36200,1,0,0:0:0:0:
475,192,36400,1,0,0:0:0:0:
36,192,36400,128,0,36600:0:0:0:0:
109,192,36600,1,0,0:0:0:0:
402,192,36600,1,0,0:0:0:0:
182,192,36600,128,0,36800:0:0:0:0:
36,192,36800,1,0,0:0:0:0:
329,192,36800,128,0,37000:0:0:0:0:
475,192,36800,1,0,0:0:0:0:
402,192,36900,1,0,0:0:0:0:
256,192,37000,1,0,0:0:0:0:
109,192,37000,128,0,37200:0:0:0:0:
475,192,37000,1,0,0:0:0:0:
402,192,37100,1,0,0:0:0:0:
182,192,37200,128,0,37400:0:0:0:0:
475,192,37200,1,0,0:0:0:0:
36,192,37200,1,0,0:0:0:0:
256,192,37300,1,0,0:0:0:0:
329,192,37400,128,0,37600:0:0:0:0:
402,192,37400,1,0,0:0:0:0:
475,192,37400,128,0,37600:0:0:0:0:
256,192,37500,1,0,0:0:0:0:
402,192,37600,1,0,0:0:0:0:
109,192,37600,1,0,0:0:0:0:
36,192,37600,128,0,37800:0:0:0:0:
182,192,37600,128,0,37800:0:0:0:0:
329,192,37800,1,0,0:0:0:0:
475,192,37800,1,0,0:0:0:0:
402,192,38000,1,0,0:0:0:0:
256,192,38000,1,0,0:0:0:0:
109,192,38000,1,0,0:0:0:0:
329,192,38200,1,0,0:0:0:0:
182,192,38200,1,0,0:0:0:0:
36,192,38200,1,0,0:0:0:0:
256,192,38400,1,0,0:0:0:0:
109,192,38400,1,0,0:0:0:0:
36,192,38400,1,0,0:0:0:0:
182,192,38400,1,0,0:0:0:0:
402,192,38400,128,0,38600:0:0:0:0:
109,192,38500,1,0,0:0:0:0:
36,192,38600,1,0,0:0:0:0:
329,192,38600,128,0,38800:0:0:0:0:
182,192,38700,1,0,0:0:0:0:
256,192,38800,128,0,39000:0:0:0:0:
109,192,38800,1,0,0:0:0:0:
36,192,38900,1,0,0:0:0:0:
182,192,39000,1,0,0:0:0:0:
402,192,39000,128,0,39200:0:0:0:0:
109,192,39200,1,0,0:0:0:0:
329,192,39200,128,0,39400:0:0:0:0:
36,192,39200,1,0,0:0:0:0:
182,192,39400,1,0,0:0:0:0:
256,192,39400,128,0,39600:0:0:0:0:
36,192,39500,1,0,0:0:0:0:
475,192,39600,128,0,39800:0:0:0:0:
109,192,39600,1,0,0:0:0:0:
182,192,39700,1,0,0:0:0:0:
36,192,39800,1,0,0:0:0:0:
329,192,39800,128,0,40000:0:0:0:0:
402,192,39800,1,0,0:0:0:0:
109,192,39900,1,0,0:0:0:0:
475,192,40000,1,0,0:0:0:0:
256,192,40000,128,0,40200:0:0:0:0:
182,192,40000,1,0,0:0:0:0:
36,192,40000,1,0,0:0:0:0:
109,192,40100,1,0,0:0:0:0:
36,192,40200,1,0,0:0:0:0:
329,192,40200,1,0,0:0:0:0:
402,192,40200,128,0,40400:0:0:0:0:
182,192,40300,1,0,0:0:0:0:
475,192,40400,1,0,0:0:0:0:
329,192,40400,128,0,40600:0:0:0:0:
109,192,40400,1,0,0:0:0:0:
36,192,40500,1,0,0:0:0:0:
256,192,40600,1,0,0:0:0:0:
182,192,40600,128,0,40800:0:0:0:0:
402,192,40800,1,0,0:0:0:0:
475,192,40800,128,0,41000:0:0:0:0:
36,192,40800,1,0,0:0:0:0:
109,192,40800,1,0,0:0:0:0:
182,192,41000,1,0,0:0:0:0:
329,192,41000,128,0,41200:0:0:0:0:
36,192,41200,1,0,0:0:0:0:
256,192,41200,128,0,41400:0:0:0:0:
109,192,41300,1,0,0:0:0:0:
36,192,41400,1,0,0:0:0:0:
182,192,41400,128,0,41600:0:0:0:0:
475,192,41400,1,0,0:0:0:0:
402,192,41500,1,0,0:0:0:0:
475,192,41600,128,0,41800:0:0:0:0:
329,192,41600,1,0,0:0:0:0:
36,192,41600,1,0,0:0:0:0:
329,192,41800,128,0,42000:0:0:0:0:
109,192,41800,1,0,0:0:0:0:
256,192,42000,1,0,0:0:0:0:
402,192,42000,1,0,0:0:0:0:
182,192,42000,128,0,42200:0:0:0:0:
36,192,42000,1,0,0:0:0:0:
109,192,42200,1,0,0:0:0:0:
402,192,42200,128,0,42400:0:0:0:0:
256,192,42400,1,0,0:0:0:0:
36,192,42400,1,0,0:0:0:0:
475,192,42400,1,0,0:0:0:0:
329,192,42400,128,0,42600:0:0:0:0:
109,192,42600,1,0,0:0:0:0:
182,192,42600,128,0,42800:0:0:0:0:
256,192,42600,1,0,0:0:0:0:
475,192,42800,128,0,43000:0:0:0:0:
36,192,42800,1,0,0:0:0:0:
329,192,43000,128,0,43200:0:0:0:0:
109,192,43000,1,0,0:0:0:0:
402,192,43000,1,0,0:0:0:0:
36,192,43200,1,0,0:0:0:0:
182,192,43200,128,0,43400:0:0:0:0:
475,192,43200,1,0,0:0:0:0:
109,192,43300,1,0,0:0:0:0:
36,192,43400,1,0,0:0:0:0:
402,192,43400,128,0,43600:0:0:0:0:
256,192,43400,1,0,0:0:0:0:
109,192,43500,1,0,0:0:0:0:
475,192,43600,1,0,0:0:0:0:
36,192,43600,1,0,0:0:0:0:
329,192,43600,128,0,43800:0:0:0:0:
256,192,43700,1,0,0:0:0:0:
36,192,43800,128,0,44000:0:0:0:0:
109,192,43800,1,0,0:0:0:0:
182,192,43800,128,0,44000:0:0:0:0:
256,192,43900,1,0,0:0:0:0:
475,192,44000,128,0,44200:0:0:0:0:
329,192,44000,128,0,44200:0:0:0:0:
109,192,44000,1,0,0:0:0:0:
402,192,44000,1,0,0:0:0:0:
36,192,44200,1,0,0:0:0:0:
182,192,44200,1,0,0:0:0:0:
256,192,44200,128,0,44400:0:0:0:0:
182,192,44400,128,0,44600:0:0:0:0:
402,192,44400,1,0,0:0:0:0:
475,192,44500,1,0,0:0:0:0:
329,192,44600,1,0,0:0:0:0:
475,192,44700,1,0,0:0:0:0:
36,192,44800,1,0,0:0:0:0:
402,192,44800,1,0,0:0:0:0:
109,192,44800,128,0,45000:0:0:0:0:
256,192,44800,1,0,0:0:0:0:
475,192,44800,1,0,0:0:0:0:
329,192,44800,1,0,0:0:0:0:
402,192,44900,1,0,0:0:0:0:
475,192,45000,1,0,0:0:0:0:
182,192,45000,128,0,45200:0:0:0:0:
329,192,45100,1,0,0:0:0:0:
256,192,45200,128,0,45400:0:0:0:0:
402,192,45200,1,0,0:0:0:0:
475,192,45300,1,0,0:0:0:0:
329,192,45400,1,0,0:0:0:0:
109,192,45400,128,0,45600:0:0:0:0:
182,192,45600,128,0,45800:0:0:0:0:
475,192,45600,1,0,0:0:0:0:
402,192,45600,1,0,0:0:0:0:
256,192,45800,128,0,46000:0:0:0:0:
329,192,45800,1,0,0:0:0:0:
475,192,45900,1,0,0:0:0:0:
36,192,46000,128,0,46200:0:0:0:0:
402,192,46000,1,0,0:0:0:0:
329,192,46100,1,0,0:0:0:0:
109,192,46200,1,0,0:0:0:0:
475,192,46200,1,0,0:0:0:0:
182,192,46200,128,0,46400:0:0:0:0:
402,192,46300,1,0,0:0:0:0:
329,192,46400,1,0,0:0:0:0:
256,192,46400,128,0,46600:0:0:0:0:
475,192,46400,1,0,0:0:0:0:
36,192,46400,1,0,0:0:0:0:
402,192,46500,1,0,0:0:0:0:
109,192,46600,128,0,46800:0:0:0:0:
182,192,46600,1,0,0:0:0:0:
475,192,46600,1,0,0:0:0:0:
329,192,46700,1,0,0:0:0:0:
36,192,46800,1,0,0:0:0:0:
402,192,46800,1,0,0:0:0:0:
182,192,46800,128,0,47000:0:0:0:0:
475,192,46900,1,0,0:0:0:0:
256,192,47000,1,0,0:0:0:0:
329,192,47000,128,0,47200:0:0:0:0:
402,192,47200,1,0,0:0:0:0:
475,192,47200,1,0,0:0:0:0:
36,192,47200,128,0,47400:0:0:0:0:
109,192,47200,1,0,0:0:0:0:
329,192,47400,1,0,0:0:0:0:
182,192,47400,128,0,47600:0:0:0:0:
475,192,47600,1,0,0:0:0:0:
256,192,47600,128,0,47800:0:0:0:0:
402,192,47700,1,0,0:0:0:0:
329,192,47800,128,0,48000:0:0:0:0:
36,192,47800,1,0,0:0:0:0:
475,192,47800,1,0,0:0:0:0:
109,192,47900,1,0,0:0:0:0:
182,192,48000,1,0,0:0:0:0:
36,192,48000,128,0,48200:0:0:0:0:
475,192,48000,1,0,0:0:0:0:
402,192,48200,1,0,0:0:0:0:
182,192,48200,128,0,48400:0:0:0:0:
475,192,48400,1,0,0:0:0:0:
329,192,48400,128,0,48600:0:0:0:0:
109,192,48400,1,0,0:0:0:0:
256,192,48400,1,0,0:0:0:0:
402,192,48600,1,0,0:0:0:0:
109,192,48600,128,0,48800:0:0:0:0:
475,192,48800,1,0,0:0:0:0:
256,192,48800,1,0,0:0:0:0:
36,192,48800,1,0,0:0:0:0:
182,192,48800,128,0,49000:0:0:0:0:
329,192,49000,128,0,49200:0:0:0:0:
402,192,49000,1,0,0:0:0:0:
256,192,49000,1,0,0:0:0:0:
475,192,49200,1,0,0:0:0:0:
36,192,49200,128,0,49400:0:0:0:0:
182,192,49400,128,0,49600:0:0:0:0:
109,192,49400,1,0,0:0:0:0:
402,192,49400,1,0,0:0:0:0:
329,192,49600,128,0,49800:0:0:0:0:
475,192,49600,1,0,0:0:0:0:
36,192,49600,1,0,0:0:0:0:
402,192,49700,1,0,0:0:0:0:
109,192,49800,128,0,50000:0:0:0:0:
475,192,49800,1,0,0:0:0:0:
256,192,49800,1,0,0:0:0:0:
402,192,49900,1,0,0:0:0:0:
475,192,50000,1,0,0:0:0:0:
182,192,50000,128,0,50200:0:0:0:0:
36,192,50000,1,0,0:0:0:0:
256,192,50100,1,0,0:0:0:0:
329,192,50200,128,0,50400:0:0:0:0:
475,192,50200,128,0,50400:0:0:0:0:
402,192,50200,1,0,0:0:0:0:
256,192,50300,1,0,0:0:0:0:
402,192,50400,1,0,0:0:0:0:
36,192,50400,128,0,50600:0:0:0:0:
109,192,50400,1,0,0:0:0:0:
182,192,50400,128,0,50600:0:0:0:0:
329,192,50600,1,0,0:0:0:0:
256,192,50600,128,0,50800:0:0:0:0:
475,192,50600,1,0,0:0:0:0:
109,192,50800,1,0,0:0:0:0:
329,192,50800,128,0,51000:0:0:0:0:
36,192,50900,1,0,0:0:0:0:
182,192,51000,1,0,0:0:0:0:
402,192,51000,128,0,51200:0:0:0:0:
36,192,51100,1,0,0:0:0:0:
475,192,51200,1,0,0:0:0:0:
109,192,51200,128,0,54400:0:0:0:0:
256,192,51200,128,0,54300:0:0:0:0:
475,192,51400,1,0,0:0:0:0:
475,192,51600,1,0,0:0:0:0:
475,192,51800,1,0,0:0:0:0:
182,192,52000,1,0,0:0:0:0:
402,192,52000,1,0,0:0:0:0:
36,192,52000,1,0,0:0:0:0:
329,192,52200,1,0,0:0:0:0:
402,192,52400,1,0,0:0:0:0:
329,192,52600,1,0,0:0:0:0:
475,192,52800,1,0,0:0:0:0:
402,192,52800,1,0,0:0:0:0:
329,192,53000,1,0,0:0:0:0:
475,192,53000,1,0,0:0:0:0:
402,192,53200,1,0,0:0:0:0:
475,192,53200,1,0,0:0:0:0:
182,192,53400,1,0,0:0:0:0:
475,192,53600,1,0,0:0:0:0:
329,192,53600,1,0,0:0:0:0:
36,192,53600,1,0,0:0:0:0:
402,192,53800,1,0,0:0:0:0:
402,192,54000,1,0,0:0:0:0:
475,192,54200,1,0,0:0:0:0:
402,192,54400,128,0,57600:0:0:0:0:
256,192,54400,128,0,57500:0:0:0:0:
182,192,54400,1,0,0:0:0:0:
36,192,54400,1,0,0:0:0:0:
36,192,54600,1,0,0:0:0:0:
36,192,54800,1,0,0:0:0:0:
36,192,55000,1,0,0:0:0:0:
109,192,55200,1,0,0:0:0:0:
329,192,55200,1,0,0:0:0:0:
475,192,55200,1,0,0:0:0:0:
36,192,55400,1,0,0:0:0:0:
329,192,55400,1,0,0:0:0:0:
109,192,55600,1,0,0:0:0:0:
36,192,55800,1,0,0:0:0:0:
329,192,55800,1,0,0:0:0:0:
109,192,56000,1,0,0:0:0:0:
36,192,56200,1,0,0:0:0:0:
329,192,56200,1,0,0:0:0:0:
109,192,56400,1,0,0:0:0:0:
475,192,56400,1,0,0:0:0:0:
182,192,56600,1,0,0:0:0:0:
36,192,56800,1,0,0:0:0:0:
109,192,56800,1,0,0:0:0:0:
475,192,56800,1,0,0:0:0:0:
329,192,57000,1,0,0:0:0:0:
182,192,57200,1,0,0:0:0:0:
182,192,57400,1,0,0:0:0:0:
109,192,57600,128,0,60800:0:0:0:0:
256,192,57600,128,0,60700:0:0:0:0:
475,192,57600,1,0,0:0:0:0:
475,192,57800,1,0,0:0:0:0:
475,192,58000,1,0,0:0:0:0:
475,192,58200,1,0,0:0:0:0:
182,192,58400,1,0,0:0:0:0:
402,192,58400,1,0,0:0:0:0:
36,192,58400,1,0,0:0:0:0:
329,192,58600,1,0,0:0:0:0:
402,192,58800,1,0,0:0:0:0:
475,192,59000,1,0,0:0:0:0:
182,192,59000,1,0,0:0:0:0:
402,192,59200,1,0,0:0:0:0:
475,192,59400,1,0,0:0:0:0:
182,192,59400,1,0,0:0:0:0:
402,192,59600,1,0,0:0:0:0:
36,192,59600,1,0,0:0:0:0:
182,192,59800,1,0,0:0:0:0:
36,192,60000,1,0,0:0:0:0:
329,192,60000,1,0,0:0:0:0:
475,192,60000,1,0,0:0:0:0:
402,192,60200,1,0,0:0:0:0:
475,192,60400,1,0,0:0:0:0:
475,192,60600,1,0,0:0:0:0:
256,192,60800,128,0,63900:0:0:0:0:
402,192,60800,128,0,64000:0:0:0:0:
36,192,60800,1,0,0:0:0:0:
36,192,61000,1,0,0:0:0:0:
36,192,61200,1,0,0:0:0:0:
36,192,61400,1,0,0:0:0:0:
109,192,61600,1,0,0:0:0:0:
329,192,61600,1,0,0:0:0:0:
475,192,61600,1,0,0:0:0:0:
182,192,61800,1,0,0:0:0:0:
109,192,62000,1,0,0:0:0:0:
36,192,62200,1,0,0:0:0:0:
329,192,62200,1,0,0:0:0:0:
182,192,62400,1,0,0:0:0:0:
36,192,62600,1,0,0:0:0:0:
329,192,62600,1,0,0:0:0:0:
109,192,62800,1,0,0:0:0:0:
475,192,62800,1,0,0:0:0:0:
182,192,63000,1,0,0:0:0:0:
36,192,63200,1,0,0:0:0:0:
329,192,63200,1,0,0:0:0:0:
475,192,63200,1,0,0:0:0:0:
109,192,63400,1,0,0:0:0:0:
329,192,63400,1,0,0:0:0:0:
475,192,63600,1,0,0:0:0:0:
475,192,63800,1,0,0:0:0:0:
36,192,64000,128,0,64600:0:0:0:0:
256,192,64000,128,0,67100:0:0:0:0:
109,192,64000,128,0,67200:0:0:0:0:
182,192,64000,1,0,0:0:0:0:
329,192,64000,1,0,0:0:0:0:
475,192,64200,1,0,0:0:0:0:
402,192,64400,1,0,0:0:0:0:
475,192,64600,128,0,65600:0:0:0:0:
329,192,64600,1,0,0:0:0:0:
402,192,64800,1,0,0:0:0:0:
182,192,64800,1,0,0:0:0:0:
36,192,64800,1,0,0:0:0:0:
329,192,65000,1,0,0:0:0:0:
36,192,65000,1,0,0:0:0:0:
182,192,65200,1,0,0:0:0:0:
402,192,65400,1,0,0:0:0:0:
36,192,65400,1,0,0:0:0:0:
182,192,65600,1,0,0:0:0:0:
36,192,65800,1,0,0:0:0:0:
402,192,65800,1,0,0:0:0:0:
182,192,66000,1,0,0:0:0:0:
475,192,66000,1,0,0:0:0:0:
402,192,66200,1,0,0:0:0:0:
329,192,66400,1,0,0:0:0:0:
182,192,66400,1,0,0:0:0:0:
36,192,66400,1,0,0:0:0:0:
402,192,66600,1,0,0:0:0:0:
475,192,66800,1,0,0:0:0:0:
475,192,67000,1,0,0:0:0:0:
36,192,67200,128,0,67800:0:0:0:0:
402,192,67200,128,0,70400:0:0:0:0:
256,192,67200,128,0,70300:0:0:0:0:
182,192,67200,1,0,0:0:0:0:
329,192,67200,1,0,0:0:0:0:
475,192,67400,1,0,0:0:0:0:
329,192,67600,1,0,0:0:0:0:
182,192,67800,128,0,68400:0:0:0:0:
475,192,67800,1,0,0:0:0:0:
329,192,68000,1,0,0:0:0:0:
109,192,68000,1,0,0:0:0:0:
475,192,68000,1,0,0:0:0:0:
36,192,68200,1,0,0:0:0:0:
475,192,68200,1,0,0:0:0:0:
109,192,68400,128,0,69400:0:0:0:0:
329,192,68400,1,0,0:0:0:0:
475,192,68600,1,0,0:0:0:0:
36,192,68600,1,0,0:0:0:0:
329,192,68800,1,0,0:0:0:0:
475,192,69000,1,0,0:0:0:0:
36,192,69000,1,0,0:0:0:0:
182,192,69200,1,0,0:0:0:0:
475,192,69200,1,0,0:0:0:0:
36,192,69200,1,0,0:0:0:0:
329,192,69400,128,0,70000:0:0:0:0:
182,192,69400,1,0,0:0:0:0:
36,192,69600,1,0,0:0:0:0:
475,192,69600,1,0,0:0:0:0:
109,192,69600,1,0,0:0:0:0:
182,192,69800,1,0,0:0:0:0:
109,192,69800,1,0,0:0:0:0:
36,192,70000,128,0,70400:0:0:0:0:
475,192,70000,1,0,0:0:0:0:
475,192,70200,1,0,0:0:0:0:
475,192,70400,128,0,71000:0:0:0:0:
109,192,70400,128,0,73600:0:0:0:0:
256,192,70400,128,0,73500:0:0:0:0:
182,192,70400,1,0,0:0:0:0:
182,192,70600,1,0,0:0:0:0:
182,192,70800,1,0,0:0:0:0:
36,192,71000,128,0,72000:0:0:0:0:
182,192,71000,1,0,0:0:0:0:
329,192,71200,1,0,0:0:0:0:
402,192,71200,1,0,0:0:0:0:
475,192,71200,1,0,0:0:0:0:
182,192,71400,1,0,0:0:0:0:
402,192,71400,1,0,0:0:0:0:
329,192,71600,1,0,0:0:0:0:
182,192,71800,1,0,0:0:0:0:
402,192,71800,1,0,0:0:0:0:
475,192,72000,1,0,0:0:0:0:
402,192,72200,1,0,0:0:0:0:
182,192,72200,1,0,0:0:0:0:
36,192,72400,1,0,0:0:0:0:
329,192,72400,1,0,0:0:0:0:
182,192,72600,1,0,0:0:0:0:
36,192,72800,1,0,0:0:0:0:
475,192,72800,1,0,0:0:0:0:
402,192,72800,1,0,0:0:0:0:
329,192,73000,1,0,0:0:0:0:
182,192,73200,1,0,0:0:0:0:
329,192,73400,1,0,0:0:0:0:
36,192,73600,128,0,74200:0:0:0:0:
402,192,73600,128,0,76800:0:0:0:0:
256,192,73600,128,0,76700:0:0:0:0:
475,192,73600,1,0,0:0:0:0:
182,192,73600,1,0,0:0:0:0:
475,192,73800,1,0,0:0:0:0:
475,192,74000,1,0,0:0:0:0:
182,192,74200,128,0,74800:0:0:0:0:
475,192,74200,1,0,0:0:0:0:
329,192,74400,1,0,0:0:0:0:
109,192,74400,1,0,0:0:0:0:
36,192,74400,1,0,0:0:0:0:
475,192,74600,1,0,0:0:0:0:
36,192,74600,1,0,0:0:0:0:
109,192,74800,128,0,75800:0:0:0:0:
329,192,74800,1,0,0:0:0:0:
475,192,75000,1,0,0:0:0:0:
36,192,75000,1,0,0:0:0:0:
329,192,75200,1,0,0:0:0:0:
475,192,75400,1,0,0:0:0:0:
36,192,75400,1,0,0:0:0:0:
329,192,75600,1,0,0:0:0:0:
36,192,75600,1,0,0:0:0:0:
329,192,75800,128,0,76400:0:0:0:0:
182,192,75800,1,0,0:0:0:0:
36,192,76000,1,0,0:0:0:0:
109,192,76000,1,0,0:0:0:0:
475,192,76000,1,0,0:0:0:0:
182,192,76200,1,0,0:0:0:0:
475,192,76200,1,0,0:0:0:0:
36,192,76400,128,0,76800:0:0:0:0:
109,192,76400,1,0,0:0:0:0:
109,192,76600,1,0,0:0:0:0:
475,192,76800,128,0,77400:0:0:0:0:
109,192,76800,128,0,80000:0:0:0:0:
256,192,76800,128,0,79900:0:0:0:0:
329,192,76800,1,0,0:0:0:0:
182,192,76800,1,0,0:0:0:0:
182,192,77000,1,0,0:0:0:0:
182,192,77200,1,0,0:0:0:0:
329,192,77400,128,0,78400:0:0:0:0:
182,192,77400,1,0,0:0:0:0:
36,192,77600,1,0,0:0:0:0:
402,192,77600,1,0,0:0:0:0:
475,192,77600,1,0,0:0:0:0:
182,192,77800,1,0,0:0:0:0:
402,192,77800,1,0,0:0:0:0:
475,192,78000,1,0,0:0:0:0:
402,192,78200,1,0,0:0:0:0:
182,192,78200,1,0,0:0:0:0:
475,192,78400,1,0,0:0:0:0:
402,192,78600,1,0,0:0:0:0:
182,192,78600,1,0,0:0:0:0:
36,192,78800,1,0,0:0:0:0:
329,192,78800,1,0,0:0:0:0:
182,192,79000,1,0,0:0:0:0:
36,192,79200,1,0,0:0:0:0:
329,192,79200,1,0,0:0:0:0:
475,192,79200,1,0,0:0:0:0:
402,192,79400,1,0,0:0:0:0:
329,192,79600,1,0,0:0:0:0:
329,192,79800,1,0,0:0:0:0:
36,192,80000,128,0,80600:0:0:0:0:
256,192,80000,128,0,83100:0:0:0:0:
402,192,80000,128,0,83200:0:0:0:0:
475,192,80000,1,0,0:0:0:0:
182,192,80000,1,0,0:0:0:0:
475,192,80200,1,0,0:0:0:0:
475,192,80400,1,0,0:0:0:0:
182,192,80600,128,0,81200:0:0:0:0:
475,192,80600,1,0,0:0:0:0:
329,192,80800,1,0,0:0:0:0:
109,192,80800,1,0,0:0:0:0:
36,192,80800,1,0,0:0:0:0:
475,192,81000,1,0,0:0:0:0:
329,192,81000,1,0,0:0:0:0:
109,192,81200,128,0,82200:0:0:0:0:
36,192,81200,1,0,0:0:0:0:
329,192,81400,1,0,0:0:0:0:
475,192,81400,1,0,0:0:0:0:
36,192,81600,1,0,0:0:0:0:
329,192,81800,1,0,0:0:0:0:
475,192,81800,1,0,0:0:0:0:
475,192,82000,1,0,0:0:0:0:
182,192,82000,1,0,0:0:0:0:
329,192,82200,128,0,82800:0:0:0:0:
36,192,82200,1,0,0:0:0:0:
182,192,82400,1,0,0:0:0:0:
475,192,82400,1,0,0:0:0:0:
109,192,82400,1,0,0:0:0:0:
36,192,82600,1,0,0:0:0:0:
36,192,82800,128,0,83200:0:0:0:0:
475,192,82800,1,0,0:0:0:0:
475,192,83000,1,0,0:0:0:0:
109,192,83200,128,0,86400:0:0:0:0:
256,192,83200,128,0,86300:0:0:0:0:
475,192,83200,128,0,83800:0:0:0:0:
329,192,83200,1,0,0:0:0:0:
182,192,83200,1,0,0:0:0:0:
182,192,83400,1,0,0:0:0:0:
182,192,83600,1,0,0:0:0:0:
329,192,83800,128,0,84800:0:0:0:0:
182,192,83800,1,0,0:0:0:0:
36,192,84000,1,0,0:0:0:0:
402,192,84000,1,0,0:0:0:0:
475,192,84000,1,0,0:0:0:0:
36,192,84200,1,0,0:0:0:0:
402,192,84200,1,0,0:0:0:0:
182,192,84400,1,0,0:0:0:0:
402,192,84600,1,0,0:0:0:0:
36,192,84600,1,0,0:0:0:0:
182,192,84800,1,0,0:0:0:0:
36,192,85000,1,0,0:0:0:0:
402,192,85000,1,0,0:0:0:0:
182,192,85200,1,0,0:0:0:0:
475,192,85200,1,0,0:0:0:0:
329,192,85400,1,0,0:0:0:0:
402,192,85600,1,0,0:0:0:0:
36,192,85600,1,0,0:0:0:0:
475,192,85600,1,0,0:0:0:0:
182,192,85800,1,0,0:0:0:0:
182,192,86000,1,0,0:0:0:0:
182,192,86200,1,0,0:0:0:0:
256,192,86400,128,0,89600:0:0:0:0:
402,192,86400,128,0,89600:0:0:0:0:
36,192,86400,128,0,87000:0:0:0:0:
329,192,86400,1,0,0:0:0:0:
475,192,86400,1,0,0:0:0:0:
475,192,86600,1,0,0:0:0:0:
475,192,86800,1,0,0:0:0:0:
329,192,87000,128,0,87600:0:0:0:0:
475,192,87000,1,0,0:0:0:0:
475,192,87200,1,0,0:0:0:0:
109,192,87200,1,0,0:0:0:0:
36,192,87200,1,0,0:0:0:0:
36,192,87400,1,0,0:0:0:0:
182,192,87400,1,0,0:0:0:0:
109,192,87600,128,0,88800:0:0:0:0:
475,192,87600,1,0,0:0:0:0:
182,192,87800,1,0,0:0:0:0:
36,192,87800,1,0,0:0:0:0:
475,192,88000,1,0,0:0:0:0:
182,192,88200,1,0,0:0:0:0:
36,192,88200,1,0,0:0:0:0:
182,192,88400,1,0,0:0:0:0:
329,192,88400,1,0,0:0:0:0:
475,192,88600,1,0,0:0:0:0:
182,192,88800,128,0,89200:0:0:0:0:
475,192,88800,1,0,0:0:0:0:
329,192,88800,1,0,0:0:0:0:
36,192,88800,1,0,0:0:0:0:
329,192,89000,1,0,0:0:0:0:
109,192,89000,1,0,0:0:0:0:
36,192,89200,128,0,89600:0:0:0:0:
475,192,89200,128,0,89600:0:0:0:0:
109,192,89200,1,0,0:0:0:0:
109,192,89400,1,0,0:0:0:0:
182,192,89600,1,0,0:0:0:0:
329,192,89600,1,0,0:0:0:0:
109,192,89600,1,0,0:0:0:0:
256,192,89700,1,0,0:0:0:0:
329,192,89800,1,0,0:0:0:0:
182,192,89800,1,0,0:0:0:0:
256,192,89900,1,0,0:0:0:0:
402,192,90000,1,0,0:0:0:0:
109,192,90000,1,0,0:0:0:0:
329,192,90100,1,0,0:0:0:0:
402,192,90200,1,0,0:0:0:0:
182,192,90200,1,0,0:0:0:0:
329,192,90300,1,0,0:0:0:0:
256,192,90400,1,0,0:0:0:0:
36,192,90400,1,0,0:0:0:0:
475,192,90400,1,0,0:0:0:0:
329,192,90500,1,0,0:0:0:0:
182,192,90600,1,0,0:0:0:0:
402,192,90600,1,0,0:0:0:0:
256,192,90700,1,0,0:0:0:0:
402,192,90800,1,0,0:0:0:0:
109,192,90800,1,0,0:0:0:0:
329,192,90900,1,0,0:0:0:0:
256,192,91000,1,0,0:0:0:0:
475,192,91000,1,0,0:0:0:0:
329,192,91100,1,0,0:0:0:0:
256,192,91200,1,0,0:0:0:0:
36,192,91200,1,0,0:0:0:0:
329,192,91300,1,0,0:0:0:0:
402,192,91400,1,0,0:0:0:0:
109,192,91400,1,0,0:0:0:0:
182,192,91500,1,0,0:0:0:0:
329,192,91600,1,0,0:0:0:0:
475,192,91600,1,0,0:0:0:0:
182,192,91700,1,0,0:0:0:0:
36,192,91800,1,0,0:0:0:0:
402,192,91800,1,0,0:0:0:0:
182,192,91900,1,0,0:0:0:0:
109,192,92000,1,0,0:0:0:0:
475,192,92000,1,0,0:0:0:0:
329,192,92000,1,0,0:0:0:0:
256,192,92100,1,0,0:0:0:0:
182,192,92200,1,0,0:0:0:0:
256,192,92300,1,0,0:0:0:0:
109,192,92400,1,0,0:0:0:0:
475,192,92400,1,0,0:0:0:0:
329,192,92500,1,0,0:0:0:0:
182,192,92600,1,0,0:0:0:0:
36,192,92600,1,0,0:0:0:0:
402,192,92700,1,0,0:0:0:0:
256,192,92800,1,0,0:0:0:0:
182,192,92800,1,0,0:0:0:0:
475,192,92800,1,0,0:0:0:0:
329,192,92800,1,0,0:0:0:0:
109,192,92900,1,0,0:0:0:0:
329,192,93000,1,0,0:0:0:0:
475,192,93000,1,0,0:0:0:0:
182,192,93100,1,0,0:0:0:0:
36,192,93200,1,0,0:0:0:0:
402,192,93200,1,0,0:0:0:0:
256,192,93300,1,0,0:0:0:0:
109,192,93400,1,0,0:0:0:0:
475,192,93400,1,0,0:0:0:0:
329,192,93500,1,0,0:0:0:0:
402,192,93600,1,0,0:0:0:0:
182,192,93600,1,0,0:0:0:0:
36,192,93600,1,0,0:0:0:0:
256,192,93700,1,0,0:0:0:0:
329,192,93800,1,0,0:0:0:0:
109,192,93800,1,0,0:0:0:0:
182,192,93900,1,0,0:0:0:0:
256,192,94000,1,0,0:0:0:0:
402,192,94000,1,0,0:0:0:0:
109,192,94100,1,0,0:0:0:0:
329,192,94200,1,0,0:0:0:0:
182,192,94200,1,0,0:0:0:0:
475,192,94300,1,0,0:0:0:0:
182,192,94400,1,0,0:0:0:0:
36,192,94400,1,0,0:0:0:0:
329,192,94500,1,0,0:0:0:0:
109,192,94600,1,0,0:0:0:0:
475,192,94600,1,0,0:0:0:0:
256,192,94700,1,0,0:0:0:0:
109,192,94800,1,0,0:0:0:0:
402,192,94800,1,0,0:0:0:0:
36,192,94900,1,0,0:0:0:0:
182,192,95000,1,0,0:0:0:0:
329,192,95000,1,0,0:0:0:0:
256,192,95100,1,0,0:0:0:0:
402,192,95200,1,0,0:0:0:0:
475,192,95200,1,0,0:0:0:0:
36,192,95200,1,0,0:0:0:0:
256,192,95300,1,0,0:0:0:0:
109,192,95400,1,0,0:0:0:0:
182,192,95400,1,0,0:0:0:0:
329,192,95500,1,0,0:0:0:0:
475,192,95600,1,0,0:0:0:0:
36,192,95600,1,0,0:0:0:0:
256,192,95700,1,0,0:0:0:0:
329,192,95800,1,0,0:0:0:0:
402,192,95800,1,0,0:0:0:0:
182,192,95900,1,0,0:0:0:0:
36,192,96000,1,0,0:0:0:0:
475,192,96000,128,0,97600:0:0:0:0:
256,192,96100,1,0,0:0:0:0:
109,192,96200,1,0,0:0:0:0:
329,192,96300,1,0,0:0:0:0:
182,192,96400,1,0,0:0:0:0:
256,192,96500,1,0,0:0:0:0:
402,192,96600,1,0,0:0:0:0:
329,192,96700,1,0,0:0:0:0:
256,192,96800,1,0,0:0:0:0:
36,192,96800,1,0,0:0:0:0:
182,192,96800,1,0,0:0:0:0:
109,192,96900,1,0,0:0:0:0:
329,192,97000,1,0,0:0:0:0:
402,192,97000,1,0,0:0:0:0:
36,192,97100,1,0,0:0:0:0:
182,192,97200,1,0,0:0:0:0:
256,192,97200,1,0,0:0:0:0:
402,192,97300,1,0,0:0:0:0:
36,192,97400,1,0,0:0:0:0:
329,192,97400,1,0,0:0:0:0:
109,192,97500,1,0,0:0:0:0:
256,192,97600,1,0,0:0:0:0:
182,192,97600,1,0,0:0:0:0:
402,192,97700,1,0,0:0:0:0:
329,192,97800,1,0,0:0:0:0:
36,192,97800,1,0,0:0:0:0:
182,192,97900,1,0,0:0:0:0:
109,192,98000,1,0,0:0:0:0:
475,192,98000,1,0,0:0:0:0:
256,192,98100,1,0,0:0:0:0:
329,192,98200,1,0,0:0:0:0:
402,192,98200,1,0,0:0:0:0:
109,192,98300,1,0,0:0:0:0:
182,192,98400,1,0,0:0:0:0:
475,192,98400,1,0,0:0:0:0:
36,192,98400,1,0,0:0:0:0:
256,192,98500,1,0,0:0:0:0:
109,192,98600,1,0,0:0:0:0:
329,192,98600,1,0,0:0:0:0:
182,192,98700,1,0,0:0:0:0:
402,192,98800,1,0,0:0:0:0:
36,192,98800,1,0,0:0:0:0:
329,192,98900,1,0,0:0:0:0:
256,192,99000,1,0,0:0:0:0:
475,192,99000,1,0,0:0:0:0:
182,192,99100,1,0,0:0:0:0:
329,192,99200,1,0,0:0:0:0:
109,192,99200,1,0,0:0:0:0:
402,192,99300,1,0,0:0:0:0:
256,192,99400,1,0,0:0:0:0:
182,192,99400,1,0,0:0:0:0:
475,192,99500,1,0,0:0:0:0:
329,192,99600,1,0,0:0:0:0:
36,192,99600,1,0,0:0:0:0:
256,192,99700,1,0,0:0:0:0:
182,192,99800,1,0,0:0:0:0:
402,192,99800,1,0,0:0:0:0:
109,192,99900,1,0,0:0:0:0:
329,192,100000,1,0,0:0:0:0:
36,192,100000,1,0,0:0:0:0:
475,192,100000,1,0,0:0:0:0:
402,192,100100,1,0,0:0:0:0:
256,192,100200,1,0,0:0:0:0:
109,192,100200,1,0,0:0:0:0:
475,192,100300,1,0,0:0:0:0:
109,192,100400,1,0,0:0:0:0:
329,192,100400,1,0,0:0:0:0:
182,192,100500,1,0,0:0:0:0:
256,192,100600,1,0,0:0:0:0:
475,192,100600,1,0,0:0:0:0:
329,192,100700,1,0,0:0:0:0:
109,192,100800,1,0,0:0:0:0:
402,192,100800,1,0,0:0:0:0:
256,192,100900,1,0,0:0:0:0:
182,192,101000,1,0,0:0:0:0:
402,192,101000,1,0,0:0:0:0:
36,192,101000,1,0,0:0:0:0:
329,192,101100,1,0,0:0:0:0:
256,192,101200,1,0,0:0:0:0:
109,192,101200,1,0,0:0:0:0:
182,192,101300,5,0,0:0:0:0:
402,192,101400,1,0,0:0:0:0:
109,192,101400,1,0,0:0:0:0:
256,192,101500,1,0,0:0:0:0:
329,192,101600,1,0,0:0:0:0:
36,192,101600,1,0,0:0:0:0:
475,192,101600,1,0,0:0:0:0:
109,192,101700,1,0,0:0:0:0:
256,192,101800,1,0,0:0:0:0:
182,192,101800,1,0,0:0:0:0:
402,192,101900,1,0,0:0:0:0:
329,192,102000,1,0,0:0:0:0:
475,192,102000,1,0,0:0:0:0:
182,192,102100,1,0,0:0:0:0:
109,192,102200,1,0,0:0:0:0:
402,192,102200,1,0,0:0:0:0:
36,192,102300,1,0,0:0:0:0:
182,192,102400,5,0,0:0:0:0:
475,192,102400,1,0,0:0:0:0:
256,192,102400,1,0,0:0:0:0:
36,192,102500,1,0,0:0:0:0:
402,192,102500,1,0,0:0:0:0:
182,192,102600,1,0,0:0:0:0:
329,192,102600,1,0,0:0:0:0:
36,192,102700,1,0,0:0:0:0:
475,192,102700,1,0,0:0:0:0:
109,192,102800,1,0,0:0:0:0:
329,192,102800,1,0,0:0:0:0:
182,192,102900,1,0,0:0:0:0:
402,192,102900,1,0,0:0:0:0:
109,192,103000,1,0,0:0:0:0:
475,192,103000,1,0,0:0:0:0:
182,192,103100,1,0,0:0:0:0:
329,192,103100,1,0,0:0:0:0:
109,192,103200,1,0,0:0:0:0:
475,192,103200,1,0,0:0:0:0:
256,192,103200,1,0,0:0:0:0:
36,192,103300,1,0,0:0:0:0:
402,192,103300,1,0,0:0:0:0:
109,192,103400,1,0,0:0:0:0:
329,192,103400,1,0,0:0:0:0:
256,192,103400,1,0,0:0:0:0:
182,192,103500,1,0,0:0:0:0:
475,192,103500,1,0,0:0:0:0:
109,192,103600,1,0,0:0:0:0:
329,192,103600,1,0,0:0:0:0:
36,192,103700,1,0,0:0:0:0:
402,192,103700,1,0,0:0:0:0:
109,192,103800,1,0,0:0:0:0:
475,192,103800,1,0,0:0:0:0:
256,192,103800,1,0,0:0:0:0:
329,192,103900,1,0,0:0:0:0:
182,192,103900,1,0,0:0:0:0:
475,192,104000,1,0,0:0:0:0:
256,192,104000,1,0,0:0:0:0:
402,192,104100,1,0,0:0:0:0:
182,192,104100,1,0,0:0:0:0:
329,192,104200,1,0,0:0:0:0:
109,192,104200,1,0,0:0:0:0:
36,192,104200,1,0,0:0:0:0:
475,192,104300,1,0,0:0:0:0:
182,192,104300,1,0,0:0:0:0:
329,192,104400,1,0,0:0:0:0:
256,192,104400,1,0,0:0:0:0:
402,192,104500,1,0,0:0:0:0:
182,192,104500,1,0,0:0:0:0:
475,192,104600,1,0,0:0:0:0:
109,192,104600,1,0,0:0:0:0:
329,192,104700,1,0,0:0:0:0:
36,192,104700,1,0,0:0:0:0:
475,192,104800,1,0,0:0:0:0:
109,192,104800,1,0,0:0:0:0:
256,192,104800,1,0,0:0:0:0:
402,192,104900,1,0,0:0:0:0:
182,192,104900,1,0,0:0:0:0:
329,192,105000,1,0,0:0:0:0:
109,192,105000,1,0,0:0:0:0:
475,192,105100,1,0,0:0:0:0:
36,192,105100,1,0,0:0:0:0:
329,192,105200,1,0,0:0:0:0:
109,192,105200,1,0,0:0:0:0:
402,192,105300,1,0,0:0:0:0:
182,192,105300,1,0,0:0:0:0:
475,192,105400,1,0,0:0:0:0:
109,192,105400,1,0,0:0:0:0:
329,192,105500,1,0,0:0:0:0:
36,192,105500,1,0,0:0:0:0:
182,192,105600,1,0,0:0:0:0:
475,192,105600,1,0,0:0:0:0:
256,192,105600,1,0,0:0:0:0:
402,192,105700,1,0,0:0:0:0:
109,192,105700,1,0,0:0:0:0:
329,192,105800,1,0,0:0:0:0:
256,192,105800,1,0,0:0:0:0:
475,192,105900,1,0,0:0:0:0:
182,192,105900,1,0,0:0:0:0:
329,192,106000,1,0,0:0:0:0:
109,192,106000,1,0,0:0:0:0:
402,192,106100,1,0,0:0:0:0:
256,192,106100,1,0,0:0:0:0:
475,192,106200,1,0,0:0:0:0:
182,192,106200,1,0,0:0:0:0:
329,192,106300,1,0,0:0:0:0:
36,192,106300,1,0,0:0:0:0:
475,192,106400,1,0,0:0:0:0:
109,192,106400,1,0,0:0:0:0:
182,192,106400,1,0,0:0:0:0:
402,192,106500,1,0,0:0:0:0:
256,192,106500,1,0,0:0:0:0:
329,192,106600,1,0,0:0:0:0:
182,192,106600,1,0,0:0:0:0:
475,192,106700,1,0,0:0:0:0:
36,192,106700,1,0,0:0:0:0:
329,192,106800,1,0,0:0:0:0:
109,192,106800,1,0,0:0:0:0:
402,192,106900,1,0,0:0:0:0:
256,192,106900,1,0,0:0:0:0:
475,192,107000,1,0,0:0:0:0:
182,192,107000,1,0,0:0:0:0:
329,192,107100,1,0,0:0:0:0:
109,192,107100,1,0,0:0:0:0:
475,192,107200,1,0,0:0:0:0:
36,192,107200,1,0,0:0:0:0:
402,192,107300,1,0,0:0:0:0:
256,192,107300,1,0,0:0:0:0:
329,192,107400,1,0,0:0:0:0:
182,192,107400,1,0,0:0:0:0:
475,192,107500,1,0,0:0:0:0:
36,192,107500,1,0,0:0:0:0:
329,192,107600,1,0,0:0:0:0:
256,192,107600,1,0,0:0:0:0:
402,192,107700,1,0,0:0:0:0:
109,192,107700,1,0,0:0:0:0:
475,192,107800,1,0,0:0:0:0:
182,192,107800,1,0,0:0:0:0:
329,192,107900,1,0,0:0:0:0:
256,192,107900,1,0,0:0:0:0:
475,192,108000,1,0,0:0:0:0:
109,192,108000,1,0,0:0:0:0:
36,192,108000,1,0,0:0:0:0:
402,192,108100,1,0,0:0:0:0:
182,192,108100,1,0,0:0:0:0:
329,192,108200,1,0,0:0:0:0:
36,192,108200,1,0,0:0:0:0:
475,192,108300,1,0,0:0:0:0:
256,192,108300,1,0,0:0:0:0:
329,192,108400,1,0,0:0:0:0:
109,192,108400,1,0,0:0:0:0:
402,192,108500,1,0,0:0:0:0:
182,192,108500,1,0,0:0:0:0:
475,192,108600,1,0,0:0:0:0:
109,192,108600,1,0,0:0:0:0:
329,192,108700,1,0,0:0:0:0:
36,192,108700,1,0,0:0:0:0:
402,192,108800,1,0,0:0:0:0:
256,192,108800,1,0,0:0:0:0:
182,192,108800,1,0,0:0:0:0:
36,192,108900,1,0,0:0:0:0:
475,192,108900,1,0,0:0:0:0:
109,192,109000,1,0,0:0:0:0:
402,192,109000,1,0,0:0:0:0:
182,192,109100,1,0,0:0:0:0:
329,192,109100,1,0,0:0:0:0:
36,192,109200,1,0,0:0:0:0:
475,192,109200,1,0,0:0:0:0:
182,192,109300,1,0,0:0:0:0:
256,192,109300,1,0,0:0:0:0:
109,192,109400,1,0,0:0:0:0:
402,192,109400,1,0,0:0:0:0:
36,192,109500,1,0,0:0:0:0:
329,192,109500,1,0,0:0:0:0:
182,192,109600,1,0,0:0:0:0:
475,192,109600,1,0,0:0:0:0:
402,192,109600,1,0,0:0:0:0:
36,192,109700,1,0,0:0:0:0:
256,192,109700,1,0,0:0:0:0:
109,192,109800,1,0,0:0:0:0:
329,192,109800,1,0,0:0:0:0:
182,192,109900,1,0,0:0:0:0:
402,192,109900,1,0,0:0:0:0:
36,192,110000,1,0,0:0:0:0:
256,192,110000,1,0,0:0:0:0:
182,192,110100,1,0,0:0:0:0:
475,192,110100,1,0,0:0:0:0:
109,192,110200,1,0,0:0:0:0:
329,192,110200,1,0,0:0:0:0:
36,192,110300,1,0,0:0:0:0:
402,192,110300,1,0,0:0:0:0:
182,192,110400,1,0,0:0:0:0:
256,192,110400,1,0,0:0:0:0:
36,192,110500,1,0,0:0:0:0:
475,192,110500,1,0,0:0:0:0:
109,192,110600,1,0,0:0:0:0:
329,192,110600,1,0,0:0:0:0:
182,192,110700,1,0,0:0:0:0:
402,192,110700,1,0,0:0:0:0:
36,192,110800,1,0,0:0:0:0:
256,192,110800,1,0,0:0:0:0:
182,192,110900,1,0,0:0:0:0:
475,192,110900,1,0,0:0:0:0:
109,192,111000,1,0,0:0:0:0:
402,192,111000,1,0,0:0:0:0:
36,192,111100,1,0,0:0:0:0:
329,192,111100,1,0,0:0:0:0:
182,192,111200,1,0,0:0:0:0:
475,192,111200,1,0,0:0:0:0:
402,192,111200,1,0,0:0:0:0:
36,192,111300,1,0,0:0:0:0:
256,192,111300,1,0,0:0:0:0:
109,192,111400,1,0,0:0:0:0:
402,192,111400,1,0,0:0:0:0:
182,192,111500,1,0,0:0:0:0:
329,192,111500,1,0,0:0:0:0:
36,192,111600,1,0,0:0:0:0:
475,192,111600,1,0,0:0:0:0:
182,192,111700,1,0,0:0:0:0:
256,192,111700,1,0,0:0:0:0:
109,192,111800,1,0,0:0:0:0:
402,192,111800,1,0,0:0:0:0:
36,192,111900,1,0,0:0:0:0:
329,192,111900,1,0,0:0:0:0:
182,192,112000,1,0,0:0:0:0:
256,192,112000,1,0,0:0:0:0:
36,192,112100,1,0,0:0:0:0:
475,192,112100,1,0,0:0:0:0:
109,192,112200,1,0,0:0:0:0:
402,192,112200,1,0,0:0:0:0:
182,192,112300,1,0,0:0:0:0:
256,192,112300,1,0,0:0:0:0:
36,192,112400,1,0,0:0:0:0:
329,192,112400,1,0,0:0:0:0:
182,192,112500,1,0,0:0:0:0:
475,192,112500,1,0,0:0:0:0:
109,192,112600,1,0,0:0:0:0:
402,192,112600,1,0,0:0:0:0:
36,192,112700,1,0,0:0:0:0:
256,192,112700,1,0,0:0:0:0:
182,192,112800,1,0,0:0:0:0:
329,192,112800,1,0,0:0:0:0:
475,192,112800,1,0,0:0:0:0:
36,192,112900,1,0,0:0:0:0:
402,192,112900,1,0,0:0:0:0:
109,192,113000,1,0,0:0:0:0:
256,192,113000,1,0,0:0:0:0:
182,192,113100,1,0,0:0:0:0:
475,192,113100,1,0,0:0:0:0:
36,192,113200,1,0,0:0:0:0:
402,192,113200,1,0,0:0:0:0:
182,192,113300,1,0,0:0:0:0:
329,192,113300,1,0,0:0:0:0:
109,192,113400,1,0,0:0:0:0:
475,192,113400,1,0,0:0:0:0:
36,192,113500,1,0,0:0:0:0:
256,192,113500,1,0,0:0:0:0:
182,192,113600,1,0,0:0:0:0:
402,192,113600,1,0,0:0:0:0:
36,192,113700,1,0,0:0:0:0:
329,192,113700,1,0,0:0:0:0:
109,192,113800,1,0,0:0:0:0:
475,192,113800,1,0,0:0:0:0:
182,192,113900,1,0,0:0:0:0:
256,192,113900,1,0,0:0:0:0:
36,192,114000,1,0,0:0:0:0:
402,192,114000,1,0,0:0:0:0:
182,192,114100,5,0,0:0:0:0:
475,192,114100,1,0,0:0:0:0:
109,192,114200,1,0,0:0:0:0:
329,192,114200,1,0,0:0:0:0:
36,192,114300,1,0,0:0:0:0:
402,192,114300,1,0,0:0:0:0:
182,192,114400,1,0,0:0:0:0:
256,192,114400,1,0,0:0:0:0:
329,192,114400,1,0,0:0:0:0:
36,192,114500,1,0,0:0:0:0:
475,192,114500,1,0,0:0:0:0:
109,192,114600,1,0,0:0:0:0:
402,192,114600,1,0,0:0:0:0:
182,192,114700,1,0,0:0:0:0:
329,192,114700,1,0,0:0:0:0:
36,192,114800,1,0,0:0:0:0:
475,192,114800,1,0,0:0:0:0:
182,192,114900,1,0,0:0:0:0:
256,192,114900,1,0,0:0:0:0:
109,192,115000,1,0,0:0:0:0:
329,192,115000,1,0,0:0:0:0:
36,192,115100,1,0,0:0:0:0:
475,192,115100,1,0,0:0:0:0:
109,192,115200,5,0,0:0:0:0:
402,192,115200,1,0,0:0:0:0:
256,192,115200,128,0,128000:0:0:0:0:
182,192,115300,1,0,0:0:0:0:
475,192,115300,1,0,0:0:0:0:
402,192,115400,1,0,0:0:0:0:
36,192,115400,1,0,0:0:0:0:
475,192,115500,1,0,0:0:0:0:
182,192,115500,1,0,0:0:0:0:
109,192,115600,1,0,0:0:0:0:
329,192,115600,1,0,0:0:0:0:
36,192,115700,1,0,0:0:0:0:
475,192,115700,1,0,0:0:0:0:
109,192,115800,1,0,0:0:0:0:
329,192,115800,1,0,0:0:0:0:
36,192,115900,1,0,0:0:0:0:
475,192,115900,1,0,0:0:0:0:
182,192,116000,1,0,0:0:0:0:
329,192,116000,1,0,0:0:0:0:
109,192,116100,1,0,0:0:0:0:
402,192,116100,1,0,0:0:0:0:
36,192,116200,1,0,0:0:0:0:
475,192,116200,1,0,0:0:0:0:
182,192,116300,1,0,0:0:0:0:
329,192,116300,1,0,0:0:0:0:
109,192,116400,1,0,0:0:0:0:
402,192,116400,1,0,0:0:0:0:
182,192,116500,1,0,0:0:0:0:
329,192,116500,1,0,0:0:0:0:
109,192,116600,1,0,0:0:0:0:
402,192,116600,1,0,0:0:0:0:
182,192,116700,1,0,0:0:0:0:
329,192,116700,1,0,0:0:0:0:
36,192,116800,1,0,0:0:0:0:
475,192,116800,1,0,0:0:0:0:
182,192,116900,1,0,0:0:0:0:
329,192,116900,1,0,0:0:0:0:
109,192,117000,1,0,0:0:0:0:
402,192,117000,1,0,0:0:0:0:
182,192,117100,1,0,0:0:0:0:
329,192,117100,1,0,0:0:0:0:
36,192,117200,1,0,0:0:0:0:
475,192,117200,1,0,0:0:0:0:
182,192,117300,1,0,0:0:0:0:
329,192,117300,1,0,0:0:0:0:
109,192,117400,1,0,0:0:0:0:
402,192,117400,1,0,0:0:0:0:
182,192,117500,1,0,0:0:0:0:
329,192,117500,1,0,0:0:0:0:
109,192,117600,1,0,0:0:0:0:
402,192,117600,1,0,0:0:0:0:
182,192,117700,1,0,0:0:0:0:
329,192,117700,1,0,0:0:0:0:
475,192,117800,1,0,0:0:0:0:
36,192,117800,1,0,0:0:0:0:
329,192,117900,1,0,0:0:0:0:
182,192,117900,1,0,0:0:0:0:
402,192,118000,1,0,0:0:0:0:
109,192,118000,1,0,0:0:0:0:
36,192,118100,1,0,0:0:0:0:
329,192,118100,1,0,0:0:0:0:
182,192,118200,1,0,0:0:0:0:
475,192,118200,1,0,0:0:0:0:
329,192,118300,1,0,0:0:0:0:
36,192,118300,1,0,0:0:0:0:
475,192,118400,1,0,0:0:0:0:
182,192,118400,1,0,0:0:0:0:
402,192,118500,1,0,0:0:0:0:
109,192,118500,1,0,0:0:0:0:
329,192,118600,1,0,0:0:0:0:
182,192,118600,1,0,0:0:0:0:
475,192,118700,1,0,0:0:0:0:
36,192,118700,1,0,0:0:0:0:
402,192,118800,1,0,0:0:0:0:
109,192,118800,1,0,0:0:0:0:
329,192,118900,1,0,0:0:0:0:
182,192,118900,1,0,0:0:0:0:
402,192,119000,1,0,0:0:0:0:
109,192,119000,1,0,0:0:0:0:
475,192,119100,1,0,0:0:0:0:
36,192,119100,1,0,0:0:0:0:
402,192,119200,1,0,0:0:0:0:
109,192,119200,1,0,0:0:0:0:
475,192,119300,1,0,0:0:0:0:
182,192,119300,1,0,0:0:0:0:
329,192,119400,1,0,0:0:0:0:
36,192,119400,1,0,0:0:0:0:
475,192,119500,1,0,0:0:0:0:
182,192,119500,1,0,0:0:0:0:
402,192,119600,1,0,0:0:0:0:
109,192,119600,1,0,0:0:0:0:
475,192,119700,1,0,0:0:0:0:
182,192,119700,1,0,0:0:0:0:
329,192,119800,1,0,0:0:0:0:
36,192,119800,1,0,0:0:0:0:
402,192,119900,1,0,0:0:0:0:
109,192,119900,1,0,0:0:0:0:
475,192,120000,1,0,0:0:0:0:
182,192,120000,1,0,0:0:0:0:
109,192,120100,1,0,0:0:0:0:
402,192,120100,1,0,0:0:0:0:
36,192,120200,1,0,0:0:0:0:
329,192,120200,1,0,0:0:0:0:
182,192,120300,1,0,0:0:0:0:
475,192,120300,1,0,0:0:0:0:
109,192,120400,1,0,0:0:0:0:
402,192,120400,1,0,0:0:0:0:
36,192,120500,1,0,0:0:0:0:
329,192,120500,1,0,0:0:0:0:
109,192,120600,1,0,0:0:0:0:
402,192,120600,1,0,0:0:0:0:
182,192,120700,1,0,0:0:0:0:
329,192,120700,1,0,0:0:0:0:
109,192,120800,1,0,0:0:0:0:
402,192,120800,1,0,0:0:0:0:
36,192,120900,1,0,0:0:0:0:
475,192,120900,1,0,0:0:0:0:
109,192,121000,1,0,0:0:0:0:
402,192,121000,1,0,0:0:0:0:
36,192,121100,1,0,0:0:0:0:
475,192,121100,1,0,0:0:0:0:
182,192,121200,1,0,0:0:0:0:
329,192,121200,1,0,0:0:0:0:
109,192,121300,1,0,0:0:0:0:
402,192,121300,1,0,0:0:0:0:
36,192,121400,1,0,0:0:0:0:
475,192,121400,1,0,0:0:0:0:
182,192,121500,1,0,0:0:0:0:
329,192,121500,1,0,0:0:0:0:
109,192,121600,1,0,0:0:0:0:
402,192,121600,1,0,0:0:0:0:
36,192,121700,1,0,0:0:0:0:
475,192,121700,1,0,0:0:0:0:
182,192,121800,1,0,0:0:0:0:
329,192,121800,1,0,0:0:0:0:
109,192,121900,1,0,0:0:0:0:
402,192,121900,1,0,0:0:0:0:
36,192,122000,1,0,0:0:0:0:
475,192,122000,1,0,0:0:0:0:
182,192,122100,1,0,0:0:0:0:
329,192,122100,1,0,0:0:0:0:
109,192,122200,1,0,0:0:0:0:
402,192,122200,1,0,0:0:0:0:
36,192,122300,1,0,0:0:0:0:
329,192,122300,1,0,0:0:0:0:
182,192,122400,1,0,0:0:0:0:
475,192,122400,1,0,0:0:0:0:
36,192,122500,1,0,0:0:0:0:
329,192,122500,1,0,0:0:0:0:
109,192,122600,1,0,0:0:0:0:
402,192,122600,1,0,0:0:0:0:
182,192,122700,1,0,0:0:0:0:
475,192,122700,1,0,0:0:0:0:
109,192,122800,1,0,0:0:0:0:
402,192,122800,1,0,0:0:0:0:
182,192,122900,1,0,0:0:0:0:
475,192,122900,1,0,0:0:0:0:
109,192,123000,1,0,0:0:0:0:
402,192,123000,1,0,0:0:0:0:
36,192,123100,1,0,0:0:0:0:
329,192,123100,1,0,0:0:0:0:
109,192,123200,1,0,0:0:0:0:
402,192,123200,1,0,0:0:0:0:
182,192,123300,1,0,0:0:0:0:
475,192,123300,1,0,0:0:0:0:
109,192,123400,1,0,0:0:0:0:
402,192,123400,1,0,0:0:0:0:
36,192,123500,1,0,0:0:0:0:
329,192,123500,1,0,0:0:0:0:
182,192,123600,1,0,0:0:0:0:
475,192,123600,1,0,0:0:0:0:
36,192,123700,1,0,0:0:0:0:
329,192,123700,1,0,0:0:0:0:
109,192,123800,1,0,0:0:0:0:
402,192,123800,1,0,0:0:0:0:
182,192,123900,1,0,0:0:0:0:
475,192,123900,1,0,0:0:0:0:
109,192,124000,1,0,0:0:0:0:
402,192,124000,1,0,0:0:0:0:
36,192,124100,1,0,0:0:0:0:
475,192,124100,1,0,0:0:0:0:
182,192,124200,1,0,0:0:0:0:
329,192,124200,1,0,0:0:0:0:
109,192,124300,1,0,0:0:0:0:
402,192,124300,1,0,0:0:0:0:
36,192,124400,1,0,0:0:0:0:
475,192,124400,1,0,0:0:0:0:
182,192,124500,1,0,0:0:0:0:
402,192,124500,1,0,0:0:0:0:
109,192,124600,1,0,0:0:0:0:
329,192,124600,1,0,0:0:0:0:
182,192,124700,1,0,0:0:0:0:
402,192,124700,1,0,0:0:0:0:
475,192,124800,1,0,0:0:0:0:
36,192,124800,1,0,0:0:0:0:
329,192,124800,1,0,0:0:0:0:
109,192,125000,1,0,0:0:0:0:
402,192,125000,1,0,0:0:0:0:
109,192,125200,1,0,0:0:0:0:
402,192,125200,1,0,0:0:0:0:
329,192,125400,1,0,0:0:0:0:
475,192,125400,1,0,0:0:0:0:
36,192,125400,1,0,0:0:0:0:
109,192,125600,1,0,0:0:0:0:
402,192,125600,1,0,0:0:0:0:
109,192,125800,1,0,0:0:0:0:
402,192,125800,1,0,0:0:0:0:
36,192,126000,1,0,0:0:0:0:
182,192,126000,1,0,0:0:0:0:
329,192,126000,1,0,0:0:0:0:
109,192,126200,1,0,0:0:0:0:
402,192,126200,1,0,0:0:0:0:
109,192,126400,1,0,0:0:0:0:
402,192,126400,1,0,0:0:0:0:
182,192,126600,1,0,0:0:0:0:
36,192,126600,1,0,0:0:0:0:
475,192,126600,1,0,0:0:0:0:
402,192,126800,1,0,0:0:0:0:
109,192,126800,1,0,0:0:0:0:
109,192,127000,1,0,0:0:0:0:
402,192,127000,1,0,0:0:0:0:
182,192,127200,1,0,0:0:0:0:
329,192,127200,1,0,0:0:0:0:
36,192,127200,128,0,128000:0:0:0:0:
475,192,127200,128,0,128000:0:0:0:0:
109,192,128000,1,0,0:0:0:0:
329,192,128000,128,0,128400:0:0:0:0:
182,192,128200,1,0,0:0:0:0:
109,192,128400,1,0,0:0:0:0:
475,192,128400,128,0,128800:0:0:0:0:
36,192,128600,1,0,0:0:0:0:
256,192,128800,1,0,0:0:0:0:
109,192,128800,1,0,0:0:0:0:
402,192,128800,128,0,129200:0:0:0:0:
182,192,129000,1,0,0:0:0:0:
109,192,129200,1,0,0:0:0:0:
475,192,129200,128,0,129400:0:0:0:0:
36,192,129400,1,0,0:0:0:0:
182,192,129400,1,0,0:0:0:0:
329,192,129400,128,0,129600:0:0:0:0:
109,192,129600,1,0,0:0:0:0:
475,192,129600,128,0,130000:0:0:0:0:
182,192,129800,1,0,0:0:0:0:
36,192,129800,1,0,0:0:0:0:
109,192,130000,1,0,0:0:0:0:
329,192,130000,128,0,130400:0:0:0:0:
182,192,130200,1,0,0:0:0:0:
109,192,130400,1,0,0:0:0:0:
256,192,130400,1,0,0:0:0:0:
402,192,130400,128,0,130800:0:0:0:0:
475,192,130800,128,0,131200:0:0:0:0:
109,192,131200,1,0,0:0:0:0:
329,192,131200,128,0,131600:0:0:0:0:
182,192,131400,1,0,0:0:0:0:
109,192,131600,1,0,0:0:0:0:
475,192,131600,128,0,132000:0:0:0:0:
36,192,131800,1,0,0:0:0:0:
109,192,132000,1,0,0:0:0:0:
256,192,132000,1,0,0:0:0:0:
402,192,132000,128,0,132400:0:0:0:0:
182,192,132200,1,0,0:0:0:0:
109,192,132400,1,0,0:0:0:0:
329,192,132400,128,0,132600:0:0:0:0:
182,192,132600,1,0,0:0:0:0:
36,192,132600,1,0,0:0:0:0:
475,192,132600,128,0,132800:0:0:0:0:
329,192,132800,128,0,133200:0:0:0:0:
182,192,133000,1,0,0:0:0:0:
36,192,133000,1,0,0:0:0:0:
402,192,133200,128,0,133600:0:0:0:0:
109,192,133600,1,0,0:0:0:0:
256,192,133600,1,0,0:0:0:0:
329,192,133600,128,0,133800:0:0:0:0:
36,192,133800,1,0,0:0:0:0:
182,192,133800,1,0,0:0:0:0:
475,192,133800,128,0,134400:0:0:0:0:
109,192,134400,1,0,0:0:0:0:
329,192,134400,128,0,134800:0:0:0:0:
182,192,134600,1,0,0:0:0:0:
109,192,134800,1,0,0:0:0:0:
475,192,134800,128,0,135200:0:0:0:0:
36,192,135000,1,0,0:0:0:0:
256,192,135200,1,0,0:0:0:0:
109,192,135200,1,0,0:0:0:0:
402,192,135200,128,0,135600:0:0:0:0:
182,192,135400,1,0,0:0:0:0:
109,192,135600,1,0,0:0:0:0:
329,192,135600,128,0,135800:0:0:0:0:
36,192,135800,1,0,0:0:0:0:
182,192,135800,1,0,0:0:0:0:
475,192,135800,128,0,136000:0:0:0:0:
109,192,136000,1,0,0:0:0:0:
329,192,136000,128,0,136400:0:0:0:0:
36,192,136200,1,0,0:0:0:0:
182,192,136200,1,0,0:0:0:0:
109,192,136400,1,0,0:0:0:0:
475,192,136400,128,0,136800:0:0:0:0:
182,192,136600,1,0,0:0:0:0:
256,192,136800,1,0,0:0:0:0:
109,192,136800,1,0,0:0:0:0:
402,192,136800,128,0,137200:0:0:0:0:
329,192,137200,128,0,137600:0:0:0:0:
109,192,137600,1,0,0:0:0:0:
475,192,137600,128,0,138000:0:0:0:0:
182,192,137800,1,0,0:0:0:0:
109,192,138000,1,0,0:0:0:0:
329,192,138000,128,0,138400:0:0:0:0:
36,192,138200,1,0,0:0:0:0:
109,192,138400,1,0,0:0:0:0:
256,192,138400,1,0,0:0:0:0:
402,192,138400,128,0,138800:0:0:0:0:
182,192,138600,1,0,0:0:0:0:
109,192,138800,1,0,0:0:0:0:
475,192,138800,128,0,139000:0:0:0:0:
182,192,139000,1,0,0:0:0:0:
36,192,139000,1,0,0:0:0:0:
329,192,139000,128,0,139200:0:0:0:0:
475,192,139200,128,0,139600:0:0:0:0:
182,192,139400,1,0,0:0:0:0:
36,192,139400,1,0,0:0:0:0:
329,192,139600,128,0,140000:0:0:0:0:
109,192,140000,1,0,0:0:0:0:
256,192,140000,1,0,0:0:0:0:
475,192,140000,128,0,140200:0:0:0:0:
182,192,140200,1,0,0:0:0:0:
36,192,140200,1,0,0:0:0:0:
402,192,140200,128,0,140400:0:0:0:0:
475,192,140400,128,0,140800:0:0:0:0:
109,192,140800,1,0,0:0:0:0:
329,192,140800,128,0,141200:0:0:0:0:
182,192,141000,1,0,0:0:0:0:
109,192,141200,1,0,0:0:0:0:
475,192,141200,128,0,141600:0:0:0:0:
36,192,141400,1,0,0:0:0:0:
109,192,141600,1,0,0:0:0:0:
256,192,141600,1,0,0:0:0:0:
402,192,141600,128,0,142000:0:0:0:0:
182,192,141800,1,0,0:0:0:0:
109,192,142000,1,0,0:0:0:0:
475,192,142000,128,0,142200:0:0:0:0:
182,192,142200,1,0,0:0:0:0:
36,192,142200,1,0,0:0:0:0:
329,192,142200,128,0,142400:0:0:0:0:
109,192,142400,1,0,0:0:0:0:
475,192,142400,128,0,142800:0:0:0:0:
36,192,142600,1,0,0:0:0:0:
182,192,142600,1,0,0:0:0:0:
109,192,142800,1,0,0:0:0:0:
329,192,142800,128,0,143200:0:0:0:0:
182,192,143000,1,0,0:0:0:0:
256,192,143200,1,0,0:0:0:0:
109,192,143200,1,0,0:0:0:0:
402,192,143200,128,0,143600:0:0:0:0:
36,192,143400,1,0,0:0:0:0:
182,192,143600,1,0,0:0:0:0:
475,192,143600,128,0,144000:0:0:0:0:
36,192,143800,1,0,0:0:0:0:
109,192,144000,1,0,0:0:0:0:
329,192,144000,128,0,144400:0:0:0:0:
182,192,144200,1,0,0:0:0:0:
109,192,144400,1,0,0:0:0:0:
475,192,144400,128,0,144800:0:0:0:0:
36,192,144600,1,0,0:0:0:0:
256,192,144800,1,0,0:0:0:0:
109,192,144800,1,0,0:0:0:0:
402,192,144800,128,0,145200:0:0:0:0:
182,192,145000,1,0,0:0:0:0:
109,192,145200,1,0,0:0:0:0:
329,192,145200,128,0,145400:0:0:0:0:
36,192,145400,1,0,0:0:0:0:
182,192,145400,1,0,0:0:0:0:
475,192,145400,128,0,145600:0:0:0:0:
329,192,145600,128,0,146000:0:0:0:0:
36,192,145800,1,0,0:0:0:0:
182,192,145800,1,0,0:0:0:0:
402,192,146000,128,0,146400:0:0:0:0:
109,192,146400,1,0,0:0:0:0:
256,192,146400,1,0,0:0:0:0:
329,192,146400,128,0,146600:0:0:0:0:
182,192,146600,1,0,0:0:0:0:
36,192,146600,1,0,0:0:0:0:
475,192,146600,128,0,147200:0:0:0:0:
109,192,147200,1,0,0:0:0:0:
329,192,147200,128,0,147600:0:0:0:0:
182,192,147400,1,0,0:0:0:0:
109,192,147600,1,0,0:0:0:0:
475,192,147600,128,0,148000:0:0:0:0:
36,192,147800,1,0,0:0:0:0:
256,192,148000,1,0,0:0:0:0:
109,192,148000,1,0,0:0:0:0:
402,192,148000,128,0,148400:0:0:0:0:
182,192,148200,1,0,0:0:0:0:
109,192,148400,1,0,0:0:0:0:
475,192,148400,128,0,148600:0:0:0:0:
36,192,148600,1,0,0:0:0:0:
182,192,148600,1,0,0:0:0:0:
329,192,148600,128,0,148800:0:0:0:0:
109,192,148800,1,0,0:0:0:0:
475,192,148800,128,0,149200:0:0:0:0:
182,192,149000,1,0,0:0:0:0:
36,192,149000,1,0,0:0:0:0:
109,192,149200,1,0,0:0:0:0:
329,192,149200,128,0,149600:0:0:0:0:
182,192,149400,1,0,0:0:0:0:
109,192,149600,1,0,0:0:0:0:
256,192,149600,1,0,0:0:0:0:
402,192,149600,128,0,150000:0:0:0:0:
182,192,149800,1,0,0:0:0:0:
36,192,150000,1,0,0:0:0:0:
475,192,150000,128,0,150400:0:0:0:0:
182,192,150200,1,0,0:0:0:0:
109,192,150400,1,0,0:0:0:0:
329,192,150400,128,0,150800:0:0:0:0:
182,192,150600,1,0,0:0:0:0:
109,192,150800,1,0,0:0:0:0:
475,192,150800,128,0,151200:0:0:0:0:
36,192,151000,1,0,0:0:0:0:
109,192,151200,1,0,0:0:0:0:
256,192,151200,1,0,0:0:0:0:
402,192,151200,128,0,151600:0:0:0:0:
182,192,151400,1,0,0:0:0:0:
109,192,151600,1,0,0:0:0:0:
329,192,151600,128,0,151800:0:0:0:0:
182,192,151800,1,0,0:0:0:0:
36,192,151800,1,0,0:0:0:0:
475,192,151800,128,0,152000:0:0:0:0:
109,192,152000,1,0,0:0:0:0:
329,192,152000,128,0,152400:0:0:0:0:
182,192,152200,1,0,0:0:0:0:
36,192,152200,1,0,0:0:0:0:
475,192,152400,128,0,152800:0:0:0:0:
109,192,152400,1,0,0:0:0:0:
256,192,152400,1,0,0:0:0:0:
182,192,152600,1,0,0:0:0:0:
402,192,152600,1,0,0:0:0:0:
109,192,152800,1,0,0:0:0:0:
182,192,152800,1,0,0:0:0:0:
329,192,152800,128,0,153000:0:0:0:0:
36,192,153000,1,0,0:0:0:0:
256,192,153000,1,0,0:0:0:0:
402,192,153000,1,0,0:0:0:0:
475,192,153000,128,0,153600:0:0:0:0:
109,192,153200,1,0,0:0:0:0:
402,192,153200,1,0,0:0:0:0:
402,192,153400,1,0,0:0:0:0:
109,192,153400,1,0,0:0:0:0:
36,192,153600,1,0,0:0:0:0:
329,192,153600,1,0,0:0:0:0:
36,192,153800,128,0,154300:0:0:0:0:
402,192,153800,1,0,0:0:0:0:
256,192,154000,128,0,154200:0:0:0:0:
475,192,154000,1,0,0:0:0:0:
329,192,154000,1,0,0:0:0:0:
109,192,154000,1,0,0:0:0:0:
182,192,154200,128,0,154400:0:0:0:0:
36,192,154400,1,0,0:0:0:0:
475,192,154400,1,0,0:0:0:0:
36,192,154600,128,0,155200:0:0:0:0:
402,192,154600,1,0,0:0:0:0:
256,192,154800,128,0,155000:0:0:0:0:
475,192,154800,1,0,0:0:0:0:
329,192,154800,1,0,0:0:0:0:
109,192,154800,1,0,0:0:0:0:
182,192,155000,128,0,155200:0:0:0:0:
402,192,155000,1,0,0:0:0:0:
109,192,155200,1,0,0:0:0:0:
402,192,155200,1,0,0:0:0:0:
402,192,155400,1,0,0:0:0:0:
109,192,155400,1,0,0:0:0:0:
36,192,155600,1,0,0:0:0:0:
256,192,155600,1,0,0:0:0:0:
475,192,155600,1,0,0:0:0:0:
109,192,156000,1,0,0:0:0:0:
402,192,156000,1,0,0:0:0:0:
109,192,156200,1,0,0:0:0:0:
402,192,156200,1,0,0:0:0:0:
256,192,156400,1,0,0:0:0:0:
36,192,156400,1,0,0:0:0:0:
475,192,156400,1,0,0:0:0:0:
36,192,156600,1,0,0:0:0:0:
402,192,156600,1,0,0:0:0:0:
36,192,156700,1,0,0:0:0:0:
329,192,156700,1,0,0:0:0:0:
36,192,156800,1,0,0:0:0:0:
475,192,156800,1,0,0:0:0:0:
36,192,157000,128,0,157500:0:0:0:0:
475,192,157000,1,0,0:0:0:0:
256,192,157200,128,0,157400:0:0:0:0:
109,192,157200,1,0,0:0:0:0:
402,192,157200,1,0,0:0:0:0:
329,192,157200,1,0,0:0:0:0:
182,192,157400,128,0,157600:0:0:0:0:
475,192,157400,1,0,0:0:0:0:
36,192,157600,1,0,0:0:0:0:
402,192,157600,1,0,0:0:0:0:
36,192,157800,128,0,158400:0:0:0:0:
402,192,157800,1,0,0:0:0:0:
256,192,158000,128,0,158200:0:0:0:0:
475,192,158000,1,0,0:0:0:0:
329,192,158000,1,0,0:0:0:0:
109,192,158000,1,0,0:0:0:0:
182,192,158200,128,0,158400:0:0:0:0:
402,192,158200,1,0,0:0:0:0:
329,192,158400,1,0,0:0:0:0:
109,192,158600,1,0,0:0:0:0:
256,192,158600,1,0,0:0:0:0:
402,192,158600,1,0,0:0:0:0:
182,192,158800,1,0,0:0:0:0:
329,192,158800,1,0,0:0:0:0:
256,192,159000,1,0,0:0:0:0:
182,192,159200,1,0,0:0:0:0:
329,192,159200,1,0,0:0:0:0:
256,192,159400,1,0,0:0:0:0:
329,192,159600,1,0,0:0:0:0:
475,192,159600,1,0,0:0:0:0:
182,192,159600,1,0,0:0:0:0:
36,192,159600,1,0,0:0:0:0:
36,192,159800,1,0,0:0:0:0:
402,192,159800,1,0,0:0:0:0:
36,192,160000,1,0,0:0:0:0:
475,192,160000,1,0,0:0:0:0:
36,192,160200,128,0,160700:0:0:0:0:
402,192,160200,1,0,0:0:0:0:
256,192,160400,128,0,160600:0:0:0:0:
475,192,160400,1,0,0:0:0:0:
329,192,160400,1,0,0:0:0:0:
109,192,160400,1,0,0:0:0:0:
182,192,160600,128,0,160800:0:0:0:0:
402,192,160600,1,0,0:0:0:0:
36,192,160800,1,0,0:0:0:0:
329,192,160800,1,0,0:0:0:0:
475,192,160800,1,0,0:0:0:0:
36,192,161000,128,0,161600:0:0:0:0:
402,192,161000,1,0,0:0:0:0:
256,192,161200,128,0,161400:0:0:0:0:
329,192,161200,1,0,0:0:0:0:
109,192,161200,1,0,0:0:0:0:
475,192,161200,1,0,0:0:0:0:
182,192,161400,128,0,161600:0:0:0:0:
402,192,161400,1,0,0:0:0:0:
329,192,161600,1,0,0:0:0:0:
475,192,161600,1,0,0:0:0:0:
402,192,161800,1,0,0:0:0:0:
329,192,162000,1,0,0:0:0:0:
182,192,162000,1,0,0:0:0:0:
36,192,162000,1,0,0:0:0:0:
109,192,162200,1,0,0:0:0:0:
182,192,162400,1,0,0:0:0:0:
329,192,162400,1,0,0:0:0:0:
256,192,162600,1,0,0:0:0:0:
329,192,162800,1,0,0:0:0:0:
475,192,162800,1,0,0:0:0:0:
182,192,162800,1,0,0:0:0:0:
109,192,163000,1,0,0:0:0:0:
402,192,163100,1,0,0:0:0:0:
182,192,163200,1,0,0:0:0:0:
329,192,163200,1,0,0:0:0:0:
36,192,163400,128,0,163900:0:0:0:0:
402,192,163400,1,0,0:0:0:0:
256,192,163600,128,0,163800:0:0:0:0:
475,192,163600,1,0,0:0:0:0:
182,192,163800,128,0,164000:0:0:0:0:
109,192,163800,1,0,0:0:0:0:
402,192,163800,1,0,0:0:0:0:
329,192,163900,1,0,0:0:0:0:
475,192,163900,1,0,0:0:0:0:
36,192,164000,1,0,0:0:0:0:
402,192,164000,1,0,0:0:0:0:
256,192,164000,1,0,0:0:0:0:
329,192,164100,1,0,0:0:0:0:
109,192,164200,128,0,164600:0:0:0:0:
475,192,164200,1,0,0:0:0:0:
256,192,164400,128,0,164600:0:0:0:0:
36,192,164400,128,0,164800:0:0:0:0:
329,192,164400,1,0,0:0:0:0:
475,192,164400,1,0,0:0:0:0:
182,192,164600,128,0,164800:0:0:0:0:
402,192,164600,1,0,0:0:0:0:
329,192,164800,1,0,0:0:0:0:
475,192,164800,1,0,0:0:0:0:
402,192,165000,1,0,0:0:0:0:
256,192,165000,1,0,0:0:0:0:
109,192,165000,1,0,0:0:0:0:
36,192,165100,1,0,0:0:0:0:
475,192,165100,1,0,0:0:0:0:
182,192,165200,1,0,0:0:0:0:
329,192,165200,1,0,0:0:0:0:
109,192,165300,1,0,0:0:0:0:
402,192,165400,1,0,0:0:0:0:
182,192,165600,1,0,0:0:0:0:
329,192,165600,1,0,0:0:0:0:
109,192,165800,1,0,0:0:0:0:
256,192,165800,1,0,0:0:0:0:
402,192,165800,1,0,0:0:0:0:
36,192,166000,1,0,0:0:0:0:
182,192,166000,1,0,0:0:0:0:
329,192,166000,1,0,0:0:0:0:
475,192,166000,1,0,0:0:0:0:
256,192,166200,1,0,0:0:0:0:
475,192,166400,1,0,0:0:0:0:
182,192,166400,1,0,0:0:0:0:
36,192,166400,1,0,0:0:0:0:
475,192,166600,128,0,167100:0:0:0:0:
109,192,166600,1,0,0:0:0:0:
256,192,166800,128,0,167000:0:0:0:0:
182,192,166800,1,0,0:0:0:0:
36,192,166800,1,0,0:0:0:0:
329,192,167000,128,0,167200:0:0:0:0:
109,192,167000,1,0,0:0:0:0:
475,192,167200,1,0,0:0:0:0:
182,192,167200,1,0,0:0:0:0:
402,192,167200,1,0,0:0:0:0:
475,192,167400,128,0,168000:0:0:0:0:
109,192,167400,1,0,0:0:0:0:
256,192,167600,128,0,167800:0:0:0:0:
36,192,167600,1,0,0:0:0:0:
402,192,167600,1,0,0:0:0:0:
182,192,167600,1,0,0:0:0:0:
329,192,167800,128,0,168000:0:0:0:0:
109,192,167800,1,0,0:0:0:0:
182,192,168000,1,0,0:0:0:0:
402,192,168000,1,0,0:0:0:0:
256,192,168200,1,0,0:0:0:0:
109,192,168200,1,0,0:0:0:0:
36,192,168400,1,0,0:0:0:0:
182,192,168400,1,0,0:0:0:0:
329,192,168400,1,0,0:0:0:0:
402,192,168600,1,0,0:0:0:0:
329,192,168800,1,0,0:0:0:0:
182,192,168800,1,0,0:0:0:0:
256,192,169000,1,0,0:0:0:0:
182,192,169200,1,0,0:0:0:0:
329,192,169200,1,0,0:0:0:0:
36,192,169200,1,0,0:0:0:0:
475,192,169400,1,0,0:0:0:0:
109,192,169400,1,0,0:0:0:0:
475,192,169500,1,0,0:0:0:0:
256,192,169500,1,0,0:0:0:0:
475,192,169600,1,0,0:0:0:0:
36,192,169600,1,0,0:0:0:0:
329,192,169600,1,0,0:0:0:0:
475,192,169800,128,0,170300:0:0:0:0:
182,192,169800,1,0,0:0:0:0:
256,192,170000,128,0,170200:0:0:0:0:
109,192,170000,1,0,0:0:0:0:
402,192,170000,1,0,0:0:0:0:
36,192,170000,1,0,0:0:0:0:
329,192,170200,128,0,170400:0:0:0:0:
182,192,170200,1,0,0:0:0:0:
475,192,170400,1,0,0:0:0:0:
109,192,170400,1,0,0:0:0:0:
402,192,170400,1,0,0:0:0:0:
475,192,170600,128,0,171200:0:0:0:0:
182,192,170600,1,0,0:0:0:0:
256,192,170800,128,0,171000:0:0:0:0:
402,192,170800,1,0,0:0:0:0:
36,192,170800,1,0,0:0:0:0:
109,192,170800,1,0,0:0:0:0:
329,192,171000,128,0,171200:0:0:0:0:
182,192,171000,1,0,0:0:0:0:
109,192,171200,1,0,0:0:0:0:
402,192,171200,1,0,0:0:0:0:
36,192,171400,1,0,0:0:0:0:
475,192,171400,1,0,0:0:0:0:
256,192,171400,1,0,0:0:0:0:
182,192,171600,1,0,0:0:0:0:
329,192,171600,1,0,0:0:0:0:
256,192,171800,1,0,0:0:0:0:
182,192,172000,1,0,0:0:0:0:
329,192,172000,1,0,0:0:0:0:
256,192,172200,1,0,0:0:0:0:
36,192,172400,1,0,0:0:0:0:
182,192,172400,1,0,0:0:0:0:
329,192,172400,1,0,0:0:0:0:
475,192,172400,1,0,0:0:0:0:
256,192,172600,1,0,0:0:0:0:
475,192,172800,1,0,0:0:0:0:
36,192,172800,1,0,0:0:0:0:
182,192,172800,1,0,0:0:0:0:
475,192,173000,128,0,173500:0:0:0:0:
109,192,173000,1,0,0:0:0:0:
256,192,173200,128,0,173400:0:0:0:0:
36,192,173200,1,0,0:0:0:0:
402,192,173200,1,0,0:0:0:0:
182,192,173200,1,0,0:0:0:0:
329,192,173400,128,0,173600:0:0:0:0:
109,192,173400,1,0,0:0:0:0:
475,192,173600,1,0,0:0:0:0:
182,192,173600,1,0,0:0:0:0:
402,192,173600,1,0,0:0:0:0:
475,192,173800,128,0,174400:0:0:0:0:
36,192,173800,1,0,0:0:0:0:
256,192,174000,128,0,174200:0:0:0:0:
109,192,174000,1,0,0:0:0:0:
402,192,174000,1,0,0:0:0:0:
182,192,174000,1,0,0:0:0:0:
329,192,174200,128,0,174400:0:0:0:0:
36,192,174200,1,0,0:0:0:0:
109,192,174400,1,0,0:0:0:0:
402,192,174400,1,0,0:0:0:0:
256,192,174600,1,0,0:0:0:0:
36,192,174800,1,0,0:0:0:0:
182,192,174800,1,0,0:0:0:0:
329,192,174800,1,0,0:0:0:0:
402,192,175000,1,0,0:0:0:0:
475,192,175200,1,0,0:0:0:0:
329,192,175200,1,0,0:0:0:0:
182,192,175200,1,0,0:0:0:0:
109,192,175400,1,0,0:0:0:0:
36,192,175600,1,0,0:0:0:0:
182,192,175600,1,0,0:0:0:0:
329,192,175600,1,0,0:0:0:0:
475,192,175600,1,0,0:0:0:0:
109,192,175800,1,0,0:0:0:0:
402,192,175900,1,0,0:0:0:0:
182,192,176000,1,0,0:0:0:0:
329,192,176000,1,0,0:0:0:0:
475,192,176200,128,0,176700:0:0:0:0:
109,192,176200,1,0,0:0:0:0:
256,192,176400,128,0,176600:0:0:0:0:
36,192,176400,1,0,0:0:0:0:
402,192,176400,1,0,0:0:0:0:
329,192,176600,128,0,176800:0:0:0:0:
182,192,176600,1,0,0:0:0:0:
109,192,176700,1,0,0:0:0:0:
475,192,176800,1,0,0:0:0:0:
36,192,176800,1,0,0:0:0:0:
182,192,176900,1,0,0:0:0:0:
402,192,177000,128,0,177400:0:0:0:0:
109,192,177000,1,0,0:0:0:0:
256,192,177200,128,0,177400:0:0:0:0:
475,192,177200,128,0,177600:0:0:0:0:
182,192,177200,1,0,0:0:0:0:
36,192,177200,1,0,0:0:0:0:
329,192,177400,128,0,177600:0:0:0:0:
109,192,177400,1,0,0:0:0:0:
402,192,177600,1,0,0:0:0:0:
36,192,177600,1,0,0:0:0:0:
109,192,177800,1,0,0:0:0:0:
256,192,177800,1,0,0:0:0:0:
182,192,177900,1,0,0:0:0:0:
329,192,177900,1,0,0:0:0:0:
256,192,178000,1,0,0:0:0:0:
402,192,178000,1,0,0:0:0:0:
329,192,178100,1,0,0:0:0:0:
475,192,178100,1,0,0:0:0:0:
182,192,178200,1,0,0:0:0:0:
36,192,178200,1,0,0:0:0:0:
256,192,178400,1,0,0:0:0:0:
402,192,178400,1,0,0:0:0:0:
36,192,178600,1,0,0:0:0:0:
475,192,178600,1,0,0:0:0:0:
182,192,178600,1,0,0:0:0:0:
329,192,178800,1,0,0:0:0:0:
475,192,178800,1,0,0:0:0:0:
36,192,178800,1,0,0:0:0:0:
109,192,179000,128,0,179200:0:0:0:0:
402,192,179000,128,0,179200:0:0:0:0:
256,192,179200,128,0,179300:0:0:0:0:
36,192,179200,1,0,0:0:0:0:
329,192,179300,128,0,179400:0:0:0:0:
402,192,179400,128,0,179500:0:0:0:0:
109,192,179400,1,0,0:0:0:0:
182,192,179500,128,0,179600:0:0:0:0:
256,192,179600,128,0,179700:0:0:0:0:
475,192,179600,1,0,0:0:0:0:
36,192,179600,1,0,0:0:0:0:
329,192,179700,128,0,179800:0:0:0:0:
109,192,179800,128,0,179900:0:0:0:0:
402,192,179800,1,0,0:0:0:0:
182,192,179900,128,0,180000:0:0:0:0:
256,192,180000,128,0,180100:0:0:0:0:
475,192,180000,1,0,0:0:0:0:
402,192,180200,128,0,180300:0:0:0:0:
109,192,180200,1,0,0:0:0:0:
329,192,180300,128,0,180400:0:0:0:0:
256,192,180400,128,0,180500:0:0:0:0:
36,192,180400,1,0,0:0:0:0:
182,192,180400,1,0,0:0:0:0:
475,192,180500,128,0,180600:0:0:0:0:
402,192,180600,128,0,180700:0:0:0:0:
109,192,180600,1,0,0:0:0:0:
329,192,180700,128,0,180800:0:0:0:0:
182,192,180800,1,0,0:0:0:0:
256,192,180800,128,0,180900:0:0:0:0:
475,192,180800,1,0,0:0:0:0:
329,192,180900,128,0,181000:0:0:0:0:
402,192,181000,128,0,181100:0:0:0:0:
109,192,181000,1,0,0:0:0:0:
182,192,181100,128,0,181200:0:0:0:0:
256,192,181200,128,0,181300:0:0:0:0:
36,192,181200,1,0,0:0:0:0:
475,192,181200,1,0,0:0:0:0:
329,192,181300,128,0,181400:0:0:0:0:
109,192,181400,128,0,181500:0:0:0:0:
402,192,181400,1,0,0:0:0:0:
182,192,181500,128,0,181600:0:0:0:0:
256,192,181600,128,0,181700:0:0:0:0:
475,192,181600,1,0,0:0:0:0:
36,192,181600,1,0,0:0:0:0:
402,192,181800,128,0,181900:0:0:0:0:
182,192,181800,1,0,0:0:0:0:
329,192,181900,128,0,182000:0:0:0:0:
256,192,182000,128,0,182100:0:0:0:0:
109,192,182000,1,0,0:0:0:0:
36,192,182000,1,0,0:0:0:0:
475,192,182100,128,0,182200:0:0:0:0:
402,192,182200,128,0,182300:0:0:0:0:
182,192,182200,1,0,0:0:0:0:
329,192,182300,128,0,182400:0:0:0:0:
109,192,182300,1,0,0:0:0:0:
36,192,182400,1,0,0:0:0:0:
256,192,182400,128,0,182500:0:0:0:0:
329,192,182500,128,0,182600:0:0:0:0:
109,192,182600,1,0,0:0:0:0:
402,192,182600,128,0,182700:0:0:0:0:
182,192,182700,128,0,182800:0:0:0:0:
256,192,182800,128,0,182900:0:0:0:0:
475,192,182800,1,0,0:0:0:0:
36,192,182800,1,0,0:0:0:0:
329,192,182900,128,0,183000:0:0:0:0:
402,192,183000,1,0,0:0:0:0:
109,192,183000,128,0,183100:0:0:0:0:
182,192,183100,128,0,183200:0:0:0:0:
475,192,183200,1,0,0:0:0:0:
256,192,183200,128,0,183300:0:0:0:0:
402,192,183400,128,0,183500:0:0:0:0:
109,192,183400,1,0,0:0:0:0:
329,192,183500,128,0,183600:0:0:0:0:
36,192,183600,1,0,0:0:0:0:
182,192,183600,1,0,0:0:0:0:
256,192,183600,128,0,183700:0:0:0:0:
475,192,183700,128,0,183800:0:0:0:0:
402,192,183800,128,0,183900:0:0:0:0:
109,192,183800,1,0,0:0:0:0:
329,192,183900,128,0,184000:0:0:0:0:
256,192,184000,128,0,184100:0:0:0:0:
182,192,184000,1,0,0:0:0:0:
475,192,184000,1,0,0:0:0:0:
329,192,184100,128,0,184200:0:0:0:0:
109,192,184200,1,0,0:0:0:0:
402,192,184200,128,0,184300:0:0:0:0:
182,192,184300,128,0,184400:0:0:0:0:
475,192,184400,1,0,0:0:0:0:
256,192,184400,128,0,184500:0:0:0:0:
36,192,184400,1,0,0:0:0:0:
329,192,184500,128,0,184600:0:0:0:0:
109,192,184600,128,0,184700:0:0:0:0:
402,192,184600,1,0,0:0:0:0:
182,192,184700,128,0,184800:0:0:0:0:
256,192,184800,128,0,184900:0:0:0:0:
475,192,184800,1,0,0:0:0:0:
36,192,184800,1,0,0:0:0:0:
402,192,185000,128,0,185100:0:0:0:0:
182,192,185000,1,0,0:0:0:0:
329,192,185100,128,0,185200:0:0:0:0:
109,192,185200,1,0,0:0:0:0:
256,192,185200,128,0,185300:0:0:0:0:
36,192,185200,1,0,0:0:0:0:
475,192,185300,128,0,185400:0:0:0:0:
182,192,185400,1,0,0:0:0:0:
402,192,185400,128,0,185500:0:0:0:0:
109,192,185500,1,0,0:0:0:0:
329,192,185500,128,0,185600:0:0:0:0:
36,192,185600,1,0,0:0:0:0:
256,192,185600,128,0,185700:0:0:0:0:
329,192,185700,128,0,185800:0:0:0:0:
109,192,185800,1,0,0:0:0:0:
402,192,185800,128,0,185900:0:0:0:0:
182,192,185900,128,0,186000:0:0:0:0:
256,192,186000,128,0,186100:0:0:0:0:
36,192,186000,1,0,0:0:0:0:
475,192,186000,1,0,0:0:0:0:
182,192,186100,128,0,186200:0:0:0:0:
109,192,186200,1,0,0:0:0:0:
402,192,186200,128,0,186300:0:0:0:0:
329,192,186300,128,0,186400:0:0:0:0:
36,192,186400,1,0,0:0:0:0:
256,192,186400,128,0,186500:0:0:0:0:
109,192,186600,128,0,186700:0:0:0:0:
402,192,186600,1,0,0:0:0:0:
182,192,186700,128,0,186800:0:0:0:0:
475,192,186800,1,0,0:0:0:0:
329,192,186800,1,0,0:0:0:0:
256,192,186800,128,0,186900:0:0:0:0:
36,192,186900,128,0,187000:0:0:0:0:
109,192,187000,128,0,187100:0:0:0:0:
402,192,187000,1,0,0:0:0:0:
182,192,187100,128,0,187200:0:0:0:0:
256,192,187200,128,0,187300:0:0:0:0:
329,192,187200,1,0,0:0:0:0:
36,192,187200,1,0,0:0:0:0:
182,192,187300,128,0,187400:0:0:0:0:
402,192,187400,1,0,0:0:0:0:
109,192,187400,128,0,187500:0:0:0:0:
329,192,187500,128,0,187600:0:0:0:0:
36,192,187600,1,0,0:0:0:0:
256,192,187600,128,0,187700:0:0:0:0:
475,192,187600,1,0,0:0:0:0:
182,192,187700,128,0,187800:0:0:0:0:
402,192,187800,128,0,187900:0:0:0:0:
109,192,187800,1,0,0:0:0:0:
329,192,187900,128,0,188000:0:0:0:0:
256,192,188000,128,0,188100:0:0:0:0:
36,192,188000,1,0,0:0:0:0:
475,192,188000,1,0,0:0:0:0:
109,192,188200,128,0,188300:0:0:0:0:
329,192,188200,1,0,0:0:0:0:
182,192,188300,128,0,188400:0:0:0:0:
402,192,188400,1,0,0:0:0:0:
256,192,188400,128,0,188500:0:0:0:0:
475,192,188400,1,0,0:0:0:0:
36,192,188500,128,0,188600:0:0:0:0:
329,192,188600,1,0,0:0:0:0:
109,192,188600,128,0,188700:0:0:0:0:
402,192,188700,1,0,0:0:0:0:
182,192,188700,128,0,188800:0:0:0:0:
256,192,188800,128,0,188900:0:0:0:0:
36,192,188800,1,0,0:0:0:0:
475,192,188800,1,0,0:0:0:0:
182,192,188900,128,0,189000:0:0:0:0:
402,192,189000,128,0,189100:0:0:0:0:
109,192,189000,1,0,0:0:0:0:
329,192,189100,128,0,189200:0:0:0:0:
256,192,189200,128,0,189300:0:0:0:0:
36,192,189200,1,0,0:0:0:0:
109,192,189400,128,0,189500:0:0:0:0:
36,192,189400,1,0,0:0:0:0:
329,192,189400,1,0,0:0:0:0:
182,192,189500,128,0,189600:0:0:0:0:
402,192,189500,1,0,0:0:0:0:
256,192,189500,1,0,0:0:0:0:
475,192,189600,1,0,0:0:0:0:
256,192,189600,128,0,189700:0:0:0:0:
329,192,189600,1,0,0:0:0:0:
36,192,189700,128,0,189800:0:0:0:0:
402,192,189800,1,0,0:0:0:0:
109,192,189800,128,0,189900:0:0:0:0:
182,192,189900,128,0,190000:0:0:0:0:
329,192,190000,1,0,0:0:0:0:
36,192,190000,1,0,0:0:0:0:
256,192,190000,128,0,190100:0:0:0:0:
182,192,190100,128,0,190200:0:0:0:0:
109,192,190200,128,0,190300:0:0:0:0:
402,192,190200,1,0,0:0:0:0:
329,192,190300,128,0,190400:0:0:0:0:
36,192,190400,1,0,0:0:0:0:
256,192,190400,128,0,190500:0:0:0:0:
475,192,190400,1,0,0:0:0:0:
182,192,190500,128,0,190600:0:0:0:0:
402,192,190600,128,0,190700:0:0:0:0:
256,192,190600,1,0,0:0:0:0:
36,192,190600,1,0,0:0:0:0:
329,192,190700,128,0,190800:0:0:0:0:
182,192,190700,1,0,0:0:0:0:
256,192,190800,128,0,190900:0:0:0:0:
475,192,190800,1,0,0:0:0:0:
36,192,190800,1,0,0:0:0:0:
109,192,190800,1,0,0:0:0:0:
402,192,190900,1,0,0:0:0:0:
329,192,191000,1,0,0:0:0:0:
109,192,191000,128,0,191100:0:0:0:0:
182,192,191100,128,0,191200:0:0:0:0:
402,192,191200,1,0,0:0:0:0:
475,192,191200,1,0,0:0:0:0:
256,192,191200,128,0,191300:0:0:0:0:
36,192,191300,128,0,191400:0:0:0:0:
109,192,191400,128,0,191500:0:0:0:0:
329,192,191400,1,0,0:0:0:0:
402,192,191500,1,0,0:0:0:0:
182,192,191500,128,0,191600:0:0:0:0:
329,192,191600,128,0,191700:0:0:0:0:
475,192,191600,1,0,0:0:0:0:
109,192,191700,128,0,191800:0:0:0:0:
256,192,191700,1,0,0:0:0:0:
256,192,191800,128,0,191900:0:0:0:0:
475,192,191800,1,0,0:0:0:0:
182,192,191900,128,0,192000:0:0:0:0:
402,192,191900,1,0,0:0:0:0:
36,192,192000,1,0,0:0:0:0:
475,192,192000,1,0,0:0:0:0:
329,192,192000,1,0,0:0:0:0:
256,192,192000,1,0,0:0:0:0:
182,192,192100,1,0,0:0:0:0:
402,192,192100,1,0,0:0:0:0:
36,192,192200,1,0,0:0:0:0:
329,192,192200,1,0,0:0:0:0:
475,192,192200,1,0,0:0:0:0:
182,192,192300,1,0,0:0:0:0:
402,192,192300,1,0,0:0:0:0:
109,192,192400,1,0,0:0:0:0:
329,192,192400,1,0,0:0:0:0:
36,192,192400,1,0,0:0:0:0:
256,192,192400,1,0,0:0:0:0:
475,192,192500,1,0,0:0:0:0:
182,192,192500,1,0,0:0:0:0:
109,192,192600,1,0,0:0:0:0:
402,192,192600,1,0,0:0:0:0:
329,192,192600,1,0,0:0:0:0:
256,192,192700,1,0,0:0:0:0:
36,192,192700,1,0,0:0:0:0:
182,192,192800,1,0,0:0:0:0:
475,192,192800,1,0,0:0:0:0:
109,192,192800,1,0,0:0:0:0:
329,192,192900,1,0,0:0:0:0:
36,192,192900,1,0,0:0:0:0:
182,192,193000,1,0,0:0:0:0:
475,192,193000,1,0,0:0:0:0:
329,192,193100,1,0,0:0:0:0:
36,192,193200,1,0,0:0:0:0:
475,192,193200,1,0,0:0:0:0:
109,192,193200,1,0,0:0:0:0:
256,192,193200,1,0,0:0:0:0:
182,192,193300,1,0,0:0:0:0:
329,192,193300,1,0,0:0:0:0:
36,192,193400,1,0,0:0:0:0:
475,192,193400,1,0,0:0:0:0:
109,192,193400,1,0,0:0:0:0:
182,192,193500,1,0,0:0:0:0:
329,192,193500,1,0,0:0:0:0:
475,192,193600,1,0,0:0:0:0:
256,192,193600,1,0,0:0:0:0:
109,192,193600,1,0,0:0:0:0:
329,192,193700,1,0,0:0:0:0:
182,192,193700,1,0,0:0:0:0:
475,192,193800,1,0,0:0:0:0:
109,192,193800,1,0,0:0:0:0:
402,192,193800,1,0,0:0:0:0:
36,192,193900,1,0,0:0:0:0:
256,192,193900,1,0,0:0:0:0:
402,192,194000,1,0,0:0:0:0:
182,192,194000,1,0,0:0:0:0:
475,192,194000,1,0,0:0:0:0:
329,192,194000,1,0,0:0:0:0:
256,192,194100,1,0,0:0:0:0:
109,192,194100,1,0,0:0:0:0:
402,192,194200,1,0,0:0:0:0:
36,192,194200,1,0,0:0:0:0:
182,192,194200,1,0,0:0:0:0:
256,192,194300,1,0,0:0:0:0:
109,192,194300,1,0,0:0:0:0:
329,192,194400,1,0,0:0:0:0:
36,192,194400,1,0,0:0:0:0:
475,192,194400,1,0,0:0:0:0:
182,192,194500,1,0,0:0:0:0:
402,192,194500,1,0,0:0:0:0:
329,192,194600,1,0,0:0:0:0:
36,192,194600,1,0,0:0:0:0:
256,192,194600,1,0,0:0:0:0:
182,192,194700,1,0,0:0:0:0:
402,192,194700,1,0,0:0:0:0:
475,192,194800,1,0,0:0:0:0:
36,192,194800,1,0,0:0:0:0:
256,192,194800,1,0,0:0:0:0:
109,192,194800,1,0,0:0:0:0:
329,192,194900,1,0,0:0:0:0:
182,192,194900,1,0,0:0:0:0:
475,192,195000,1,0,0:0:0:0:
36,192,195000,1,0,0:0:0:0:
329,192,195100,1,0,0:0:0:0:
182,192,195100,1,0,0:0:0:0:
36,192,195200,1,0,0:0:0:0:
256,192,195200,1,0,0:0:0:0:
475,192,195200,1,0,0:0:0:0:
182,192,195300,1,0,0:0:0:0:
329,192,195300,1,0,0:0:0:0:
36,192,195400,1,0,0:0:0:0:
256,192,195400,1,0,0:0:0:0:
402,192,195400,1,0,0:0:0:0:
182,192,195500,1,0,0:0:0:0:
109,192,195600,1,0,0:0:0:0:
329,192,195600,1,0,0:0:0:0:
475,192,195600,1,0,0:0:0:0:
402,192,195600,1,0,0:0:0:0:
256,192,195700,1,0,0:0:0:0:
36,192,195700,1,0,0:0:0:0:
109,192,195800,1,0,0:0:0:0:
329,192,195800,1,0,0:0:0:0:
475,192,195800,1,0,0:0:0:0:
256,192,195900,1,0,0:0:0:0:
36,192,195900,1,0,0:0:0:0:
182,192,196000,1,0,0:0:0:0:
475,192,196000,1,0,0:0:0:0:
402,192,196000,1,0,0:0:0:0:
329,192,196100,1,0,0:0:0:0:
36,192,196100,1,0,0:0:0:0:
182,192,196200,1,0,0:0:0:0:
475,192,196200,1,0,0:0:0:0:
109,192,196200,1,0,0:0:0:0:
329,192,196300,1,0,0:0:0:0:
36,192,196400,1,0,0:0:0:0:
256,192,196400,1,0,0:0:0:0:
475,192,196400,1,0,0:0:0:0:
402,192,196400,1,0,0:0:0:0:
182,192,196500,1,0,0:0:0:0:
329,192,196500,1,0,0:0:0:0:
36,192,196600,1,0,0:0:0:0:
256,192,196600,1,0,0:0:0:0:
402,192,196600,1,0,0:0:0:0:
182,192,196700,1,0,0:0:0:0:
475,192,196800,1,0,0:0:0:0:
109,192,196800,1,0,0:0:0:0:
256,192,196800,1,0,0:0:0:0:
329,192,196900,1,0,0:0:0:0:
182,192,196900,1,0,0:0:0:0:
475,192,197000,1,0,0:0:0:0:
256,192,197000,1,0,0:0:0:0:
36,192,197000,1,0,0:0:0:0:
109,192,197000,1,0,0:0:0:0:
329,192,197100,1,0,0:0:0:0:
182,192,197100,1,0,0:0:0:0:
402,192,197200,1,0,0:0:0:0:
109,192,197200,1,0,0:0:0:0:
475,192,197200,1,0,0:0:0:0:
256,192,197300,1,0,0:0:0:0:
36,192,197300,1,0,0:0:0:0:
402,192,197400,1,0,0:0:0:0:
182,192,197400,1,0,0:0:0:0:
109,192,197400,1,0,0:0:0:0:
256,192,197500,1,0,0:0:0:0:
475,192,197500,1,0,0:0:0:0:
329,192,197600,1,0,0:0:0:0:
109,192,197600,1,0,0:0:0:0:
36,192,197600,1,0,0:0:0:0:
182,192,197700,1,0,0:0:0:0:
402,192,197700,1,0,0:0:0:0:
475,192,197800,1,0,0:0:0:0:
36,192,197800,1,0,0:0:0:0:
256,192,197800,1,0,0:0:0:0:
182,192,197900,1,0,0:0:0:0:
329,192,197900,1,0,0:0:0:0:
475,192,198000,1,0,0:0:0:0:
256,192,198000,1,0,0:0:0:0:
36,192,198000,1,0,0:0:0:0:
402,192,198000,1,0,0:0:0:0:
329,192,198100,1,0,0:0:0:0:
109,192,198100,1,0,0:0:0:0:
475,192,198200,1,0,0:0:0:0:
182,192,198200,1,0,0:0:0:0:
329,192,198300,1,0,0:0:0:0:
109,192,198300,1,0,0:0:0:0:
36,192,198400,1,0,0:0:0:0:
402,192,198400,1,0,0:0:0:0:
256,192,198400,1,0,0:0:0:0:
182,192,198500,1,0,0:0:0:0:
475,192,198500,1,0,0:0:0:0:
329,192,198500,1,0,0:0:0:0:
36,192,198600,1,0,0:0:0:0:
256,192,198600,1,0,0:0:0:0:
182,192,198700,1,0,0:0:0:0:
402,192,198700,1,0,0:0:0:0:
109,192,198800,1,0,0:0:0:0:
475,192,198800,1,0,0:0:0:0:
36,192,198800,1,0,0:0:0:0:
329,192,198800,1,0,0:0:0:0:
256,192,198900,1,0,0:0:0:0:
402,192,198900,1,0,0:0:0:0:
109,192,199000,1,0,0:0:0:0:
329,192,199000,1,0,0:0:0:0:
256,192,199100,1,0,0:0:0:0:
475,192,199100,1,0,0:0:0:0:
182,192,199200,1,0,0:0:0:0:
402,192,199200,1,0,0:0:0:0:
36,192,199200,1,0,0:0:0:0:
329,192,199300,1,0,0:0:0:0:
182,192,199400,1,0,0:0:0:0:
475,192,199400,1,0,0:0:0:0:
109,192,199400,1,0,0:0:0:0:
329,192,199500,1,0,0:0:0:0:
36,192,199600,1,0,0:0:0:0:
256,192,199600,1,0,0:0:0:0:
475,192,199600,1,0,0:0:0:0:
109,192,199600,1,0,0:0:0:0:
182,192,199700,1,0,0:0:0:0:
402,192,199700,1,0,0:0:0:0:
36,192,199800,1,0,0:0:0:0:
256,192,199800,1,0,0:0:0:0:
475,192,199800,1,0,0:0:0:0:
182,192,199900,1,0,0:0:0:0:
402,192,199900,1,0,0:0:0:0:
475,192,200000,1,0,0:0:0:0:
256,192,200000,1,0,0:0:0:0:
36,192,200000,1,0,0:0:0:0:
329,192,200100,1,0,0:0:0:0:
475,192,200200,1,0,0:0:0:0:
256,192,200200,1,0,0:0:0:0:
109,192,200200,1,0,0:0:0:0:
329,192,200300,1,0,0:0:0:0:
402,192,200400,1,0,0:0:0:0:
182,192,200400,1,0,0:0:0:0:
475,192,200400,1,0,0:0:0:0:
109,192,200400,1,0,0:0:0:0:
256,192,200500,1,0,0:0:0:0:
36,192,200500,1,0,0:0:0:0:
402,192,200600,1,0,0:0:0:0:
109,192,200600,1,0,0:0:0:0:
256,192,200700,1,0,0:0:0:0:
36,192,200700,1,0,0:0:0:0:
329,192,200800,1,0,0:0:0:0:
475,192,200800,1,0,0:0:0:0:
182,192,200800,1,0,0:0:0:0:
329,192,201000,1,0,0:0:0:0:
475,192,201000,1,0,0:0:0:0:
109,192,201000,1,0,0:0:0:0:
402,192,201100,1,0,0:0:0:0:
475,192,201200,1,0,0:0:0:0:
256,192,201200,1,0,0:0:0:0:
36,192,201200,1,0,0:0:0:0:
109,192,201200,1,0,0:0:0:0:
329,192,201300,1,0,0:0:0:0:
182,192,201300,1,0,0:0:0:0:
475,192,201400,1,0,0:0:0:0:
36,192,201400,1,0,0:0:0:0:
329,192,201500,1,0,0:0:0:0:
182,192,201500,1,0,0:0:0:0:
109,192,201600,1,0,0:0:0:0:
402,192,201600,1,0,0:0:0:0:
475,192,201600,128,0,202000:0:0:0:0:
36,192,201600,128,0,202200:0:0:0:0:
402,192,201800,128,0,202200:0:0:0:0:
109,192,201800,128,0,202400:0:0:0:0:
329,192,202000,128,0,202400:0:0:0:0:
182,192,202000,128,0,202600:0:0:0:0:
256,192,202200,128,0,202600:0:0:0:0:
475,192,202200,128,0,202800:0:0:0:0:
36,192,202400,128,0,202800:0:0:0:0:
109,192,202600,128,0,203000:0:0:0:0:
329,192,202600,128,0,203200:0:0:0:0:
182,192,202800,128,0,203200:0:0:0:0:
402,192,202800,128,0,203400:0:0:0:0:
256,192,203000,128,0,203400:0:0:0:0:
475,192,203000,128,0,203600:0:0:0:0:
36,192,203200,128,0,203600:0:0:0:0:
109,192,203200,128,0,203800:0:0:0:0:
182,192,203400,128,0,203800:0:0:0:0:
329,192,203400,128,0,204000:0:0:0:0:
256,192,203600,128,0,204000:0:0:0:0:
402,192,203600,128,0,204200:0:0:0:0:
475,192,203800,128,0,204200:0:0:0:0:
36,192,203800,128,0,204400:0:0:0:0:
109,192,204000,128,0,204400:0:0:0:0:
182,192,204000,128,0,204800:0:0:0:0:
256,192,204200,128,0,204600:0:0:0:0:
329,192,204200,128,0,204800:0:0:0:0:
475,192,204400,128,0,204800:0:0:0:0:
402,192,204600,128,0,204800:0:0:0:0:
109,192,204600,128,0,204800:0:0:0:0:
36,192,204800,128,0,205000:0:0:0:0:
256,192,204900,128,0,205000:0:0:0:0:
109,192,205000,128,0,205200:0:0:0:0:
329,192,205100,128,0,205200:0:0:0:0:
182,192,205200,128,0,205400:0:0:0:0:
402,192,205300,128,0,205400:0:0:0:0:
256,192,205400,128,0,205600:0:0:0:0:
475,192,205500,128,0,205600:0:0:0:0:
402,192,205600,128,0,205800:0:0:0:0:
182,192,205700,128,0,205800:0:0:0:0:
329,192,205800,128,0,206000:0:0:0:0:
109,192,205900,128,0,206000:0:0:0:0:
256,192,206000,128,0,206200:0:0:0:0:
36,192,206100,128,0,206200:0:0:0:0:
109,192,206200,128,0,206400:0:0:0:0:
402,192,206300,128,0,206400:0:0:0:0:
36,192,206400,128,0,206700:0:0:0:0:
182,192,206500,128,0,206800:0:0:0:0:
329,192,206600,128,0,206900:0:0:0:0:
475,192,206700,128,0,207000:0:0:0:0:
109,192,206800,128,0,207100:0:0:0:0:
256,192,206900,128,0,207200:0:0:0:0:
402,192,207000,128,0,207300:0:0:0:0:
36,192,207300,128,0,207700:0:0:0:0:
182,192,207400,128,0,207800:0:0:0:0:
329,192,207500,128,0,207900:0:0:0:0:
475,192,207600,128,0,208000:0:0:0:0:
36,192,208000,128,0,208200:0:0:0:0:
109,192,208100,128,0,208200:0:0:0:0:
182,192,208200,128,0,208400:0:0:0:0:
256,192,208300,128,0,208400:0:0:0:0:
329,192,208400,128,0,208600:0:0:0:0:
402,192,208500,128,0,208600:0:0:0:0:
475,192,208600,128,0,208800:0:0:0:0:
402,192,208700,128,0,208800:0:0:0:0:
329,192,208700,128,0,208900:0:0:0:0:
256,192,208800,128,0,208900:0:0:0:0:
182,192,208900,128,0,209100:0:0:0:0:
109,192,209000,128,0,209100:0:0:0:0:
36,192,209100,128,0,209300:0:0:0:0:
109,192,209200,128,0,209300:0:0:0:0:
182,192,209200,128,0,209400:0:0:0:0:
256,192,209300,128,0,209400:0:0:0:0:
329,192,209400,128,0,209600:0:0:0:0:
402,192,209500,128,0,209600:0:0:0:0:
475,192,209600,128,0,210000:0:0:0:0:
36,192,209700,128,0,210100:0:0:0:0:
182,192,209800,128,0,210200:0:0:0:0:
329,192,209900,128,0,210300:0:0:0:0:
402,192,210000,128,0,210400:0:0:0:0:
256,192,210100,128,0,210500:0:0:0:0:
109,192,210200,128,0,210600:0:0:0:0:
475,192,210400,128,0,211200:0:0:0:0:
329,192,210600,128,0,211200:0:0:0:0:
36,192,210800,128,0,211200:0:0:0:0:
182,192,211000,128,0,211200:0:0:0:0:
109,192,211200,128,0,211400:0:0:0:0:
182,192,211300,128,0,211500:0:0:0:0:
36,192,211400,128,0,211600:0:0:0:0:
109,192,211500,128,0,211700:0:0:0:0:
182,192,211600,128,0,211800:0:0:0:0:
256,192,211700,128,0,211900:0:0:0:0:
109,192,211800,128,0,212000:0:0:0:0:
182,192,211900,128,0,212100:0:0:0:0:
256,192,212000,128,0,212200:0:0:0:0:
329,192,212100,128,0,212300:0:0:0:0:
182,192,212200,128,0,212400:0:0:0:0:
256,192,212300,128,0,212500:0:0:0:0:
329,192,212400,128,0,212600:0:0:0:0:
402,192,212500,128,0,212700:0:0:0:0:
256,192,212600,128,0,212800:0:0:0:0:
329,192,212700,128,0,212800:0:0:0:0:
36,192,212800,128,0,213500:0:0:0:0:
109,192,212900,128,0,213600:0:0:0:0:
182,192,213000,128,0,213700:0:0:0:0:
256,192,213100,128,0,213800:0:0:0:0:
475,192,213200,128,0,214100:0:0:0:0:
402,192,213300,128,0,214000:0:0:0:0:
329,192,213400,128,0,213900:0:0:0:0:
36,192,213600,128,0,214400:0:0:0:0:
182,192,213800,128,0,214400:0:0:0:0:
329,192,214000,128,0,214400:0:0:0:0:
475,192,214200,128,0,214400:0:0:0:0:
402,192,214400,128,0,214600:0:0:0:0:
256,192,214500,128,0,214700:0:0:0:0:
329,192,214600,128,0,214800:0:0:0:0:
182,192,214700,128,0,214900:0:0:0:0:
256,192,214800,128,0,215000:0:0:0:0:
109,192,214900,128,0,215100:0:0:0:0:
182,192,215000,128,0,215200:0:0:0:0:
36,192,215100,128,0,215300:0:0:0:0:
256,192,215200,128,0,215400:0:0:0:0:
182,192,215300,128,0,215500:0:0:0:0:
329,192,215400,128,0,215600:0:0:0:0:
256,192,215500,128,0,215700:0:0:0:0:
402,192,215600,128,0,215800:0:0:0:0:
329,192,215700,128,0,215900:0:0:0:0:
475,192,215800,128,0,216000:0:0:0:0:
402,192,215900,128,0,216000:0:0:0:0:
36,192,216000,1,0,0:0:0:0:
109,192,216100,1,0,0:0:0:0:
36,192,216100,128,0,216700:0:0:0:0:
182,192,216200,1,0,0:0:0:0:
109,192,216200,128,0,216900:0:0:0:0:
256,192,216300,1,0,0:0:0:0:
182,192,216300,128,0,217100:0:0:0:0:
475,192,216400,1,0,0:0:0:0:
256,192,216400,128,0,216600:0:0:0:0:
402,192,216500,1,0,0:0:0:0:
475,192,216500,128,0,217600:0:0:0:0:
329,192,216600,1,0,0:0:0:0:
402,192,216600,128,0,217500:0:0:0:0:
256,192,216700,1,0,0:0:0:0:
329,192,216700,128,0,217400:0:0:0:0:
36,192,216800,128,0,217600:0:0:0:0:
109,192,217000,128,0,217600:0:0:0:0:
182,192,217200,128,0,217600:0:0:0:0:
256,192,217300,1,0,0:0:0:0:
256,192,217400,128,0,217600:0:0:0:0:
329,192,217600,1,0,0:0:0:0:
182,192,217700,1,0,0:0:0:0:
402,192,217700,1,0,0:0:0:0:
109,192,217800,1,0,0:0:0:0:
475,192,217800,1,0,0:0:0:0:
329,192,217800,1,0,0:0:0:0:
182,192,217900,1,0,0:0:0:0:
36,192,218000,1,0,0:0:0:0:
329,192,218000,1,0,0:0:0:0:
402,192,218000,1,0,0:0:0:0:
182,192,218100,1,0,0:0:0:0:
475,192,218100,1,0,0:0:0:0:
109,192,218200,1,0,0:0:0:0:
402,192,218200,1,0,0:0:0:0:
256,192,218200,1,0,0:0:0:0:
182,192,218300,1,0,0:0:0:0:
36,192,218400,1,0,0:0:0:0:
475,192,218400,1,0,0:0:0:0:
402,192,218400,1,0,0:0:0:0:
329,192,218400,1,0,0:0:0:0:
256,192,218500,1,0,0:0:0:0:
109,192,218600,1,0,0:0:0:0:
329,192,218600,1,0,0:0:0:0:
475,192,218600,1,0,0:0:0:0:
182,192,218700,1,0,0:0:0:0:
36,192,218800,1,0,0:0:0:0:
402,192,218800,1,0,0:0:0:0:
329,192,218800,1,0,0:0:0:0:
256,192,218900,1,0,0:0:0:0:
109,192,219000,1,0,0:0:0:0:
402,192,219000,1,0,0:0:0:0:
182,192,219100,1,0,0:0:0:0:
36,192,219200,1,0,0:0:0:0:
329,192,219200,1,0,0:0:0:0:
475,192,219200,1,0,0:0:0:0:
182,192,219300,1,0,0:0:0:0:
402,192,219300,1,0,0:0:0:0:
109,192,219400,1,0,0:0:0:0:
329,192,219400,1,0,0:0:0:0:
182,192,219500,1,0,0:0:0:0:
475,192,219500,1,0,0:0:0:0:
36,192,219600,1,0,0:0:0:0:
402,192,219600,1,0,0:0:0:0:
256,192,219600,1,0,0:0:0:0:
182,192,219700,1,0,0:0:0:0:
109,192,219800,1,0,0:0:0:0:
329,192,219800,1,0,0:0:0:0:
182,192,219900,1,0,0:0:0:0:
402,192,219900,1,0,0:0:0:0:
36,192,220000,1,0,0:0:0:0:
475,192,220000,1,0,0:0:0:0:
329,192,220000,1,0,0:0:0:0:
109,192,220000,1,0,0:0:0:0:
256,192,220100,1,0,0:0:0:0:
109,192,220200,1,0,0:0:0:0:
402,192,220200,1,0,0:0:0:0:
182,192,220300,1,0,0:0:0:0:
329,192,220300,1,0,0:0:0:0:
36,192,220400,1,0,0:0:0:0:
475,192,220400,1,0,0:0:0:0:
256,192,220500,1,0,0:0:0:0:
402,192,220500,1,0,0:0:0:0:
109,192,220600,1,0,0:0:0:0:
329,192,220600,1,0,0:0:0:0:
475,192,220600,1,0,0:0:0:0:
182,192,220700,1,0,0:0:0:0:
402,192,220700,1,0,0:0:0:0:
36,192,220800,1,0,0:0:0:0:
329,192,220800,1,0,0:0:0:0:
475,192,220800,1,0,0:0:0:0:
182,192,220900,1,0,0:0:0:0:
402,192,220900,1,0,0:0:0:0:
109,192,221000,1,0,0:0:0:0:
329,192,221000,1,0,0:0:0:0:
182,192,221100,1,0,0:0:0:0:
475,192,221100,1,0,0:0:0:0:
36,192,221200,1,0,0:0:0:0:
402,192,221200,1,0,0:0:0:0:
329,192,221200,1,0,0:0:0:0:
182,192,221300,1,0,0:0:0:0:
475,192,221300,1,0,0:0:0:0:
109,192,221400,1,0,0:0:0:0:
329,192,221400,1,0,0:0:0:0:
182,192,221500,1,0,0:0:0:0:
402,192,221500,1,0,0:0:0:0:
36,192,221600,1,0,0:0:0:0:
329,192,221600,1,0,0:0:0:0:
475,192,221600,1,0,0:0:0:0:
109,192,221600,1,0,0:0:0:0:
256,192,221700,1,0,0:0:0:0:
109,192,221800,1,0,0:0:0:0:
402,192,221800,1,0,0:0:0:0:
182,192,221900,1,0,0:0:0:0:
329,192,221900,1,0,0:0:0:0:
36,192,222000,1,0,0:0:0:0:
402,192,222000,1,0,0:0:0:0:
256,192,222100,1,0,0:0:0:0:
475,192,222100,1,0,0:0:0:0:
109,192,222200,1,0,0:0:0:0:
402,192,222200,1,0,0:0:0:0:
182,192,222300,1,0,0:0:0:0:
329,192,222300,1,0,0:0:0:0:
36,192,222400,1,0,0:0:0:0:
475,192,222400,1,0,0:0:0:0:
256,192,222400,1,0,0:0:0:0:
182,192,222500,1,0,0:0:0:0:
402,192,222500,1,0,0:0:0:0:
109,192,222600,1,0,0:0:0:0:
329,192,222600,1,0,0:0:0:0:
182,192,222700,1,0,0:0:0:0:
475,192,222700,1,0,0:0:0:0:
36,192,222800,1,0,0:0:0:0:
402,192,222800,1,0,0:0:0:0:
256,192,222800,1,0,0:0:0:0:
182,192,222900,1,0,0:0:0:0:
329,192,222900,1,0,0:0:0:0:
109,192,223000,1,0,0:0:0:0:
475,192,223000,1,0,0:0:0:0:
182,192,223100,1,0,0:0:0:0:
402,192,223100,1,0,0:0:0:0:
36,192,223200,1,0,0:0:0:0:
329,192,223200,1,0,0:0:0:0:
475,192,223200,1,0,0:0:0:0:
109,192,223200,1,0,0:0:0:0:
256,192,223300,1,0,0:0:0:0:
402,192,223400,1,0,0:0:0:0:
182,192,223400,1,0,0:0:0:0:
36,192,223400,1,0,0:0:0:0:
329,192,223500,1,0,0:0:0:0:
256,192,223600,1,0,0:0:0:0:
109,192,223600,1,0,0:0:0:0:
475,192,223600,1,0,0:0:0:0:
402,192,223700,1,0,0:0:0:0:
109,192,223800,1,0,0:0:0:0:
329,192,223800,1,0,0:0:0:0:
182,192,223900,1,0,0:0:0:0:
402,192,223900,1,0,0:0:0:0:
36,192,224000,1,0,0:0:0:0:
475,192,224000,1,0,0:0:0:0:
256,192,224000,1,0,0:0:0:0:
402,192,224100,1,0,0:0:0:0:
109,192,224100,1,0,0:0:0:0:
329,192,224200,1,0,0:0:0:0:
256,192,224200,1,0,0:0:0:0:
475,192,224300,1,0,0:0:0:0:
109,192,224300,1,0,0:0:0:0:
329,192,224400,1,0,0:0:0:0:
182,192,224400,1,0,0:0:0:0:
36,192,224400,1,0,0:0:0:0:
402,192,224500,1,0,0:0:0:0:
109,192,224500,1,0,0:0:0:0:
329,192,224600,1,0,0:0:0:0:
36,192,224600,1,0,0:0:0:0:
475,192,224700,1,0,0:0:0:0:
182,192,224700,1,0,0:0:0:0:
256,192,224800,1,0,0:0:0:0:
109,192,224800,1,0,0:0:0:0:
329,192,224800,1,0,0:0:0:0:
36,192,224800,1,0,0:0:0:0:
402,192,224900,1,0,0:0:0:0:
182,192,224900,1,0,0:0:0:0:
329,192,225000,1,0,0:0:0:0:
109,192,225000,1,0,0:0:0:0:
475,192,225100,1,0,0:0:0:0:
182,192,225100,1,0,0:0:0:0:
256,192,225200,1,0,0:0:0:0:
36,192,225200,1,0,0:0:0:0:
329,192,225200,1,0,0:0:0:0:
402,192,225300,1,0,0:0:0:0:
109,192,225300,1,0,0:0:0:0:
329,192,225400,1,0,0:0:0:0:
182,192,225400,1,0,0:0:0:0:
475,192,225500,1,0,0:0:0:0:
109,192,225500,1,0,0:0:0:0:
329,192,225600,1,0,0:0:0:0:
182,192,225600,1,0,0:0:0:0:
36,192,225600,1,0,0:0:0:0:
402,192,225700,1,0,0:0:0:0:
109,192,225700,1,0,0:0:0:0:
329,192,225800,1,0,0:0:0:0:
256,192,225800,1,0,0:0:0:0:
475,192,225900,1,0,0:0:0:0:
182,192,225900,1,0,0:0:0:0:
329,192,226000,1,0,0:0:0:0:
109,192,226000,1,0,0:0:0:0:
36,192,226000,1,0,0:0:0:0:
402,192,226100,1,0,0:0:0:0:
256,192,226100,1,0,0:0:0:0:
329,192,226200,1,0,0:0:0:0:
109,192,226200,1,0,0:0:0:0:
475,192,226300,1,0,0:0:0:0:
182,192,226300,1,0,0:0:0:0:
256,192,226400,1,0,0:0:0:0:
36,192,226400,1,0,0:0:0:0:
329,192,226400,1,0,0:0:0:0:
109,192,226400,1,0,0:0:0:0:
402,192,226500,1,0,0:0:0:0:
329,192,226600,1,0,0:0:0:0:
182,192,226600,1,0,0:0:0:0:
36,192,226600,1,0,0:0:0:0:
475,192,226700,1,0,0:0:0:0:
256,192,226700,1,0,0:0:0:0:
109,192,226800,1,0,0:0:0:0:
182,192,226800,1,0,0:0:0:0:
329,192,226800,1,0,0:0:0:0:
402,192,226900,1,0,0:0:0:0:
256,192,226900,1,0,0:0:0:0:
329,192,227000,1,0,0:0:0:0:
109,192,227000,1,0,0:0:0:0:
475,192,227100,1,0,0:0:0:0:
182,192,227100,1,0,0:0:0:0:
329,192,227200,1,0,0:0:0:0:
36,192,227200,1,0,0:0:0:0:
109,192,227200,1,0,0:0:0:0:
402,192,227300,1,0,0:0:0:0:
256,192,227300,1,0,0:0:0:0:
329,192,227400,1,0,0:0:0:0:
109,192,227400,1,0,0:0:0:0:
475,192,227500,1,0,0:0:0:0:
256,192,227500,1,0,0:0:0:0:
329,192,227600,1,0,0:0:0:0:
182,192,227600,1,0,0:0:0:0:
36,192,227600,1,0,0:0:0:0:
402,192,227700,1,0,0:0:0:0:
109,192,227700,1,0,0:0:0:0:
329,192,227800,1,0,0:0:0:0:
182,192,227800,1,0,0:0:0:0:
475,192,227900,1,0,0:0:0:0:
109,192,227900,1,0,0:0:0:0:
256,192,228000,1,0,0:0:0:0:
36,192,228000,1,0,0:0:0:0:
182,192,228000,1,0,0:0:0:0:
329,192,228000,1,0,0:0:0:0:
402,192,228100,1,0,0:0:0:0:
109,192,228100,1,0,0:0:0:0:
329,192,228200,1,0,0:0:0:0:
182,192,228200,1,0,0:0:0:0:
475,192,228300,1,0,0:0:0:0:
36,192,228300,1,0,0:0:0:0:
256,192,228400,1,0,0:0:0:0:
109,192,228400,1,0,0:0:0:0:
329,192,228400,1,0,0:0:0:0:
402,192,228500,1,0,0:0:0:0:
182,192,228500,1,0,0:0:0:0:
329,192,228600,1,0,0:0:0:0:
109,192,228600,1,0,0:0:0:0:
475,192,228700,1,0,0:0:0:0:
182,192,228700,1,0,0:0:0:0:
329,192,228800,1,0,0:0:0:0:
36,192,228800,1,0,0:0:0:0:
256,192,228800,1,0,0:0:0:0:
402,192,228900,1,0,0:0:0:0:
182,192,228900,1,0,0:0:0:0:
329,192,229000,1,0,0:0:0:0:
109,192,229000,1,0,0:0:0:0:
475,192,229100,1,0,0:0:0:0:
182,192,229100,1,0,0:0:0:0:
329,192,229200,1,0,0:0:0:0:
36,192,229200,1,0,0:0:0:0:
402,192,229300,1,0,0:0:0:0:
109,192,229300,1,0,0:0:0:0:
329,192,229400,1,0,0:0:0:0:
182,192,229400,1,0,0:0:0:0:
475,192,229400,1,0,0:0:0:0:
36,192,229400,1,0,0:0:0:0:
36,192,229600,1,0,0:0:0:0:
475,192,229600,1,0,0:0:0:0:
109,192,229800,1,0,0:0:0:0:
256,192,229800,1,0,0:0:0:0:
402,192,229800,1,0,0:0:0:0:
182,192,230000,1,0,0:0:0:0:
36,192,230000,1,0,0:0:0:0:
475,192,230000,1,0,0:0:0:0:
329,192,230000,1,0,0:0:0:0:
109,192,230200,1,0,0:0:0:0:
402,192,230200,1,0,0:0:0:0:
256,192,230400,1,0,0:0:0:0:
329,192,230400,1,0,0:0:0:0:
182,192,230400,1,0,0:0:0:0:
475,192,230400,1,0,0:0:0:0:
36,192,230400,128,0,230800:0:0:0:0:
402,192,230600,1,0,0:0:0:0:
109,192,230800,128,0,231200:0:0:0:0:
475,192,230800,1,0,0:0:0:0:
329,192,230800,1,0,0:0:0:0:
182,192,230800,1,0,0:0:0:0:
402,192,231000,1,0,0:0:0:0:
256,192,231200,128,0,231600:0:0:0:0:
329,192,231200,1,0,0:0:0:0:
475,192,231200,1,0,0:0:0:0:
182,192,231200,1,0,0:0:0:0:
36,192,231200,1,0,0:0:0:0:
182,192,231400,128,0,231600:0:0:0:0:
402,192,231400,1,0,0:0:0:0:
36,192,231400,1,0,0:0:0:0:
109,192,231600,128,0,232200:0:0:0:0:
475,192,231600,1,0,0:0:0:0:
182,192,231800,128,0,232000:0:0:0:0:
329,192,231800,1,0,0:0:0:0:
402,192,231800,1,0,0:0:0:0:
475,192,232000,1,0,0:0:0:0:
36,192,232000,1,0,0:0:0:0:
36,192,232200,128,0,232800:0:0:0:0:
256,192,232200,1,0,0:0:0:0:
402,192,232200,1,0,0:0:0:0:
402,192,232400,1,0,0:0:0:0:
475,192,232500,1,0,0:0:0:0:
182,192,232600,1,0,0:0:0:0:
402,192,232600,1,0,0:0:0:0:
329,192,232700,1,0,0:0:0:0:
256,192,232800,128,0,233200:0:0:0:0:
109,192,232800,1,0,0:0:0:0:
402,192,232800,1,0,0:0:0:0:
475,192,232800,1,0,0:0:0:0:
182,192,233000,128,0,233200:0:0:0:0:
329,192,233000,1,0,0:0:0:0:
109,192,233200,128,0,233600:0:0:0:0:
475,192,233200,1,0,0:0:0:0:
36,192,233200,1,0,0:0:0:0:
402,192,233300,1,0,0:0:0:0:
182,192,233400,128,0,233600:0:0:0:0:
475,192,233400,1,0,0:0:0:0:
402,192,233500,1,0,0:0:0:0:
36,192,233600,128,0,234000:0:0:0:0:
329,192,233600,1,0,0:0:0:0:
475,192,233600,1,0,0:0:0:0:
402,192,233800,1,0,0:0:0:0:
109,192,234000,128,0,234400:0:0:0:0:
329,192,234000,1,0,0:0:0:0:
402,192,234100,1,0,0:0:0:0:
329,192,234200,1,0,0:0:0:0:
402,192,234300,1,0,0:0:0:0:
256,192,234400,128,0,234800:0:0:0:0:
475,192,234400,1,0,0:0:0:0:
182,192,234400,1,0,0:0:0:0:
36,192,234400,1,0,0:0:0:0:
182,192,234600,128,0,234800:0:0:0:0:
402,192,234600,1,0,0:0:0:0:
109,192,234600,1,0,0:0:0:0:
109,192,234800,128,0,235400:0:0:0:0:
475,192,234800,1,0,0:0:0:0:
329,192,234900,1,0,0:0:0:0:
182,192,235000,128,0,235600:0:0:0:0:
475,192,235000,1,0,0:0:0:0:
256,192,235000,1,0,0:0:0:0:
402,192,235100,1,0,0:0:0:0:
475,192,235200,1,0,0:0:0:0:
36,192,235200,1,0,0:0:0:0:
402,192,235400,1,0,0:0:0:0:
256,192,235400,1,0,0:0:0:0:
329,192,235500,1,0,0:0:0:0:
475,192,235600,1,0,0:0:0:0:
36,192,235600,1,0,0:0:0:0:
402,192,235700,1,0,0:0:0:0:
329,192,235800,1,0,0:0:0:0:
109,192,235800,1,0,0:0:0:0:
256,192,235900,1,0,0:0:0:0:
36,192,236000,1,0,0:0:0:0:
402,192,236000,1,0,0:0:0:0:
475,192,236000,1,0,0:0:0:0:
182,192,236000,1,0,0:0:0:0:
109,192,236200,128,0,236800:0:0:0:0:
475,192,236200,128,0,236400:0:0:0:0:
402,192,236200,128,0,236800:0:0:0:0:
36,192,236200,1,0,0:0:0:0:
256,192,236400,128,0,236600:0:0:0:0:
182,192,236400,1,0,0:0:0:0:
36,192,236600,128,0,236800:0:0:0:0:
329,192,236600,1,0,0:0:0:0:
475,192,236800,128,0,237200:0:0:0:0:
182,192,236800,1,0,0:0:0:0:
329,192,236800,1,0,0:0:0:0:
256,192,236900,1,0,0:0:0:0:
182,192,237000,1,0,0:0:0:0:
402,192,237200,128,0,237600:0:0:0:0:
36,192,237200,1,0,0:0:0:0:
256,192,237200,1,0,0:0:0:0:
182,192,237300,1,0,0:0:0:0:
109,192,237400,1,0,0:0:0:0:
256,192,237600,128,0,238000:0:0:0:0:
36,192,237600,1,0,0:0:0:0:
329,192,237600,1,0,0:0:0:0:
475,192,237600,1,0,0:0:0:0:
182,192,237600,1,0,0:0:0:0:
329,192,237800,128,0,238000:0:0:0:0:
109,192,237800,1,0,0:0:0:0:
402,192,237800,1,0,0:0:0:0:
402,192,238000,128,0,238400:0:0:0:0:
182,192,238000,1,0,0:0:0:0:
109,192,238100,1,0,0:0:0:0:
329,192,238200,128,0,238600:0:0:0:0:
475,192,238200,1,0,0:0:0:0:
36,192,238200,1,0,0:0:0:0:
109,192,238300,1,0,0:0:0:0:
36,192,238400,1,0,0:0:0:0:
256,192,238400,1,0,0:0:0:0:
182,192,238400,1,0,0:0:0:0:
475,192,238600,128,0,239200:0:0:0:0:
109,192,238600,1,0,0:0:0:0:
402,192,238600,1,0,0:0:0:0:
182,192,238800,1,0,0:0:0:0:
109,192,238900,1,0,0:0:0:0:
182,192,239000,1,0,0:0:0:0:
109,192,239100,1,0,0:0:0:0:
256,192,239200,128,0,239600:0:0:0:0:
36,192,239200,1,0,0:0:0:0:
329,192,239200,1,0,0:0:0:0:
402,192,239200,1,0,0:0:0:0:
329,192,239400,128,0,239600:0:0:0:0:
109,192,239400,1,0,0:0:0:0:
475,192,239400,1,0,0:0:0:0:
402,192,239600,128,0,240000:0:0:0:0:
182,192,239600,1,0,0:0:0:0:
36,192,239600,1,0,0:0:0:0:
109,192,239700,1,0,0:0:0:0:
329,192,239800,128,0,240000:0:0:0:0:
36,192,239800,1,0,0:0:0:0:
109,192,239900,1,0,0:0:0:0:
475,192,240000,128,0,240400:0:0:0:0:
182,192,240000,1,0,0:0:0:0:
256,192,240000,1,0,0:0:0:0:
109,192,240200,1,0,0:0:0:0:
402,192,240400,128,0,240800:0:0:0:0:
256,192,240400,1,0,0:0:0:0:
36,192,240400,1,0,0:0:0:0:
109,192,240500,1,0,0:0:0:0:
36,192,240600,1,0,0:0:0:0:
109,192,240700,1,0,0:0:0:0:
256,192,240800,128,0,241200:0:0:0:0:
36,192,240800,1,0,0:0:0:0:
475,192,240800,1,0,0:0:0:0:
182,192,240800,1,0,0:0:0:0:
109,192,240900,1,0,0:0:0:0:
329,192,241000,128,0,241200:0:0:0:0:
182,192,241000,1,0,0:0:0:0:
475,192,241000,1,0,0:0:0:0:
402,192,241200,128,0,241600:0:0:0:0:
109,192,241200,1,0,0:0:0:0:
182,192,241300,1,0,0:0:0:0:
329,192,241400,128,0,241600:0:0:0:0:
109,192,241400,1,0,0:0:0:0:
475,192,241400,1,0,0:0:0:0:
182,192,241500,1,0,0:0:0:0:
36,192,241600,1,0,0:0:0:0:
256,192,241600,1,0,0:0:0:0:
475,192,241600,1,0,0:0:0:0:
109,192,241800,1,0,0:0:0:0:
402,192,241800,1,0,0:0:0:0:
256,192,241800,1,0,0:0:0:0:
182,192,241900,1,0,0:0:0:0:
256,192,242000,1,0,0:0:0:0:
329,192,242100,1,0,0:0:0:0:
402,192,242200,1,0,0:0:0:0:
256,192,242200,1,0,0:0:0:0:
109,192,242200,1,0,0:0:0:0:
182,192,242400,1,0,0:0:0:0:
329,192,242400,1,0,0:0:0:0:
475,192,242400,1,0,0:0:0:0:
36,192,242400,1,0,0:0:0:0:
402,192,242600,128,0,243200:0:0:0:0:
475,192,242600,128,0,242800:0:0:0:0:
36,192,242600,1,0,0:0:0:0:
109,192,242600,128,0,243200:0:0:0:0:
182,192,242800,1,0,0:0:0:0:
256,192,242800,128,0,243000:0:0:0:0:
329,192,243000,1,0,0:0:0:0:
36,192,243000,128,0,243200:0:0:0:0:
182,192,243200,128,0,243600:0:0:0:0:
329,192,243200,1,0,0:0:0:0:
475,192,243200,1,0,0:0:0:0:
402,192,243400,1,0,0:0:0:0:
329,192,243600,128,0,244000:0:0:0:0:
475,192,243600,1,0,0:0:0:0:
256,192,243800,1,0,0:0:0:0:
182,192,244000,128,0,244200:0:0:0:0:
36,192,244000,1,0,0:0:0:0:
475,192,244000,1,0,0:0:0:0:
402,192,244000,1,0,0:0:0:0:
256,192,244200,128,0,244400:0:0:0:0:
109,192,244200,1,0,0:0:0:0:
402,192,244200,1,0,0:0:0:0:
329,192,244400,128,0,244600:0:0:0:0:
36,192,244400,1,0,0:0:0:0:
256,192,244600,128,0,245000:0:0:0:0:
109,192,244600,1,0,0:0:0:0:
475,192,244600,1,0,0:0:0:0:
402,192,244800,1,0,0:0:0:0:
36,192,244800,1,0,0:0:0:0:
329,192,245000,128,0,245600:0:0:0:0:
109,192,245000,1,0,0:0:0:0:
475,192,245000,1,0,0:0:0:0:
182,192,245200,1,0,0:0:0:0:
109,192,245400,1,0,0:0:0:0:
256,192,245500,1,0,0:0:0:0:
182,192,245600,128,0,245800:0:0:0:0:
36,192,245600,1,0,0:0:0:0:
475,192,245600,1,0,0:0:0:0:
402,192,245600,1,0,0:0:0:0:
256,192,245800,128,0,246000:0:0:0:0:
109,192,245800,1,0,0:0:0:0:
329,192,246000,128,0,246200:0:0:0:0:
182,192,246000,1,0,0:0:0:0:
109,192,246100,1,0,0:0:0:0:
256,192,246200,128,0,246400:0:0:0:0:
182,192,246200,1,0,0:0:0:0:
109,192,246300,1,0,0:0:0:0:
182,192,246400,128,0,246800:0:0:0:0:
36,192,246400,1,0,0:0:0:0:
402,192,246400,1,0,0:0:0:0:
475,192,246400,1,0,0:0:0:0:
402,192,246600,1,0,0:0:0:0:
475,192,246700,1,0,0:0:0:0:
329,192,246800,128,0,247200:0:0:0:0:
109,192,246800,1,0,0:0:0:0:
256,192,247000,1,0,0:0:0:0:
182,192,247200,128,0,247400:0:0:0:0:
109,192,247200,1,0,0:0:0:0:
402,192,247200,1,0,0:0:0:0:
475,192,247200,1,0,0:0:0:0:
36,192,247200,1,0,0:0:0:0:
256,192,247400,128,0,247600:0:0:0:0:
109,192,247400,1,0,0:0:0:0:
475,192,247400,1,0,0:0:0:0:
329,192,247600,128,0,247800:0:0:0:0:
36,192,247600,1,0,0:0:0:0:
109,192,247700,1,0,0:0:0:0:
256,192,247800,128,0,248000:0:0:0:0:
36,192,247800,1,0,0:0:0:0:
109,192,247900,1,0,0:0:0:0:
182,192,248000,1,0,0:0:0:0:
475,192,248000,1,0,0:0:0:0:
402,192,248000,1,0,0:0:0:0:
329,192,248200,1,0,0:0:0:0:
109,192,248200,1,0,0:0:0:0:
182,192,248300,1,0,0:0:0:0:
256,192,248400,1,0,0:0:0:0:
329,192,248500,1,0,0:0:0:0:
402,192,248600,1,0,0:0:0:0:
182,192,248600,1,0,0:0:0:0:
256,192,248700,1,0,0:0:0:0:
36,192,248800,1,0,0:0:0:0:
109,192,248800,1,0,0:0:0:0:
402,192,248800,1,0,0:0:0:0:
475,192,248800,1,0,0:0:0:0:
475,192,249000,1,0,0:0:0:0:
402,192,249000,128,0,249600:0:0:0:0:
109,192,249000,128,0,249600:0:0:0:0:
36,192,249000,128,0,249200:0:0:0:0:
256,192,249200,128,0,249400:0:0:0:0:
329,192,249200,1,0,0:0:0:0:
475,192,249400,128,0,249600:0:0:0:0:
182,192,249400,1,0,0:0:0:0:
36,192,249600,128,0,250000:0:0:0:0:
182,192,249600,1,0,0:0:0:0:
329,192,249600,1,0,0:0:0:0:
475,192,250000,128,0,250400:0:0:0:0:
109,192,250000,1,0,0:0:0:0:
402,192,250000,1,0,0:0:0:0:
329,192,250200,1,0,0:0:0:0:
109,192,250400,128,0,250600:0:0:0:0:
402,192,250400,1,0,0:0:0:0:
256,192,250400,1,0,0:0:0:0:
182,192,250400,1,0,0:0:0:0:
36,192,250400,1,0,0:0:0:0:
402,192,250600,128,0,250800:0:0:0:0:
329,192,250600,1,0,0:0:0:0:
36,192,250600,1,0,0:0:0:0:
329,192,250800,128,0,251000:0:0:0:0:
182,192,250800,1,0,0:0:0:0:
109,192,250900,1,0,0:0:0:0:
256,192,251000,128,0,251400:0:0:0:0:
36,192,251000,1,0,0:0:0:0:
475,192,251000,1,0,0:0:0:0:
402,192,251100,1,0,0:0:0:0:
329,192,251200,1,0,0:0:0:0:
109,192,251200,1,0,0:0:0:0:
475,192,251400,128,0,252000:0:0:0:0:
182,192,251400,1,0,0:0:0:0:
402,192,251400,1,0,0:0:0:0:
36,192,251400,1,0,0:0:0:0:
109,192,251600,1,0,0:0:0:0:
182,192,251700,1,0,0:0:0:0:
109,192,251800,1,0,0:0:0:0:
329,192,251900,1,0,0:0:0:0:
36,192,252000,128,0,252200:0:0:0:0:
182,192,252000,1,0,0:0:0:0:
402,192,252000,1,0,0:0:0:0:
256,192,252000,1,0,0:0:0:0:
109,192,252200,128,0,252400:0:0:0:0:
329,192,252200,1,0,0:0:0:0:
402,192,252400,128,0,252600:0:0:0:0:
256,192,252400,1,0,0:0:0:0:
329,192,252600,128,0,252800:0:0:0:0:
182,192,252600,1,0,0:0:0:0:
36,192,252800,128,0,253200:0:0:0:0:
475,192,252800,1,0,0:0:0:0:
109,192,252800,1,0,0:0:0:0:
256,192,253000,1,0,0:0:0:0:
475,192,253200,128,0,253600:0:0:0:0:
402,192,253200,1,0,0:0:0:0:
329,192,253400,1,0,0:0:0:0:
402,192,253500,1,0,0:0:0:0:
109,192,253600,128,0,253800:0:0:0:0:
329,192,253600,1,0,0:0:0:0:
256,192,253600,1,0,0:0:0:0:
36,192,253600,1,0,0:0:0:0:
402,192,253800,128,0,254000:0:0:0:0:
182,192,253800,1,0,0:0:0:0:
475,192,253800,1,0,0:0:0:0:
329,192,254000,128,0,254200:0:0:0:0:
109,192,254000,1,0,0:0:0:0:
256,192,254200,128,0,254400:0:0:0:0:
36,192,254200,1,0,0:0:0:0:
475,192,254200,1,0,0:0:0:0:
109,192,254400,1,0,0:0:0:0:
402,192,254400,1,0,0:0:0:0:
36,192,254600,1,0,0:0:0:0:
475,192,254600,1,0,0:0:0:0:
256,192,254600,1,0,0:0:0:0:
182,192,254700,1,0,0:0:0:0:
329,192,254800,1,0,0:0:0:0:
182,192,254900,1,0,0:0:0:0:
329,192,255000,1,0,0:0:0:0:
36,192,255200,1,0,0:0:0:0:
109,192,255200,1,0,0:0:0:0:
475,192,255200,1,0,0:0:0:0:
402,192,255200,1,0,0:0:0:0:
109,192,255400,128,0,256000:0:0:0:0:
256,192,255400,128,0,256000:0:0:0:0:
402,192,255400,128,0,256000:0:0:0:0:
36,192,256000,1,0,0:0:0:0:
182,192,256000,1,0,0:0:0:0:
329,192,256000,1,0,0:0:0:0:
475,192,256000,1,0,0:0:0:0:
