osu file format v14

[General]
AudioFilename: Bassmicrobe_-_And_We_Are_Japanese_DNB[www.MP3Fiber.com].mp3
AudioLeadIn: 0
PreviewTime: -1
Countdown: 1
SampleSet: None
StackLeniency: 0.7
Mode: 0
LetterboxInBreaks: 1
WidescreenStoryboard: 0

[Editor]
DistanceSpacing: 1
BeatDivisor: 4
GridSize: 4
TimelineZoom: 1

[Metadata]
Title:And We Are
TitleUnicode:And We Are
Artist:Bassmicrobe
ArtistUnicode:Bassmicrobe
Creator:Francis
Version:Marathon
Source:
Tags:
BeatmapID:631511
BeatmapSetID:278857

[Difficulty]
HPDrainRate:8
CircleSize:4
OverallDifficulty:8
ApproachRate:9
SliderMultiplier:1.4
SliderTickRate:1

[Events]
//Background and Video events
//Break Periods
//Storyboard Layer 0 (Background)
//Storyboard Layer 1 (Fail)
//Storyboard Layer 2 (Pass)
//Storyboard Layer 3 (Foreground)
//Storyboard Sound Samples

[TimingPoints]
3199,342.857142857143,4,1,0,100,1,0

[HitObjects]
256,192,1141,12,0,2856,0:0:0:0:
132,153,3198,5,0,0:0:0:0:
135,161,3370,1,0,0:0:0:0:
138,169,3541,1,0,0:0:0:0:
141,177,3713,2,0,P|174:205|226:206,1,70
254,185,4056,2,0,P|276:166|343:168,1,70
358,188,4399,2,0,P|338:266|196:274,1,210
159,181,5256,6,0,L|181:111,1,70
238,163,5599,2,0,L|298:119,1,70
316,194,5941,6,0,L|392:178,1,70
464,204,6284,1,0,0:0:0:0:
465,212,6456,2,0,P|453:266|374:312,1,140
321,284,6970,1,0,0:0:0:0:
304,216,7141,2,0,B|338:147|338:147|288:72|197:86,1,210
72,144,7999,6,0,P|93:187|108:205,1,70
182,159,8341,2,0,P|189:200|187:232,1,70
125,290,8684,2,0,B|195:344|260:302|260:302|274:224|274:224|335:182|389:226,1,350
419,289,9713,5,0,0:0:0:0:
427,299,9884,2,0,B|493:255|470:183|470:183|372:83|372:83|280:65|228:140,1,420
256,192,11084,5,0,0:0:0:0:
256,192,11256,12,0,13484,0:0:0:0:
120,138,13827,5,0,0:0:0:0:
212,64,14170,5,0,0:0:0:0:
221,61,14513,1,0,0:0:0:0:
303,60,15027,1,0,0:0:0:0:
347,169,15199,1,0,0:0:0:0:
359,251,15541,6,0,P|304:251|234:198,1,140
359,251,16399,1,0,0:0:0:0:
323,140,16570,1,0,0:0:0:0:
379,70,16913,6,0,P|320:40|234:56,1,140
248,48,17770,1,0,0:0:0:0:
213,157,17941,1,0,0:0:0:0:
217,250,18284,6,0,P|281:237|320:169,1,140
315,162,18799,1,0,0:0:0:0:
262,113,19141,2,0,P|226:109|183:138,1,70
126,202,19656,5,0,0:0:0:0:
220,285,19999,1,0,0:0:0:0:
232,292,20513,1,0,0:0:0:0:
245,133,20684,1,0,0:0:0:0:
231,137,21027,6,0,P|204:171|197:269,1,140
317,227,21884,1,0,0:0:0:0:
325,214,22056,1,0,0:0:0:0:
350,176,22399,6,0,L|426:55,1,140
433,189,23256,2,0,L|379:273,1,70
366,295,23770,5,0,0:0:0:0:
240,322,24113,2,0,P|209:297|202:260,1,70
238,172,24627,2,0,P|269:203|273:227,1,70
132,269,25141,5,0,0:0:0:0:
100,185,25484,5,0,0:0:0:0:
145,108,25827,2,0,P|181:93|215:97,1,70
252,162,26170,2,0,P|288:172|345:165,1,70
386,129,26513,2,0,B|461:176|429:269|429:268,2,140
315,87,27370,5,0,0:0:0:0:
296,85,27541,1,0,0:0:0:0:
194,103,27713,1,0,0:0:0:0:
178,113,27884,2,0,P|146:156|169:243,2,140
245,91,28741,1,0,0:0:0:0:
311,114,28913,2,0,P|325:149|326:189,1,70
319,251,29256,6,0,L|282:312,1,70
255,223,29599,1,0,0:0:0:0:
242,226,29770,2,0,L|172:239,1,70
200,151,30113,1,0,0:0:0:0:
192,140,30284,2,0,P|182:96|210:58,1,70
299,30,30627,6,0,B|320:68|296:102,1,70
293,108,30970,1,0,0:0:0:0:
241,170,31313,2,0,P|203:182|150:172,3,70
108,131,31999,1,0,0:0:0:0:
100,122,32170,6,0,P|71:155|67:190,1,70
136,190,32513,2,0,P|144:234|163:252,1,70
230,266,32856,1,0,0:0:0:0:
296,243,33027,2,0,P|325:217|337:185,1,70
262,100,33370,5,0,0:0:0:0:
249,105,33713,1,0,0:0:0:0:
202,166,34056,2,0,P|198:206|237:246,1,70
289,224,34399,2,0,P|345:218|378:238,1,70
365,232,34741,1,0,0:0:0:0:
368,244,34913,6,0,L|340:320,1,70
178,337,35256,2,0,L|189:253,1,70
188,255,35599,1,0,0:0:0:0:
191,243,35770,2,0,P|221:216|255:201,1,70
398,200,36113,5,0,0:0:0:0:
398,200,36799,1,0,0:0:0:0:
398,200,37484,2,0,P|366:168|354:124,1,70
296,48,37827,1,0,0:0:0:0:
296,48,37999,2,0,P|272:100|238:117,1,70
162,161,38341,5,0,0:0:0:0:
266,210,38513,1,0,0:0:0:0:
164,262,38684,1,0,0:0:0:0:
270,307,38856,2,0,B|350:270|350:270|371:227|345:189,1,140
338,106,39541,2,0,B|375:70|432:82|432:82|455:140|455:140,1,140
470,204,40227,5,0,0:0:0:0:
444,278,40399,2,0,P|394:266|374:245,1,70
335,191,40741,2,0,P|300:155|271:141,1,70
154,130,41084,1,0,0:0:0:0:
146,137,41256,1,0,0:0:0:0:
139,145,41427,1,0,0:0:0:0:
133,154,41599,6,0,P|122:209|189:268,1,140
315,278,42284,2,0,P|369:252|367:165,1,140
305,57,42970,6,0,L|258:3,1,70
224,81,43313,2,0,L|154:69,1,70
87,53,43656,1,0,0:0:0:0:
181,156,43827,1,0,0:0:0:0:
111,165,43999,2,0,L|36:172,1,70
19,238,44341,6,0,B|34:291|34:291|78:313|123:284,1,140
120,148,45027,2,0,B|157:123|201:145|201:145|216:198,1,140
266,329,45713,5,0,0:0:0:0:
275,120,45884,1,0,0:0:0:0:
171,303,46056,1,0,0:0:0:0:
340,179,46227,1,0,0:0:0:0:
133,218,46399,1,0,0:0:0:0:
140,177,46484,1,0,0:0:0:0:
145,135,46570,1,0,0:0:0:0:
323,25,46741,2,0,P|359:48|368:79,1,70
388,197,47084,6,0,B|392:246|343:266,1,70
266,228,47427,1,0,0:0:0:0:
259,130,47599,2,0,P|292:105|333:104,1,70
326,199,47941,2,0,B|297:238|239:224,1,70
173,194,48284,2,0,B|119:128|119:128|121:47|212:50,1,210
377,75,49141,6,0,P|428:111|417:199,1,140
284,294,49827,6,0,P|246:287|225:262,1,70
212,167,50170,1,0,0:0:0:0:
292,111,50341,1,0,0:0:0:0:
300,209,50513,1,0,0:0:0:0:
212,167,50684,1,0,0:0:0:0:
208,69,50856,1,0,0:0:0:0:
299,33,51027,2,0,P|370:59|369:141,1,140
360,212,51541,5,0,0:0:0:0:
279,268,51713,2,0,L|210:305,1,70
125,268,52056,1,0,0:0:0:0:
147,173,52227,1,0,0:0:0:0:
244,158,52399,2,0,B|337:133|404:195|404:195|389:300|389:300|218:273,1,420
173,216,53599,5,0,0:0:0:0:
90,157,53770,2,0,B|102:78|182:81|182:81|296:185|296:185|377:174|378:100,1,420
284,70,54970,5,0,0:0:0:0:
256,192,55141,12,0,57713,0:0:0:0:
118,173,58056,6,0,L|138:102,1,70
147,96,58399,1,0,0:0:0:0:
160,91,58570,2,0,P|245:88|290:122,1,140
345,247,59256,2,0,B|315:301|251:272|251:272|217:166,1,210
245,82,60113,6,0,P|285:84|315:118,1,70
318,186,60456,2,0,P|278:184|248:150,1,70
