osu file format v5

[General]
AudioFilename: When You Leave - basshunter (radio mix).mp3
AudioLeadIn: 3000
PreviewTime: -1
Countdown: 1
SampleSet: Normal
StackLeniency: 0.7
Mode: 0
LetterboxInBreaks: 1
EditorBookmarks: 162,606,1051,1496,1941,2163,2385,2608,2830,3720,3942,4164,4387,4609,5499,5721,5943,6166,6388,6610,6833,7278,7722,8167,8389,8612,8834,9056,9279,9501,9724,9946,10835,11280,11725,11947,12170,12392,12614,12837,13059,13281,13504,13726,14393,14616,14838,15060,15505,15728,16172,16506,16839,17284,17506,17951,18174,18396,18692,19063,19285,19508,19730,19953,20175,20397,20842,21509,21731,21954,22176,22621,22843,23288,23510,23733,23955,24400,24622,25067,25289,25512,25734,26179,26401,26846,27068,27291,27513,27735,27958,28180,43301,43524,43746,43968,44191,44413,44858,45302,46859,47081,47304,47526,47748,47971,48193,48638,48860,49305,49750,50195,50639,51973,52196,52418,52641,53530,53752,54197,54420,54642,54864,55087,55309,55531,55976,56643,57088,57533,57977,58422,58867,59089,59312,59534,59756,59979,60646,60868,61091,61313,61535,61980,62425,62647,62870,63092,63314,63537,63759,64204,64426,64648,64871,65093,65316,65538,65983,66205,66427,66650,66872,67762,68206,68429,69096,69318,69985,70208,71319,71542,71764,72209,72431,72654,73098,73321,73543,73766,73988,74210,74433,74877,75100,75322,75544,75767,75989,76212,76656,76879,77101,77323,77546,77768,77991,78435,78658,78880,79102,79769,80214,80437,80659,80881,81104,81771,82660,83327,83550,84217,84439,84662,85329,85885,86663,86885,87330,87552,87775,87997,88442,88664,89109,89331,89554,89776,90221,90443,90888,91110,91333,91555,92000,92222,92667,92889,93112,93556,93779,94446,94668,94890,95113,95335,95558,96225,96447,96669,96892,97114,97337,98004,98226,98448,98671,98893,99115,99783,100005,100227,100450,100894,116015,116182,116386,116831,117072,117276,117794,117961,118165,118610,118851,119054,119722,119962,120129,120352,120574,120796,121501,121723,122168,122575,122853,123076,123298,123520,123947,124169,124391,124614,124836,125058,125281,125503,126393,126615,127060,127282,127504,127727,127949,128172,128394,128616,128839,129432,133583,134027,134250,134806,135287,135510,135732,135954,136177,136622,137066,137289,137511,137733,137956,138400,138845,139068,139290,139512,139735,139957,140179,140624,141069,141514,141958,142403,142625,142848,143070,143293,144182,144627,144849,145535,145757,146202,146424,146647,146869,147091,147740,148092,148203,148555,149037,149482,149704,149927,150149,150371,151261,151483,151705,151928,152150,152373,152595,152817,153040,153262,153484,153707,153929,154152,154374,154596,154819,155263,155486,156116,156598,156820,157042,157265,157487,157895,158191,158339,158636,158784,159007,159229,159451,159674,159933,160563,160786,161008,161230,161453,161675,161897,162120,162342,162564,162787
EditorDistanceSpacing: 0.800000011920929

[Metadata]
Title:When You Leave
Artist:Basshunter radio mix
Creator:zorya
Version:Hard
Source:
Tags:

[Difficulty]
HPDrainRate:7
CircleSize:6
OverallDifficulty:6
SliderMultiplier:1.4
SliderTickRate:2

[Events]
//Background and Video events
0,0,"spring lights.JPG"
//Break Periods
2,28380,42101
2,101094,114965
2,129631,132533
//Storyboard Layer 0 (Background)
//Storyboard Layer 1 (Failing)
//Storyboard Layer 2 (Passing)
//Storyboard Layer 3 (Foreground)
//Storyboard Sound Samples
//Background Colour Transformations
3,100,163,162,255

[TimingPoints]
1941.20153955645,444.735828266351,4,1,0,67,1,0

[Colours]
Combo1 : 255,150,0
Combo2 : 5,240,5
Combo3 : 5,5,240
Combo4 : 240,5,5

[HitObjects]
160,288,162,1,4
80,288,606,1,4
160,288,1051,1,4
80,288,1496,1,4
144,256,1941,1,4
96,256,2163,1,0
120,224,2385,1,8
120,192,2608,1,8
120,160,2830,1,8
256,112,3720,5,4
256,152,3942,1,4
256,192,4164,1,4
256,232,4387,1,4
256,272,4609,1,4
376,304,5499,5,4
400,272,5721,1,4
368,256,5943,1,4
400,224,6166,1,4
368,208,6388,1,8
400,176,6610,1,8
368,160,6833,1,8
400,96,7278,6,8,L|400:16|320:16,2,140
400,96,8389,5,8
368,96,8612,1,8
336,112,8834,1,8
304,144,9056,1,8
272,176,9279,1,8
240,208,9501,1,8
208,240,9724,1,8
176,272,9946,1,8
80,336,10835,6,2,L|80:192,1,140
80,112,11725,5,4
144,112,11947,1,4
80,112,12170,1,4
144,112,12392,1,4
80,112,12614,1,4
144,112,12837,1,4
80,112,13059,1,4
144,112,13281,1,4
80,112,13504,2,8,L|160:112,1,70
224,112,14393,6,8,L|320:112,3,70
416,112,15505,5,2
416,112,15728,1,2
416,192,16172,6,8,L|416:304,2,105
336,320,17284,5,2
336,320,17506,1,2
256,320,17951,6,8,L|176:320,3,70
96,320,19063,5,2
128,288,19285,1,2
96,272,19508,5,8
128,240,19730,1,8
96,224,19953,1,8
128,192,20175,1,8
96,176,20397,2,4,L|96:32,1,140
432,80,21509,5,8
368,80,21731,1,8
432,80,21954,1,8
368,80,22176,2,2,L|368:176,1,70
368,150,22621,5,8
432,152,22843,1,8
432,304,23288,5,8
368,304,23510,1,8
432,304,23733,1,8
368,304,23955,2,2,L|368:224,1,70
368,234,24400,5,8
432,232,24622,1,8
328,192,25067,5,8
280,192,25289,1,8
232,192,25512,1,8
184,192,25734,1,2
232,192,25956,5,2
280,192,26179,1,8
328,192,26401,1,8
256,64,26846,5,8
256,112,27068,1,8
224,152,27291,1,8
288,152,27513,1,8
256,192,27735,1,8
216,224,27958,2,2,L|304:224,1,70,2|6
48,48,43301,6,2,L|128:48,1,70
176,48,43746,5,8
160,96,43968,1,8
208,112,44191,1,8
192,160,44413,1,8
240,176,44635,1,8
224,224,44858,6,2,B|240:288|304:304|336:288,1,140,2|6
464,48,46859,6,2,L|384:48,1,70
336,48,47304,5,8
352,96,47526,1,8
304,112,47749,1,8
320,160,47971,1,8
272,176,48193,1,8
128,176,48638,6,2,B|128:256,1,70
128,352,49305,5,2
256,352,49750,1,2
256,224,50195,1,2
128,224,50639,1,2
176,128,51973,5,8
224,80,52196,1,8
288,80,52418,1,8
336,128,52641,1,8
256,192,53530,5,4
256,192,53752,1,4
392,224,54197,5,4
360,256,54420,1,4
328,288,54642,1,4
280,304,54864,1,4
232,304,55087,1,4
184,288,55309,1,4
152,256,55531,1,4
120,224,55754,1,4
240,192,55976,6,8,B|288:192,6,35
256,32,57088,6,0,B|224:64|176:16,1,70,2|8
256,32,57533,6,0,B|288:64|336:16,1,70,2|8
256,80,57977,6,0,B|224:112|176:64,1,70,2|8
256,80,58422,6,0,B|288:112|336:64,1,70,2|8
256,128,58867,5,8
240,176,59089,5,8
272,176,59312,5,8
288,224,59534,5,8
256,224,59756,5,8
224,224,59979,5,8
144,288,60646,5,2
144,240,60868,1,2
144,192,61091,1,2
144,144,61313,1,2
144,96,61535,2,8,B|288:96,1,140
368,96,62425,5,2
368,144,62647,1,2
368,192,62870,1,2
368,240,63092,1,2
368,288,63314,2,8,B|224:288,1,140
80,64,64204,5,8
80,64,64426,2,2,B|160:64,1,70
150,64,64871,5,8
150,64,65093,2,2,B|224:64,1,70
220,64,65538,5,8
368,80,65983,5,8
368,144,66205,1,8
368,208,66427,1,8
368,144,66650,5,8
368,80,66872,1,8
304,240,67762,6,2,L|160:240,1,140
128,240,68429,5,2
256,320,69096,5,8
256,320,69318,1,8
256,64,69985,5,8
256,64,70208,1,8
416,48,71319,6,8,B|352:96|352:96|368:96,2,70
416,48,72209,6,8,B|480:96|480:96|464:96,2,70
416,48,73098,5,8
416,96,73321,1,8
416,144,73543,1,8
416,192,73766,1,8
416,240,73988,1,8
416,288,74210,5,2
368,288,74433,1,2
272,288,74877,5,8
224,288,75100,1,8
176,288,75322,1,8
128,288,75544,1,8
80,288,75767,1,8
32,288,75989,5,2
32,240,76212,1,2
64,144,76656,5,2
64,144,76879,1,8
112,144,77101,1,8
160,144,77323,1,2
160,144,77546,1,8
208,144,77768,1,8
256,144,77991,1,2
384,80,78435,5,8
384,128,78658,1,2
384,128,78880,1,8
384,176,79102,1,8
384,224,79325,1,2
384,224,79547,1,8
384,272,79769,1,8
320,272,80214,5,8
320,224,80437,1,8
320,176,80659,1,8
320,128,80881,1,2
320,80,81104,1,2
240,80,81771,5,2
208,112,81993,6,2,B|128:112,1,70
128,160,82438,5,2
176,160,82660,1,2
224,160,83327,6,8,L|224:208|176:208,1,70
160,208,84217,6,2,L|80:208,1,70
80,256,84662,1,8
256,256,85329,5,10
384,256,85885,5,14
480,256,86663,5,8
480,256,86885,1,8
464,144,87330,6,2,L|384:144,1,70
288,144,87775,2,2,L|368:144,1,70
384,144,88442,5,8
384,144,88665,1,8
384,192,89109,6,2,L|304:192,1,70
208,192,89554,2,2,L|288:192,1,70
304,192,90221,5,8
304,192,90443,1,8
304,240,90888,6,2,L|224:240,1,70
128,240,91333,2,2,L|208:240,1,70
224,240,92000,5,8
224,240,92222,1,8
224,288,92667,6,2,L|128:288,1,70
48,288,93112,2,2,B|176:304|192:144,1,210,2|8
128,80,94446,5,8
176,80,94668,1,8
224,80,94890,1,2
272,80,95113,1,2
320,80,95335,1,2
368,80,95558,1,2
432,192,96225,5,2
384,192,96447,1,2
336,192,96669,1,8
288,192,96892,1,8
240,192,97114,1,8
192,192,97337,1,8
64,288,98004,5,8
112,288,98226,1,8
160,288,98448,1,2
208,288,98671,1,2
256,288,98893,1,2
304,288,99115,1,2
256,192,99783,5,8
224,144,100005,1,8
288,144,100227,1,8
256,96,100450,1,8
256,24,100894,1,6
112,48,116015,5,8
112,96,116182,1,8
112,144,116386,1,8
224,144,116849,5,2
224,192,117072,1,2
224,240,117294,1,2
288,144,117794,5,8
288,192,117961,1,8
288,240,118184,1,8
400,48,118628,5,2
400,96,118851,1,2
400,144,119073,1,2
256,136,119722,6,8,B|256:224,1,70
200,208,120130,5,8
224,256,120352,1,8
280,256,120574,1,8
312,208,120797,1,8
256,240,121519,6,8,L|256:160,1,70
256,112,122186,5,8
168,32,122575,5,2
208,64,122872,1,8
208,112,123094,1,8
256,112,123316,1,8
256,160,123539,1,8
432,336,123947,5,2
384,336,124169,1,2
384,288,124391,1,2
336,288,124614,1,2
336,240,124836,5,8
288,240,125058,1,8
288,192,125281,1,8
240,192,125503,1,8
96,192,126393,6,8,L|176:192,1,70
192,128,127060,5,2
192,80,127282,1,2
240,80,127504,1,2
240,32,127727,1,2
288,32,127949,1,8
288,80,128172,1,8
336,80,128394,1,8
336,128,128616,1,8
312,176,128839,6,2,L|216:176,2,93.3333333333333
128,48,133583,5,2
96,96,133805,5,2
160,96,134027,5,2
128,144,134250,5,2
200,152,134472,1,8
256,192,134806,5,2
336,304,135287,5,2
368,256,135510,1,2
400,304,135732,1,8
432,256,135954,1,8
464,304,136177,1,8
256,192,136622,5,8
112,336,137066,5,8
144,288,137289,5,8
80,288,137511,5,2
112,240,137733,5,2
112,288,137956,5,2
256,192,138400,5,8
496,112,138845,5,8
464,64,139068,1,8
432,112,139290,1,8
400,64,139512,1,8
368,112,139735,1,2
336,64,139957,1,2
304,112,140179,1,2
224,192,140624,6,8,L|272:192,6,46.6666666666667
256,272,141958,5,2
256,352,142403,5,8
256,304,142625,1,8
256,256,142848,1,8
256,208,143070,1,2
256,160,143293,1,2
176,192,144182,5,8
336,192,144627,5,8
336,192,144849,1,8
224,192,145535,6,2,L|304:192,1,70
256,192,146202,1,2
256,144,146425,1,2
256,96,146647,1,2
208,96,146870,1,8
160,96,147092,1,8
160,208,147758,6,0,L|208:240|272:192,1,116.666666666667,2|0
256,208,148185,6,2,L|304:240|368:208,1,116.666666666667
400,176,149037,5,8
400,80,149482,5,8
352,80,149704,1,8
400,80,149926,1,8
352,80,150149,1,2
400,80,150371,1,2
304,160,151261,5,2
256,160,151483,1,2
304,160,151705,1,2
256,160,151928,1,2
256,208,152150,5,8
304,208,152373,1,8
256,208,152595,1,8
304,208,152817,1,8
304,256,153040,5,2
256,256,153262,1,2
304,256,153484,1,2
256,256,153707,1,2
256,304,153929,5,8
304,304,154151,1,8
256,304,154374,1,8
304,304,154596,1,8
280,352,154819,5,2
224,352,155263,2,2,L|144:352,1,70
64,352,156116,5,2
64,272,156598,5,8
112,272,156820,1,8
112,224,157042,1,8
64,224,157265,1,8
64,176,157487,1,8
160,64,157895,6,2,L|256:64,1,93.3333333333333
192,112,158339,6,2,L|288:112,1,93.3333333333333
224,160,158784,6,2,L|304:160,1,70
294,160,159229,1,8
256,208,159451,5,8
256,208,159674,1,8
256,208,159933,1,8
184,192,160563,5,8
232,192,160786,1,8
280,192,161008,1,8
328,192,161230,1,8
280,192,161453,5,2
232,192,161675,1,2
184,192,161897,1,2
232,192,162120,5,8
280,192,162342,1,8
328,192,162564,1,8
280,192,162787,5,14
