osu file format v6

[General]
AudioFilename: Basshunter - Jingle Bells.mp3
AudioLeadIn: 0
PreviewTime: 51810
Countdown: 0
SampleSet: Soft
StackLeniency: 0.2
Mode: 0
LetterboxInBreaks: 1
SkinPreference:Holiday

[Editor]
Bookmarks: 20952,106238,107952
DistanceSpacing: 1.20000004768372
BeatDivisor: 4
GridSize: 8

[Metadata]
Title:Jingle Bells
Artist:Basshunter
Creator:xxheroxx
Version:Insane
Source:
Tags:Christmas Xmas

[Difficulty]
HPDrainRate:7
CircleSize:5
OverallDifficulty:6
SliderMultiplier:1.4
SliderTickRate:1

[Events]
//Background and Video events
0,0,"natale056.jpg"
//Break Periods
2,17724,19902
2,65724,67902
2,96581,98760
2,113724,114188
2,129152,131331
//Storyboard Layer 0 (Background)
//Storyboard Layer 1 (Fail)
//Storyboard Layer 2 (Pass)
//Storyboard Layer 3 (Foreground)
//Storyboard Sound Samples
//Background Colour Transformations
3,100,0,0,255

[TimingPoints]
3810,428.571428571429,4,2,0,100,1,0
19238,-50,4,2,0,100,0,0
34667,-100,4,2,0,100,0,0
51810,-50,4,2,0,100,0,1
65524,-100,4,2,0,100,0,0
100131,-100,4,2,1,100,0,0
100345,-100,4,2,0,100,0,0
101845,-100,4,2,1,100,0,0
102060,-100,4,2,0,100,0,0
103560,-100,4,2,1,100,0,0
103774,-100,4,2,0,100,0,0
115238,-100,4,2,0,100,0,1
128952,-100,4,2,0,100,0,0
158952,-100,4,2,0,100,0,0
159381,-100,4,2,0,90,0,0
159810,-100,4,2,0,80,0,0
160238,-100,4,2,0,70,0,0
160667,-100,4,2,0,60,0,0
161095,-100,4,2,0,50,0,0
161524,-100,4,2,0,40,0,0
161952,-100,4,2,0,30,0,0
162381,-100,4,2,0,20,0,0
162810,-100,4,2,0,10,0,0
163238,-100,4,2,0,0,0,0

[Colours]
Combo1 : 255,198,0
Combo2 : 255,0,0
Combo3 : 0,255,0
Combo4 : 34,34,255

[HitObjects]
88,224,3810,5,0
112,288,4024,5,2
168,328,4238,5,0
224,288,4452,5,2
256,224,4667,5,0
288,288,4881,5,2
344,328,5095,5,2
400,288,5310,5,2
424,224,5524,5,0
344,240,5738,6,0,B|344:144,1,70,2|0
296,40,6167,6,0,B|296:128,1,70,2|0
216,40,6595,6,0,B|216:136,1,70,2|2
168,240,7024,6,0,B|168:160,1,70,2|0
96,296,7667,5,2
416,296,8095,5,2
416,88,8524,5,2
96,88,8952,5,2
256,192,9381,12,0,10667
256,192,10881,5,2
216,248,11095,5,0
256,304,11310,5,2
296,248,11524,5,0
328,184,11738,6,0,B|368:104,1,70,2|2
184,184,12167,6,0,B|144:104,1,70,2|0
288,112,12595,6,0,B|312:32,1,70,2|0
224,112,13024,6,0,B|200:32,1,70,2|0
120,112,13452,5,2
184,224,13667,5,2
328,224,13881,5,2
392,112,14095,5,2
432,208,14310,6,0,B|496:256,1,70,0|2
328,288,14738,6,0,B|328:368,1,70,0|2
184,288,15167,6,0,B|184:368,1,70,0|2
80,208,15595,6,0,B|16:256,1,70,0|2
256,192,16024,12,0,17524
185,39,20952,6,0,B|345:39,1,140,0|0
432,128,21381,6,0,B|272:128,1,140,8|0
80,128,21810,6,0,B|240:128,1,140
328,224,22238,6,0,B|168:224,1,140,8|0
288,320,22667,5,0
414,261,22881,5,0
414,122,23095,5,8
288,64,23310,5,0
224,192,23524,6,0,B|64:192,1,140,2|0
224,192,23952,6,0,B|96:288,1,140,8|0
224,192,24381,6,0,B|96:96,1,140,2|0
224,192,24810,6,0,B|400:192,1,140,8|0
240,120,25238,6,0,B|152:56,2,70,2|0|0
240,264,25667,6,0,B|152:328,2,70,8|0|0
350,156,26095,6,0,B|350:244,2,70,2|0|0
447,264,26524,6,0,B|447:72,1,140,8|0
320,64,26952,6,0,B|224:16|144:64|128:136|168:200,1,280,2|2
104,64,27595,6,0,B|69:132|99:208,1,140,0|2
155,326,28024,6,0,B|190:258|160:182,1,140,0|8
280,264,28452,6,0,B|184:280|144:344,1,140,0|2
163,191,28881,6,0,B|241:188|303:100,1,140,0|8
281,263,29310,6,0,B|249:174|306:74,1,140,0|2
384,224,29738,6,0,B|439:235|447:193|446:146|366:163,1,140,0|8
416,296,30167,6,0,B|331:301|272:256,1,140,0|2
282,263,30595,6,0,B|314:173|257:73,1,140,0|8
414,94,31024,6,0,B|329:89|270:134,1,140,0|2
181,28,31452,5,0
82,127,31667,5,8
82,267,31881,5,0
181,366,32095,5,2
280,266,32310,6,0,B|136:266,1,140,0|8
140,126,32738,6,0,B|308:127,1,140,0|2
402,197,33167,6,0,B|262:197,1,140,0|8
141,126,33595,6,0,B|281:209,1,140,0|2
140,267,34024,6,0,B|284:184,1,140,0|8
261,197,34452,5,0
256,192,34667,12,0,38095
159,47,38310,5,2
219,79,38524,5,8
292,79,38738,5,2
352,47,38952,5,0
96,160,39167,5,2
96,192,39274,1,0
96,224,39381,1,8
416,224,39595,5,2
416,192,39702,1,0
416,160,39810,1,0
192,336,40024,5,2
221,272,40238,5,8
291,272,40452,5,2
323,335,40667,5,0
256,128,40881,6,0,B|256:224,1,70,2|8
256,128,41310,6,0,B|344:128,1,70,2|0
256,128,41738,6,0,B|176:128,1,70,2|8
256,128,42167,6,0,B|256:40,2,70,2|0|2
304,176,42810,5,8
312,248,43024,5,2
256,296,43238,5,2
200,248,43452,5,2
208,176,43667,5,8
312,104,43881,5,2
288,80,43988,1,0
256,64,44095,1,2
224,80,44202,1,0
200,104,44310,1,2
408,192,44524,5,8
104,192,44738,5,0
256,336,44952,5,2
256,264,45167,5,0
256,192,45381,5,8
256,120,45595,5,0
256,48,45810,5,2
256,264,46024,6,0,B|352:264,1,70,0|8
256,120,46452,6,0,B|160:120,1,70,0|2
256,336,46881,6,0,B|336:336,1,70,0|8
256,48,47310,6,0,B|160:48,1,70,0|2
256,264,47738,5,0
328,144,47952,5,8
184,144,48167,5,0
256,264,48381,5,2
208,40,48595,5,2
216,72,48702,1,0
232,104,48810,1,8
256,128,48917,1,0
280,104,49024,1,2
296,72,49131,1,0
304,40,49238,1,2
104,136,49452,5,2
408,184,49667,5,8
104,216,49881,5,2
408,264,50095,5,2
256,192,50310,12,0,51167
256,192,51381,6,0,B|256:224,8,17.5,0|0|0|0|0|0|0|0|4
256,72,52024,6,0,B|344:64|384:152,1,140,2|8
256,312,52452,6,0,B|168:320|128:232,1,140
373,252,52881,6,0,B|344:320|256:312,1,140,2|8
138,131,53310,6,0,B|168:64|256:72,1,140
256,144,53738,5,2
256,240,53952,5,8
304,192,54167,5,0
208,192,54381,5,0
376,192,54595,6,0,B|448:192,2,70,2|0|8
136,192,55024,6,0,B|64:192,2,70,2|0|0
254,317,55452,6,0,B|206:277|302:245|254:189,1,140,2|8
258,66,55881,6,0,B|306:106|210:138|258:194,1,140,0|0
355,291,56310,6,0,B|245:182,1,140,2|8
156,291,56738,6,0,B|267:182,1,140,0|0
355,93,57167,5,2
256,0,57381,5,8
157,93,57595,5,2
256,192,57810,12,0,58667
256,32,58881,6,0,B|256:104|176:144,1,140,0|8
256,32,59310,6,0,B|256:104|336:144,1,140,0|2
256,168,59738,6,0,B|208:232|112:200,1,140,0|8
256,168,60167,6,0,B|304:232|400:200,1,140,0|2
200,280,60595,6,0,B|120:304|40:248,1,140,0|8
312,280,61024,6,0,B|392:304|472:248,1,140,0|2
424,128,61452,5,0
328,24,61667,5,8
184,24,61881,5,2
88,128,62095,5,0
256,192,62310,6,0,B|400:224,1,140,0|8
256,192,62738,6,0,B|328:320,1,140,0|2
256,192,63167,6,0,B|112:224,1,140,0|8
256,192,63595,6,0,B|184:320,1,140,0|2
256,192,64024,12,0,65524
64,96,68952,5,2
136,56,69167,5,2
176,40,69274,1,0
256,32,69488,5,2
296,32,69595,1,0
336,48,69702,1,2
368,80,69810,1,0
408,152,70024,5,2
416,192,70131,1,0
400,272,70345,5,2
384,312,70452,1,0
344,328,70560,1,2
304,336,70667,1,0
224,328,70881,5,0
192,304,70988,1,2
168,224,71202,5,2
160,184,71310,1,0
176,144,71417,1,2
216,128,71524,1,0
296,136,71738,5,2
248,208,71952,5,2
336,216,72167,5,2
392,152,72381,5,2
432,80,72595,5,0
400,56,72702,1,2
320,24,72917,5,0
280,16,73024,1,2
240,16,73131,1,0
200,32,73238,1,2
128,80,73452,5,0
104,112,73560,1,2
72,192,73774,5,0
64,232,73881,1,2
72,272,73988,1,0
96,304,74095,1,2
160,352,74310,5,0
200,368,74417,1,2
280,376,74631,5,0
320,368,74738,1,2
360,352,74845,1,0
384,320,74952,1,2
408,240,75167,5,2
408,160,75381,5,2
344,104,75595,5,0
344,104,75702,1,2
344,104,75810,1,0
264,72,76024,5,0
224,64,76131,1,2
160,120,76345,5,0
144,160,76452,1,2
144,200,76560,1,0
176,224,76667,1,2
256,240,76881,5,4
296,248,76988,1,2
376,264,77202,5,0
408,296,77310,1,6
400,336,77417,1,0
368,360,77524,1,2
288,352,77738,5,4
248,344,77845,1,2
168,328,78060,5,0
128,312,78167,1,6
96,288,78274,1,0
80,248,78381,1,2
72,168,78595,5,6
88,88,78810,5,2
152,32,79024,5,6
232,24,79238,5,2
312,32,79452,5,4
352,48,79560,1,2
400,112,79774,5,0
408,152,79881,1,6
392,192,79988,1,0
352,200,80095,1,2
272,208,80310,5,4
232,224,80417,1,2
176,280,80631,5,0
160,320,80738,1,6
176,360,80845,1,0
216,368,80952,1,2
256,352,81060,1,0
296,336,81167,1,6
336,320,81274,1,0
408,272,81488,5,0
432,240,81595,1,6
424,200,81703,1,0
400,168,81810,1,2
344,112,82024,5,6
272,64,82238,5,2
272,64,82345,1,0
272,64,82452,1,4
272,64,82560,1,0
272,64,82667,1,2
344,112,82881,5,4
344,112,82988,1,2
264,144,83202,5,0
224,152,83310,1,6
184,144,83417,1,0
152,120,83524,1,2
88,72,83738,5,4
88,72,83845,1,2
88,160,84060,5,0
80,200,84167,1,6
56,232,84274,1,0
16,248,84381,1,2
64,312,84595,5,4
64,312,84702,1,2
136,264,84917,5,0
160,232,85024,1,6
176,192,85131,1,0
176,152,85238,1,2
248,104,85452,5,4
248,104,85560,1,2
248,104,85667,1,0
296,168,85881,5,6
352,112,86095,5,2
392,192,86310,5,4
392,192,86417,1,2
448,256,86631,5,0
464,296,86738,1,6
448,336,86845,1,0
408,352,86952,1,2
328,336,87167,5,4
328,336,87274,1,2
264,288,87488,5,0
240,256,87595,1,6
232,216,87702,1,0
240,176,87810,1,2
256,96,88024,5,4
256,96,88131,1,2
176,64,88345,5,0
136,48,88452,1,6
96,56,88560,1,0
72,88,88667,1,2
48,168,88881,5,6
128,192,89095,5,2
64,248,89310,5,6
136,288,89524,5,2
64,328,89738,5,4
64,328,89845,1,2
136,288,90060,5,0
168,312,90167,1,6
208,328,90274,1,0
248,336,90381,1,2
328,336,90595,5,4
328,336,90702,1,2
416,328,90917,5,0
448,304,91024,1,6
464,264,91131,1,0
464,224,91238,1,2
448,144,91452,5,4
448,144,91560,1,2
416,64,91774,5,0
384,32,91881,1,6
344,24,91988,1,0
304,24,92095,1,2
216,24,92310,5,6
208,104,92524,5,2
288,96,92738,5,6
208,104,92952,5,4
256,192,93060,12,4,93810
256,192,93917,12,4,94667
256,192,94774,12,4,96381
400,80,99810,6,0,B|312:32|208:48|160:128|184:240|272:272|328:248,1,420,0|8
193,251,101524,6,0,B|240:272|328:240|352:128|304:48|200:32|112:80,1,420,0|8
104,248,103238,6,0,B|128:328|192:368|264:368|320:376|400:336|428:224,1,420,0|8
296,128,104952,5,2
256,152,105060,1,0
256,192,105167,1,0
216,256,105381,5,8
256,232,105489,1,0
256,192,105596,1,0
216,128,105810,5,2
256,152,105918,1,0
256,192,106025,1,0
296,256,106238,5,8
256,232,106346,1,0
256,192,106453,1,0
336,192,106667,6,0,B|424:192,2,70,2|0|8
176,192,107310,6,0,B|88:192,2,70,0|2|0
256,112,107952,6,0,B|256:16,2,70,8|0|2
256,272,108595,6,0,B|256:368,2,70,0|8|0
256,192,109238,5,2
256,192,109345,1,0
256,192,109452,1,0
256,192,109560,1,0
256,192,109667,1,8
112,104,110095,5,2
184,64,110310,1,0
256,104,110524,5,8
328,64,110738,5,0
400,104,110952,1,2
328,152,111167,6,0,B|240:296,1,140,2|0
257,271,111810,2,0,B|184:152,1,140,2|0
256,192,112667,12,0,113524
448,304,115238,6,0,B|344:304,1,87.5,2|0
296,304,115667,1,8
64,192,116095,6,0,B|168:192,1,87.5,2|0
216,192,116524,1,8
448,80,116952,6,2,B|344:80,1,87.5,2|0
296,80,117381,1,8
168,264,117649,5,0
168,264,117810,1,2
256,192,118077,5,0
256,192,118238,1,8
344,264,118506,5,0
344,264,118667,1,2
168,176,118935,6,0,B|112:144,1,52.5,0|8
256,304,119363,6,0,B|256:368,1,52.5,0|2
344,176,119792,6,0,B|400:144,1,52.5,0|8
168,264,120220,6,0,B|112:296,1,52.5,0|2
256,144,120649,6,0,B|256:80,1,52.5,0|8
344,264,121077,6,0,B|400:296,1,52.5,0|2
120,152,121506,5,0
120,152,121667,1,8
256,32,121935,5,0
256,32,122095,1,2
392,152,122363,5,0
392,152,122524,2,0,B|336:152|288:176|288:224,1,140,8|2
120,152,123220,5,0
120,152,123381,2,0,B|176:152|224:176|224:224,1,140,8|2
323,298,124077,5,0
323,298,124238,2,0,B|171:298,2,140,8|2|8
411,155,125524,5,2
331,91,125792,2,0,B|283:51,1,52.5,0|8
100,155,126220,5,0
100,155,126381,1,2
180,91,126649,2,0,B|228:51,1,52.5,0|8
256,192,127077,5,0
256,192,127238,12,0,128952
56,344,132381,5,2
56,240,132667,5,0
56,240,132810,1,2
56,128,133095,5,0
64,72,133238,1,2
112,40,133381,1,0
168,56,133524,1,2
200,104,133667,1,0
160,200,133952,5,0
208,224,134095,1,2
264,224,134238,1,0
296,176,134381,1,2
296,120,134524,1,0
320,72,134667,1,2
376,56,134810,1,0
432,72,134952,1,2
416,184,135238,5,0
376,144,135381,1,2
456,224,135667,5,0
496,264,135810,1,2
384,256,136095,5,0
336,288,136238,1,2
232,328,136524,5,0
176,336,136667,1,2
120,328,136810,1,0
80,288,136952,1,2
72,232,137095,1,0
72,120,137381,5,0
72,64,137524,1,2
168,128,137810,5,0
168,184,137952,1,2
264,120,138238,5,0
264,64,138381,1,2
360,128,138667,5,0
360,184,138810,1,2
360,184,139095,5,0
360,184,139238,1,2
448,256,139524,5,0
408,296,139667,1,2
296,296,139952,5,0
352,312,140095,1,2
312,352,140238,1,0
256,336,140381,1,2
240,280,140524,1,0
160,360,140810,5,0
200,320,140952,1,2
144,304,141095,1,0
184,264,141238,1,2
128,248,141381,1,0
168,208,141524,1,2
200,160,141667,1,0
256,136,141810,1,2
368,160,142095,5,0
416,184,142238,1,2
312,144,142524,5,0
256,136,142667,1,2
360,96,142952,5,0
304,80,143095,1,2
408,48,143381,5,0
456,72,143524,1,2
472,128,143667,1,0
416,112,143810,1,2
400,168,143952,1,0
496,224,144238,5,0
456,184,144381,1,2
384,272,144667,5,0
424,232,144810,1,2
496,320,145095,5,0
464,272,145238,1,2
368,216,145524,5,0
320,240,145667,1,2
264,240,145810,1,0
224,200,145952,1,2
248,152,146095,1,0
160,216,146381,5,4
112,192,146524,1,2
200,264,146810,5,4
216,320,146952,1,2
104,296,147238,5,4
56,328,147381,1,2
40,216,147667,5,4
64,168,147810,1,2
176,144,148095,5,4
224,176,148238,1,2
272,280,148524,5,4
288,336,148667,1,2
240,232,148952,5,4
288,200,149095,1,2
384,144,149381,5,4
336,168,149524,1,2
248,96,149810,5,4
280,136,149952,1,2
168,128,150238,5,4
192,80,150381,1,2
144,48,150524,1,2
120,96,150667,1,4
80,136,150810,1,2
176,184,151095,5,4
224,216,151238,1,2
112,192,151524,5,4
88,248,151667,1,2
24,160,151952,5,4
80,136,152095,1,2
192,120,152381,5,4
136,136,152524,1,2
200,232,152810,5,4
176,184,152952,1,2
288,200,153238,5,4
256,160,153381,1,2
368,152,153667,5,4
328,112,153810,1,2
288,80,153952,1,2
232,80,154095,1,4
192,120,154238,1,2
80,96,154524,5,4
136,112,154667,1,2
96,152,154810,1,2
152,168,154952,1,4
112,208,155095,1,2
168,224,155238,1,2
208,184,155381,1,4
224,240,155524,1,2
192,120,155810,5,4
216,72,155952,1,2
312,120,156238,5,4
264,96,156381,1,4
256,192,156452,12,4,157238
256,192,157292,12,4,158095
256,192,158149,12,0,164095
