osu file format v13

[General]
AudioFilename: Basshunter - Jingle Bells.mp3
AudioLeadIn: 0
PreviewTime: 51840
Countdown: 0
SampleSet: Normal
StackLeniency: 0.2
Mode: 1
LetterboxInBreaks: 0
WidescreenStoryboard: 0

[Editor]
DistanceSpacing: 1.2
BeatDivisor: 1
GridSize: 32
TimelineZoom: 2.5

[Metadata]
Title:Jingle Bells
TitleUnicode:Jingle Bells
Artist:Basshunter
ArtistUnicode:Basshunter
Creator:_Gezo_
Version:Oni
Source:
Tags:Christmas Xmas LOL <(^^,)>
BeatmapID:555725
BeatmapSetID:240448

[Difficulty]
HPDrainRate:6
CircleSize:2
OverallDifficulty:6
ApproachRate:10
SliderMultiplier:1.4
SliderTickRate:1

[Events]
//Background and Video events
0,0,"christmas.jpg",0,0
//Break Periods
//Storyboard Layer 0 (Background)
//Storyboard Layer 1 (Fail)
//Storyboard Layer 2 (Pass)
//Storyboard Layer 3 (Foreground)
//Storyboard Sound Samples

[TimingPoints]
3840,428.571428571429,4,1,0,75,1,0
51840,-100,4,1,0,75,0,1
65554,-100,4,1,0,75,0,0
115268,-100,4,1,0,75,0,1
128982,-100,4,1,0,75,0,0
132411,-100,4,1,0,75,0,1
159840,-100,4,1,0,75,0,0

[Colours]
Combo1 : 255,198,0
Combo2 : 255,0,0
Combo3 : 0,255,0
Combo4 : 34,34,255

[HitObjects]
256,192,3840,5,0,0:0:0:0:
256,192,4268,1,0,0:0:0:0:
256,192,4697,1,8,0:0:0:0:
256,192,5125,1,0,0:0:0:0:
256,192,5554,1,0,0:0:0:0:
256,192,5982,1,0,0:0:0:0:
256,192,6197,1,0,0:0:0:0:
256,192,6411,1,8,0:0:0:0:
256,192,6840,1,0,0:0:0:0:
256,192,7268,1,0,0:0:0:0:
256,192,7697,1,0,0:0:0:0:
256,192,8125,1,8,0:0:0:0:
256,192,8554,1,0,0:0:0:0:
256,192,8982,1,0,0:0:0:0:
256,192,9840,1,8,0:0:0:0:
256,192,10697,1,0,0:0:0:0:
256,192,11125,1,0,0:0:0:0:
256,192,11554,1,8,0:0:0:0:
256,192,11982,1,0,0:0:0:0:
256,192,12197,1,0,0:0:0:0:
256,192,12411,1,0,0:0:0:0:
256,192,12840,1,0,0:0:0:0:
256,192,13054,1,0,0:0:0:0:
256,192,13268,1,8,0:0:0:0:
256,192,13697,1,0,0:0:0:0:
256,192,14125,1,0,0:0:0:0:
256,192,14554,1,0,0:0:0:0:
256,192,14982,1,8,0:0:0:0:
256,192,15411,1,0,0:0:0:0:
256,192,15840,1,0,0:0:0:0:
256,192,16697,1,8,0:0:0:0:
256,192,17554,1,8,0:0:0:0:
256,192,20982,1,0,0:0:0:0:
256,192,21411,1,8,0:0:0:0:
256,192,21840,1,0,0:0:0:0:
256,192,22268,1,8,0:0:0:0:
256,192,22697,1,0,0:0:0:0:
256,192,23125,1,8,0:0:0:0:
256,192,23554,1,0,0:0:0:0:
256,192,23982,1,0,0:0:0:0:
256,192,24090,1,0,0:0:0:0:
256,192,24197,1,0,0:0:0:0:
256,192,24304,1,0,0:0:0:0:
256,192,24411,1,0,0:0:0:0:
256,192,24840,1,8,0:0:0:0:
256,192,25268,1,0,0:0:0:0:
256,192,25697,1,8,0:0:0:0:
256,192,26125,1,0,0:0:0:0:
256,192,26554,1,8,0:0:0:0:
256,192,26982,1,0,0:0:0:0:
256,192,27197,1,8,0:0:0:0:
256,192,27411,1,0,0:0:0:0:
256,192,27625,1,8,0:0:0:0:
256,192,27732,1,8,0:0:0:0:
256,192,27840,1,0,0:0:0:0:
256,192,28268,1,8,0:0:0:0:
256,192,28697,1,0,0:0:0:0:
256,192,29125,1,8,0:0:0:0:
256,192,29554,1,0,0:0:0:0:
256,192,29982,1,8,0:0:0:0:
256,192,30411,1,0,0:0:0:0:
256,192,30840,1,8,0:0:0:0:
256,192,30947,1,8,0:0:0:0:
256,192,31054,1,8,0:0:0:0:
256,192,31268,1,0,0:0:0:0:
256,192,31697,1,8,0:0:0:0:
256,192,32125,1,0,0:0:0:0:
256,192,32554,1,8,0:0:0:0:
256,192,32982,1,4,0:0:0:0:
256,192,33840,1,0,0:0:0:0:
256,192,34054,1,0,0:0:0:0:
256,192,34268,1,8,0:0:0:0:
256,192,34375,1,8,0:0:0:0:
256,192,34482,1,0,0:0:0:0:
256,192,34697,1,4,0:0:0:0:
256,192,38125,1,0,0:0:0:0:
256,192,38340,1,0,0:0:0:0:
256,192,38554,1,8,0:0:0:0:
256,192,38768,1,8,0:0:0:0:
256,192,38875,1,8,0:0:0:0:
256,192,38982,1,0,0:0:0:0:
256,192,39411,1,8,0:0:0:0:
256,192,39625,1,0,0:0:0:0:
256,192,39732,1,8,0:0:0:0:
256,192,39840,1,0,0:0:0:0:
256,192,40054,1,0,0:0:0:0:
256,192,40268,1,8,0:0:0:0:
256,192,40482,1,0,0:0:0:0:
256,192,40697,1,0,0:0:0:0:
256,192,41125,1,8,0:0:0:0:
256,192,41340,1,8,0:0:0:0:
256,192,41447,1,8,0:0:0:0:
256,192,41554,1,0,0:0:0:0:
256,192,41768,1,0,0:0:0:0:
256,192,41982,1,8,0:0:0:0:
256,192,42090,1,8,0:0:0:0:
256,192,42197,1,0,0:0:0:0:
256,192,42411,1,0,0:0:0:0:
256,192,42840,1,8,0:0:0:0:
256,192,43054,1,0,0:0:0:0:
256,192,43268,1,8,0:0:0:0:
256,192,43482,1,0,0:0:0:0:
256,192,43697,1,8,0:0:0:0:
256,192,43804,1,8,0:0:0:0:
256,192,43911,1,0,0:0:0:0:
256,192,44125,1,0,0:0:0:0:
256,192,44554,1,8,0:0:0:0:
256,192,44768,1,8,0:0:0:0:
256,192,44982,1,0,0:0:0:0:
256,192,45411,1,8,0:0:0:0:
256,192,45625,1,0,0:0:0:0:
256,192,45732,1,0,0:0:0:0:
256,192,45840,1,8,0:0:0:0:
256,192,46054,1,0,0:0:0:0:
256,192,46268,1,8,0:0:0:0:
256,192,46375,1,8,0:0:0:0:
256,192,46482,1,8,0:0:0:0:
256,192,46697,1,0,0:0:0:0:
256,192,47125,1,8,0:0:0:0:
256,192,47340,1,0,0:0:0:0:
256,192,47554,1,0,0:0:0:0:
256,192,47982,1,8,0:0:0:0:
256,192,48197,1,0,0:0:0:0:
256,192,48304,1,8,0:0:0:0:
256,192,48411,1,0,0:0:0:0:
256,192,48625,1,0,0:0:0:0:
256,192,48840,1,8,0:0:0:0:
256,192,48947,1,8,0:0:0:0:
256,192,49054,1,0,0:0:0:0:
256,192,49268,1,0,0:0:0:0:
256,192,49482,1,8,0:0:0:0:
256,192,49697,1,8,0:0:0:0:
256,192,50125,1,0,0:0:0:0:
256,192,50554,1,8,0:0:0:0:
256,192,50768,1,8,0:0:0:0:
256,192,50982,1,0,0:0:0:0:
256,192,51411,1,8,0:0:0:0:
256,192,51840,1,0,0:0:0:0:
256,192,52054,1,0,0:0:0:0:
256,192,52268,1,8,0:0:0:0:
256,192,52697,1,0,0:0:0:0:
256,192,52911,1,0,0:0:0:0:
256,192,53125,1,8,0:0:0:0:
256,192,53554,1,0,0:0:0:0:
256,192,53768,1,0,0:0:0:0:
256,192,53875,1,0,0:0:0:0:
256,192,53982,1,8,0:0:0:0:
256,192,54197,1,8,0:0:0:0:
256,192,54411,1,0,0:0:0:0:
256,192,54625,1,8,0:0:0:0:
256,192,54732,1,8,0:0:0:0:
256,192,54840,1,8,0:0:0:0:
256,192,55054,1,8,0:0:0:0:
256,192,55268,1,0,0:0:0:0:
256,192,55697,1,8,0:0:0:0:
256,192,55911,1,0,0:0:0:0:
256,192,56018,1,8,0:0:0:0:
256,192,56125,1,0,0:0:0:0:
256,192,56340,1,0,0:0:0:0:
256,192,56554,1,8,0:0:0:0:
256,192,56768,1,0,0:0:0:0:
256,192,56982,1,0,0:0:0:0:
256,192,57197,1,0,0:0:0:0:
256,192,57411,1,8,0:0:0:0:
256,192,57625,1,8,0:0:0:0:
256,192,57840,1,0,0:0:0:0:
256,192,58268,1,8,0:0:0:0:
256,192,58697,1,0,0:0:0:0:
256,192,58911,1,0,0:0:0:0:
256,192,59018,1,0,0:0:0:0:
256,192,59125,1,8,0:0:0:0:
256,192,59554,1,8,0:0:0:0:
256,192,59768,1,0,0:0:0:0:
256,160,59875,1,0,0:0:0:0:
256,192,59982,1,8,0:0:0:0:
256,192,60411,1,8,0:0:0:0:
256,192,60625,1,8,0:0:0:0:
256,192,60840,1,0,0:0:0:0:
256,192,61054,1,0,0:0:0:0:
256,192,61268,1,8,0:0:0:0:
256,192,61697,1,8,0:0:0:0:
256,192,61804,1,8,0:0:0:0:
256,192,61911,1,0,0:0:0:0:
256,192,62125,1,0,0:0:0:0:
256,192,62340,1,8,0:0:0:0:
256,192,62554,1,8,0:0:0:0:
256,192,62982,1,0,0:0:0:0:
256,192,63197,1,8,0:0:0:0:
256,192,63411,1,8,0:0:0:0:
256,192,63625,1,0,0:0:0:0:
256,192,63732,1,0,0:0:0:0:
256,192,63840,1,8,0:0:0:0:
256,192,64054,1,8,0:0:0:0:
256,192,64268,1,0,0:0:0:0:
256,192,64482,1,8,0:0:0:0:
256,192,64697,1,0,0:0:0:0:
256,192,65125,1,8,0:0:0:0:
256,192,65340,1,8,0:0:0:0:
256,192,65554,1,4,0:0:0:0:
256,192,67911,1,0,0:0:0:0:
256,192,68125,1,0,0:0:0:0:
256,192,68340,1,0,0:0:0:0:
256,192,68554,1,12,0:0:0:0:
256,192,68982,1,0,0:0:0:0:
256,192,69304,1,8,0:0:0:0:
256,192,69625,1,8,0:0:0:0:
256,192,69840,1,0,0:0:0:0:
256,192,70161,1,8,0:0:0:0:
256,192,70482,1,8,0:0:0:0:
256,192,70697,1,0,0:0:0:0:
256,192,70911,1,0,0:0:0:0:
256,192,71018,1,0,0:0:0:0:
256,192,71125,1,8,0:0:0:0:
256,192,71340,1,8,0:0:0:0:
256,192,71554,1,0,0:0:0:0:
256,192,71982,1,8,0:0:0:0:
256,192,72411,1,0,0:0:0:0:
256,192,72733,1,8,0:0:0:0:
256,192,73054,1,8,0:0:0:0:
256,192,73268,1,0,0:0:0:0:
256,192,73589,1,8,0:0:0:0:
256,192,73911,1,8,0:0:0:0:
256,192,74125,1,0,0:0:0:0:
256,192,74340,1,8,0:0:0:0:
256,192,74447,1,8,0:0:0:0:
256,192,74554,1,0,0:0:0:0:
256,192,74768,1,8,0:0:0:0:
256,192,74982,1,0,0:0:0:0:
256,192,75411,1,8,0:0:0:0:
256,192,75840,1,0,0:0:0:0:
256,192,76161,1,8,0:0:0:0:
256,192,76482,1,8,0:0:0:0:
256,192,76697,1,0,0:0:0:0:
256,192,77018,1,8,0:0:0:0:
256,192,77340,1,8,0:0:0:0:
256,192,77554,1,0,0:0:0:0:
256,192,77768,1,0,0:0:0:0:
256,192,77982,1,8,0:0:0:0:
256,192,78197,1,0,0:0:0:0:
256,192,78304,1,0,0:0:0:0:
256,192,78411,1,0,0:0:0:0:
256,192,78625,1,0,0:0:0:0:
256,192,78840,1,8,0:0:0:0:
256,192,79268,1,0,0:0:0:0:
256,192,79590,1,8,0:0:0:0:
256,192,79911,1,8,0:0:0:0:
256,192,80125,1,0,0:0:0:0:
256,192,80447,1,8,0:0:0:0:
256,192,80768,1,0,0:0:0:0:
256,192,80982,1,0,0:0:0:0:
256,192,81090,1,8,0:0:0:0:
256,192,81197,1,8,0:0:0:0:
256,192,81304,1,8,0:0:0:0:
256,192,81518,1,8,0:0:0:0:
256,192,81625,1,8,0:0:0:0:
256,192,81732,1,8,0:0:0:0:
256,192,81840,1,0,0:0:0:0:
256,192,82268,1,8,0:0:0:0:
256,192,82697,1,0,0:0:0:0:
256,192,82911,1,0,0:0:0:0:
256,192,83018,1,8,0:0:0:0:
256,192,83340,1,8,0:0:0:0:
256,192,83554,1,8,0:0:0:0:
256,192,83768,1,0,0:0:0:0:
256,192,83875,1,8,0:0:0:0:
256,192,84197,1,8,0:0:0:0:
256,192,84411,1,0,0:0:0:0:
256,192,84840,1,8,0:0:0:0:
256,192,85268,1,0,0:0:0:0:
256,192,85482,1,0,0:0:0:0:
256,192,85697,1,8,0:0:0:0:
256,192,86125,1,0,0:0:0:0:
256,192,86340,1,0,0:0:0:0:
256,192,86447,1,8,0:0:0:0:
256,192,86768,1,8,0:0:0:0:
256,192,86982,1,8,0:0:0:0:
256,192,87197,1,0,0:0:0:0:
256,192,87304,1,8,0:0:0:0:
256,192,87625,1,8,0:0:0:0:
256,192,87840,1,0,0:0:0:0:
256,192,88268,1,8,0:0:0:0:
256,192,88697,1,0,0:0:0:0:
256,192,88911,1,8,0:0:0:0:
256,192,89125,1,8,0:0:0:0:
256,192,89554,1,0,0:0:0:0:
256,192,89768,1,0,0:0:0:0:
256,192,89875,1,8,0:0:0:0:
256,192,90197,1,8,0:0:0:0:
256,192,90411,1,8,0:0:0:0:
256,192,90625,1,0,0:0:0:0:
256,192,90732,1,8,0:0:0:0:
256,192,91054,1,8,0:0:0:0:
256,192,91268,1,0,0:0:0:0:
256,192,91697,1,8,0:0:0:0:
256,192,91911,1,8,0:0:0:0:
256,192,92125,1,0,0:0:0:0:
256,192,92340,1,0,0:0:0:0:
256,192,92554,1,8,0:0:0:0:
256,192,92768,1,8,0:0:0:0:
256,192,92982,1,0,0:0:0:0:
256,192,93840,1,0,0:0:0:0:
256,192,94697,1,0,0:0:0:0:
256,192,95125,1,8,0:0:0:0:
256,192,95340,1,8,0:0:0:0:
256,192,95554,1,0,0:0:0:0:
256,192,95982,1,8,0:0:0:0:
256,192,96411,1,4,0:0:0:0:
256,192,99840,1,0,0:0:0:0:
256,192,100054,1,0,0:0:0:0:
256,192,100268,1,8,0:0:0:0:
256,192,100375,1,8,0:0:0:0:
256,192,100482,1,0,0:0:0:0:
256,192,100697,1,0,0:0:0:0:
256,192,101125,1,8,0:0:0:0:
256,192,101554,1,0,0:0:0:0:
256,192,101768,1,0,0:0:0:0:
256,192,101875,1,0,0:0:0:0:
256,192,101982,1,8,0:0:0:0:
256,192,102197,1,8,0:0:0:0:
256,192,102411,1,0,0:0:0:0:
256,192,102625,1,0,0:0:0:0:
256,192,102840,1,8,0:0:0:0:
256,192,103268,1,0,0:0:0:0:
256,192,103482,1,8,0:0:0:0:
256,192,103590,1,8,0:0:0:0:
256,192,103697,1,8,0:0:0:0:
256,192,103911,1,8,0:0:0:0:
256,192,104125,1,0,0:0:0:0:
256,192,104554,1,8,0:0:0:0:
256,192,104982,1,0,0:0:0:0:
256,192,105197,1,0,0:0:0:0:
256,192,105304,1,0,0:0:0:0:
256,192,105411,1,8,0:0:0:0:
256,192,105625,1,8,0:0:0:0:
256,192,105840,1,0,0:0:0:0:
256,192,106054,1,0,0:0:0:0:
256,192,106161,1,0,0:0:0:0:
256,192,106268,1,8,0:0:0:0:
256,192,106697,1,0,0:0:0:0:
256,192,106911,1,0,0:0:0:0:
256,192,107125,1,8,0:0:0:0:
256,192,107340,1,0,0:0:0:0:
256,192,107554,1,0,0:0:0:0:
256,192,107661,1,0,0:0:0:0:
256,192,107768,1,0,0:0:0:0:
256,192,107982,1,8,0:0:0:0:
256,192,108411,1,0,0:0:0:0:
256,192,108625,1,0,0:0:0:0:
256,192,108732,1,0,0:0:0:0:
256,192,108840,1,8,0:0:0:0:
256,192,109054,1,8,0:0:0:0:
256,192,109268,1,0,0:0:0:0:
256,192,109590,1,0,0:0:0:0:
256,192,109697,1,8,0:0:0:0:
256,192,109911,1,8,0:0:0:0:
256,192,110125,1,0,0:0:0:0:
256,192,110340,1,0,0:0:0:0:
256,192,110447,1,0,0:0:0:0:
256,192,110554,1,8,0:0:0:0:
256,192,110768,1,8,0:0:0:0:
256,192,110982,1,0,0:0:0:0:
256,192,111411,1,8,0:0:0:0:
256,192,111840,1,0,0:0:0:0:
256,192,112268,1,8,0:0:0:0:
256,192,112482,1,8,0:0:0:0:
256,192,112697,1,0,0:0:0:0:
256,192,113125,1,8,0:0:0:0:
256,192,113554,1,4,0:0:0:0:
256,192,113982,1,8,0:0:0:0:
256,192,114411,1,8,0:0:0:0:
256,192,114697,1,0,0:0:0:0:
256,192,114840,1,8,0:0:0:0:
256,192,115125,1,8,0:0:0:0:
256,192,115268,1,0,0:0:0:0:
256,192,115554,1,0,0:0:0:0:
256,192,115697,1,8,0:0:0:0:
256,192,116125,1,0,0:0:0:0:
256,192,116411,1,0,0:0:0:0:
256,192,116554,1,8,0:0:0:0:
256,192,116982,1,0,0:0:0:0:
256,192,117268,1,0,0:0:0:0:
256,192,117411,1,8,0:0:0:0:
256,192,117697,1,8,0:0:0:0:
256,192,117840,1,0,0:0:0:0:
256,192,118268,1,8,0:0:0:0:
256,192,118697,1,0,0:0:0:0:
256,192,118982,1,0,0:0:0:0:
256,192,119125,1,8,0:0:0:0:
256,192,119411,1,8,0:0:0:0:
256,192,119554,1,0,0:0:0:0:
256,192,119840,1,0,0:0:0:0:
256,192,119982,1,8,0:0:0:0:
256,192,120411,1,0,0:0:0:0:
256,192,120697,1,0,0:0:0:0:
256,192,120840,1,8,0:0:0:0:
256,192,121125,1,8,0:0:0:0:
256,192,121268,1,0,0:0:0:0:
256,192,121554,1,0,0:0:0:0:
256,192,121697,1,8,0:0:0:0:
256,192,121840,1,0,0:0:0:0:
256,192,121982,1,8,0:0:0:0:
256,192,122125,1,0,0:0:0:0:
256,192,122411,1,0,0:0:0:0:
256,192,122554,1,8,0:0:0:0:
256,192,122982,1,0,0:0:0:0:
256,192,123268,1,0,0:0:0:0:
256,192,123411,1,8,0:0:0:0:
256,192,123840,1,0,0:0:0:0:
256,192,124125,1,0,0:0:0:0:
256,192,124268,1,8,0:0:0:0:
256,192,124554,1,8,0:0:0:0:
256,192,124697,1,0,0:0:0:0:
256,192,125125,1,8,0:0:0:0:
256,192,125554,1,0,0:0:0:0:
256,192,125840,1,0,0:0:0:0:
256,192,125982,1,8,0:0:0:0:
256,192,126268,1,8,0:0:0:0:
256,192,126411,1,0,0:0:0:0:
256,192,126697,1,0,0:0:0:0:
256,192,126840,1,8,0:0:0:0:
256,192,127125,1,0,0:0:0:0:
256,192,127268,1,0,0:0:0:0:
256,192,127554,1,0,0:0:0:0:
256,192,127697,1,8,0:0:0:0:
256,192,127982,1,0,0:0:0:0:
256,192,128125,1,0,0:0:0:0:
256,192,128411,1,8,0:0:0:0:
256,192,128554,1,8,0:0:0:0:
256,192,128697,1,8,0:0:0:0:
256,192,128840,1,8,0:0:0:0:
256,192,128982,1,0,0:0:0:0:
256,192,130697,1,8,0:0:0:0:
256,192,131125,1,8,0:0:0:0:
256,192,131554,1,8,0:0:0:0:
256,192,131697,1,0,0:0:0:0:
256,192,131840,1,0,0:0:0:0:
256,192,131982,1,8,0:0:0:0:
256,192,132411,1,0,0:0:0:0:
256,192,132697,1,0,0:0:0:0:
256,192,132840,1,8,0:0:0:0:
256,192,133125,1,0,0:0:0:0:
256,192,133268,1,0,0:0:0:0:
256,192,133411,1,0,0:0:0:0:
256,192,133554,1,0,0:0:0:0:
256,192,133697,1,8,0:0:0:0:
256,192,133982,1,0,0:0:0:0:
256,192,134125,1,0,0:0:0:0:
256,192,134411,1,0,0:0:0:0:
256,192,134554,1,8,0:0:0:0:
256,192,134840,1,0,0:0:0:0:
256,192,134982,1,0,0:0:0:0:
256,192,135268,1,0,0:0:0:0:
256,192,135411,1,8,0:0:0:0:
256,192,135697,1,8,0:0:0:0:
256,192,135840,1,0,0:0:0:0:
256,192,136125,1,0,0:0:0:0:
256,192,136268,1,8,0:0:0:0:
256,192,136554,1,0,0:0:0:0:
256,192,136697,1,0,0:0:0:0:
256,192,136840,1,0,0:0:0:0:
256,192,136982,1,0,0:0:0:0:
256,192,137125,1,8,0:0:0:0:
256,192,137554,1,0,0:0:0:0:
256,192,137982,1,8,0:0:0:0:
256,192,138268,1,8,0:0:0:0:
256,192,138411,1,0,0:0:0:0:
256,192,138697,1,0,0:0:0:0:
256,192,138840,1,8,0:0:0:0:
256,192,139268,1,0,0:0:0:0:
256,192,139554,1,0,0:0:0:0:
256,192,139697,1,8,0:0:0:0:
256,192,139982,1,0,0:0:0:0:
256,192,140125,1,8,0:0:0:0:
256,192,140268,1,0,0:0:0:0:
256,192,140411,1,8,0:0:0:0:
256,192,140554,1,0,0:0:0:0:
256,192,140840,1,0,0:0:0:0:
256,192,140982,1,8,0:0:0:0:
256,192,141268,1,8,0:0:0:0:
256,192,141411,1,0,0:0:0:0:
256,192,141554,1,0,0:0:0:0:
256,192,141697,1,8,0:0:0:0:
256,192,141840,1,8,0:0:0:0:
256,192,142125,1,8,0:0:0:0:
256,192,142268,1,0,0:0:0:0:
256,192,142697,1,0,0:0:0:0:
256,192,142982,1,0,0:0:0:0:
256,192,143125,1,8,0:0:0:0:
256,192,143411,1,8,0:0:0:0:
256,192,143554,1,0,0:0:0:0:
256,192,143697,1,0,0:0:0:0:
256,192,143840,1,0,0:0:0:0:
256,192,143982,1,8,0:0:0:0:
256,192,144268,1,0,0:0:0:0:
256,192,144411,1,8,0:0:0:0:
256,192,144697,1,8,0:0:0:0:
256,192,144840,1,0,0:0:0:0:
256,192,145125,1,8,0:0:0:0:
256,192,145268,1,0,0:0:0:0:
256,192,146125,1,0,0:0:0:0:
256,192,146411,1,0,0:0:0:0:
256,192,146554,1,8,0:0:0:0:
256,192,146840,1,0,0:0:0:0:
256,192,146982,1,0,0:0:0:0:
256,192,147125,1,0,0:0:0:0:
256,192,147268,1,0,0:0:0:0:
256,192,147411,1,8,0:0:0:0:
256,192,147697,1,0,0:0:0:0:
256,192,147840,1,8,0:0:0:0:
256,192,147982,1,0,0:0:0:0:
256,192,148125,1,0,0:0:0:0:
256,192,148268,1,8,0:0:0:0:
256,192,148554,1,0,0:0:0:0:
256,192,148697,1,8,0:0:0:0:
256,192,148982,1,0,0:0:0:0:
256,192,149125,1,8,0:0:0:0:
256,192,149411,1,0,0:0:0:0:
256,192,149554,1,8,0:0:0:0:
256,192,149982,1,8,0:0:0:0:
256,192,150411,1,8,0:0:0:0:
256,192,150554,1,0,0:0:0:0:
256,192,150697,1,0,0:0:0:0:
256,192,150840,1,8,0:0:0:0:
256,192,151125,1,8,0:0:0:0:
256,192,151268,1,8,0:0:0:0:
256,192,151411,1,0,0:0:0:0:
256,192,151554,1,0,0:0:0:0:
256,192,151697,1,8,0:0:0:0:
256,192,151982,1,0,0:0:0:0:
256,192,152125,1,0,0:0:0:0:
256,192,152268,1,0,0:0:0:0:
256,192,152411,1,8,0:0:0:0:
256,192,152554,1,0,0:0:0:0:
256,192,152840,1,8,0:0:0:0:
256,192,152982,1,0,0:0:0:0:
256,192,153411,1,8,0:0:0:0:
256,192,153840,1,0,0:0:0:0:
256,192,153982,1,0,0:0:0:0:
256,192,154125,1,0,0:0:0:0:
256,192,154268,1,8,0:0:0:0:
256,192,154697,1,0,0:0:0:0:
256,192,154982,1,8,0:0:0:0:
256,192,155125,1,0,0:0:0:0:
256,192,155268,1,0,0:0:0:0:
256,192,155411,1,8,0:0:0:0:
256,192,155554,1,0,0:0:0:0:
256,192,155982,1,0,0:0:0:0:
256,192,156411,1,8,0:0:0:0:
256,192,156840,1,8,0:0:0:0:
256,192,157125,1,0,0:0:0:0:
256,192,157268,1,0,0:0:0:0:
256,192,157554,1,0,0:0:0:0:
256,192,157697,1,8,0:0:0:0:
256,192,158125,1,8,0:0:0:0:
256,192,158411,1,8,0:0:0:0:
256,192,158554,1,8,0:0:0:0:
256,192,158840,1,0,0:0:0:0:
256,192,158982,1,8,0:0:0:0:
256,192,159411,1,8,0:0:0:0:
256,192,159554,1,8,0:0:0:0:
256,192,159697,1,8,0:0:0:0:
256,192,159840,1,4,0:0:0:0:
