osu file format v4

[General]
AudioFilename: DOTA.mp3
AudioLeadIn: 0
AudioHash: 675e30f768175d4cd93c785683e7e350
PreviewTime: -1
Countdown: 1
SampleSet: Normal
EditorBookmarks: 53649,85698

[Metadata]
Title:DOTA (Sped Up)
Artist:Basshunter
Creator:Mifune24
Version:Hard

[Difficulty]
HPDrainRate:4
CircleSize:5
OverallDifficulty:6
SliderMultiplier: 1.6
SliderTickRate: 1

[Events]
//Background and Video events
1,0,"ea9b4e673a46fedcc53ea0213d889fa8.avi"
//Break Periods
2,47341,52924
2,74998,84648
//Storyboard Layer 0 (Background)
//Storyboard Layer 1 (Failing)
//Storyboard Layer 2 (Passing)
//Storyboard Layer 3 (Foreground)
//Storyboard Sound Samples
//Background Colour Transformations
3,100,163,162,255

[TimingPoints]
26961,325.371144251919,4,1,0,100

[HitObjects]
256,192,26635,1,0
384,192,26960,1,0
384,320,27286,1,0
320,320,27449,1,0
256,320,27611,1,0
192,320,27774,1,0
128,320,27937,1,0
128,192,28262,1,0
128,64,28587,5,0
192,32,28750,1,0
256,64,28913,2,0,B|256:64|192:128,1,80
256,160,29238,2,0,B|256:160|320:96,1,80
352,160,29563,1,0
416,128,29726,5,0
448,192,29889,1,0
384,224,30052,1,0
320,256,30214,1,0
256,288,30377,1,0
192,256,30540,2,0,B|192:256|32:160,1,160
96,128,31028,5,2
128,64,31190,1,2
192,96,31353,1,2
256,128,31516,1,2
320,160,31678,1,2
352,96,31841,1,2
224,32,32166,1,2
160,160,32492,5,2
96,128,32654,1,2
32,96,32817,1,2
32,160,32980,1,2
32,224,33143,1,2
160,288,33468,1,2
256,192,33793,5,2
320,160,33956,1,2
384,128,34119,1,2
384,192,34281,1,2
384,256,34444,1,2
256,288,34769,1,2
256,160,35095,5,0
320,128,35257,1,0
384,96,35420,1,0
352,32,35583,1,0
416,32,35746,1,0
288,32,36071,1,0
128,32,36396,5,0
192,64,36559,1,0
256,96,36722,1,0
288,160,36884,1,0
224,160,37047,1,0
352,160,37372,1,0
128,288,37698,6,0,B|128:288|224:288,4,80
256,224,38674,1,0
320,288,38999,2,0,B|320:288|416:288,4,80
448,224,39975,1,0
448,160,40138,1,0
480,96,40301,1,0
416,96,40463,1,0
384,160,40626,2,0,B|384:160|192:160,1,160
224,256,41195,1,0
32,288,41440,5,0
64,224,41602,1,0
96,288,41765,1,0
128,224,41928,2,0,B|128:224|128:32,1,160
224,128,42578,1,0
128,192,42904,5,2
160,256,43066,1,2
224,288,43229,1,2
288,288,43392,1,2
352,256,43554,2,2,B|352:256|416:224|416:160|352:128,1,160
288,128,44042,1,2
224,96,44205,2,2,B|224:96|160:0|96:96,1,160
96,160,44693,1,2
96,224,44856,2,2,B|96:224|160:320|224:224,1,160
288,224,45344,1,2
352,224,45507,2,2,B|352:224|448:160|320:96,1,160
282,72,45995,1,2
224,96,46157,2,2,B|224:96|128:160|224:224,1,160
281,231,46645,1,2
320,288,46808,2,2,B|320:288|256:384|192:288,1,160
256,32,53966,5,0
256,160,54292,1,0
256,224,54454,1,0
320,192,54617,1,0
320,192,54698,1,0
320,192,54780,1,0
384,192,54942,2,0,B|384:192|480:192,2,80
384,256,55430,1,0
384,256,55756,1,0
384,320,55919,5,0
320,320,56081,1,0
256,320,56244,1,0
192,320,56407,1,0
128,320,56569,1,0
160,256,56732,1,0
160,256,56813,1,0
160,256,56895,1,0
160,192,57057,2,0,B|160:192|160:96,3,80
161,47,57708,1,0
225,47,57871,6,2,B|225:47|389:47,1,160
449,50,58359,1,2
446,114,58522,2,2,B|446:114|264:115,1,160
221,116,59010,1,2
221,179,59172,2,2,B|221:179|385:179,1,160
445,182,59660,1,0
445,246,59823,1,2
445,246,59904,1,2
445,246,59986,1,2
381,246,60148,2,2,B|381:246|282:247,2,80
252,243,60799,1,2
187,243,60962,1,2
123,241,61124,5,0
128,128,61450,1,0
256,128,61775,1,0
384,128,62101,1,0
480,32,62426,1,0
352,32,62751,1,0
224,32,63077,1,0
96,32,63402,1,0
32,128,63727,1,0
96,160,63890,1,0
32,192,64053,1,0
96,224,64215,1,0
32,256,64378,2,0,L|32:256|32:352|128:352,1,160
224,352,65029,5,0
288,352,65192,1,0
352,352,65354,1,0
416,352,65517,1,0
480,352,65680,2,0,L|480:352|480:192,1,160
480,128,66168,1,0
480,128,66330,2,0,L|480:128|320:128,1,160
320,128,66818,1,0
320,128,66981,2,0,L|320:128|320:288,1,160
320,288,67469,1,0
320,288,67632,2,0,L|320:288|160:288,1,160
160,288,68120,1,0
160,288,68283,2,0,L|160:288|160:128,1,160
160,128,68771,1,0
160,128,68933,2,0,L|160:128|320:128,1,160
448,128,69584,5,2
448,256,69909,1,2
448,192,70072,1,2
448,192,70235,1,2
320,256,70560,5,2
320,128,70886,1,2
320,192,71048,1,2
320,192,71374,1,2
192,256,71862,5,2
192,128,72187,1,2
192,192,72350,1,2
192,192,72675,1,2
64,256,73163,5,2
64,128,73489,1,2
64,192,73651,1,2
64,192,73977,1,2
256,192,74302,12,0,74790
96,288,85690,5,0
96,224,85853,1,0
96,160,86015,1,0
96,96,86178,1,0
96,32,86341,1,0
160,32,86503,1,0
256,32,86747,1,0
352,32,86991,5,0
352,96,87154,1,0
352,160,87317,1,0
352,224,87480,1,0
352,288,87642,1,0
288,288,87805,1,0
192,288,88049,1,0
96,256,88293,5,2
160,224,88456,1,2
224,192,88618,1,2
288,160,88781,1,2
352,128,88944,1,2
288,96,89106,1,2
192,32,89350,1,2
96,96,89594,5,2
160,128,89757,1,2
224,160,89920,1,2
288,192,90083,1,2
352,224,90245,1,2
288,256,90408,1,2
192,320,90652,1,2
96,320,90896,2,0,B|96:320|96:224,5,80
96,128,91953,1,0
192,128,92197,6,0,B|192:128|192:224,5,80
192,288,93255,1,0
288,288,93499,6,0,B|288:288|288:192,5,80
288,96,94556,1,0
352,160,94800,5,0
288,192,94963,1,0
224,224,95126,1,0
160,192,95288,1,0
96,160,95451,1,0
160,128,95614,1,0
256,128,95858,1,0
256,192,96265,12,0,98868
256,192,99518,5,0
352,96,99844,1,0
256,0,100169,1,0
160,96,100494,1,0
64,192,100820,1,0
160,288,101145,1,0
256,384,101470,1,0
352,288,101796,1,0
448,192,102121,1,0
352,96,102447,1,0
256,192,102772,5,0
256,192,102935,1,0
256,192,103097,1,0
256,64,103423,2,0,B|256:64|128:192,1,160
256,320,104073,5,2
256,320,104236,1,2
256,320,104399,1,2
256,192,104724,2,2,B|256:192|384:64,1,160
485,133,105375,5,2
430,167,105538,1,2
378,203,105700,1,2
448,256,106026,2,2,B|448:256|320:384,1,160
26,268,106676,5,2
77,229,106839,1,2
127,189,107002,1,2
64,128,107327,2,2,B|64:128|192:0,1,160
192,352,107978,5,0
256,352,108141,1,0
320,352,108303,1,0
480,224,108629,5,0
480,160,108791,1,0
480,96,108954,1,0
320,32,109279,5,0
256,32,109442,1,0
192,32,109605,1,0
32,96,109930,5,0
32,160,110093,1,0
32,224,110256,1,0
256,224,110581,6,0,B|256:224|288:288|192:320|160:256,2,160
160,160,111476,1,0
64,128,111720,5,0
128,96,111882,2,0,B|128:96|224:96|288:160,1,160
384,224,112370,5,0
320,192,112533,2,0,B|320:192|256:256|160:256,1,160
64,224,113021,5,0
96,288,113184,2,0,B|96:288|160:224|128:128,1,160
192,32,113672,5,0
160,96,113835,2,0,B|160:96|224:160|320:96,1,160
416,64,114323,5,0
352,96,114485,2,0,B|352:96|288:192|384:256,1,160
448,320,114973,5,0
480,256,115136,2,0,B|480:256|384:224|320:288,1,160
224,320,115624,5,0
256,384,115787,2,0,B|256:384|320:320|256:224,1,160
256,64,116438,5,2
320,96,116600,1,2
352,160,116763,1,2
352,224,116926,1,2
320,288,117088,1,2
256,320,117251,1,2
192,288,117414,1,2
160,224,117576,1,2
160,160,117739,1,2
192,96,117902,1,2
256,128,118064,1,2
288,192,118227,1,2
256,256,118390,1,2
224,192,118552,1,2
256,192,119041,12,4,120342
