osu file format v13

[General]
AudioFilename: DOTA.mp3
AudioLeadIn: 0
PreviewTime: -1
Countdown: 1
SampleSet: None
StackLeniency: 0.7
Mode: 0
LetterboxInBreaks: 1
WidescreenStoryboard: 0

[Editor]
Bookmarks: 53649,85698
DistanceSpacing: 0.9
BeatDivisor: 4
GridSize: 4
TimelineZoom: 1

[Metadata]
Title:DOTA (Sped Up)
TitleUnicode:
Artist:Basshunter
ArtistUnicode:
Creator:Mifune24
Version:Easy
Source:
Tags:
BeatmapID:554239
BeatmapSetID:957

[Difficulty]
HPDrainRate:2
CircleSize:2
OverallDifficulty:4
ApproachRate:4
SliderMultiplier:1.6
SliderTickRate:1

[Events]
//Background and Video events
Video,24,"ea9b4e673a46fedcc53ea0213d889fa8.avi"
//Break Periods
2,46715,52798
2,75014,85207
//Storyboard Layer 0 (Background)
//Storyboard Layer 1 (Fail)
//Storyboard Layer 2 (Pass)
//Storyboard Layer 3 (Foreground)
//Storyboard Sound Samples
//Background Colour Transformations
3,148,163,162,255

[TimingPoints]
26985,325.371144251919,4,1,0,100,1,0

[HitObjects]
96,192,26659,5,0,0:0:0:0:
96,192,26984,1,0,0:0:0:0:
416,192,27961,1,0,0:0:0:0:
416,192,28286,1,0,0:0:0:0:
256,320,29262,1,0,0:0:0:0:
256,320,29587,1,0,0:0:0:0:
176,167,30564,6,0,B|265:114|340:184,1,160
96,288,31865,5,2,0:0:0:0:
96,160,32190,1,2,0:0:0:0:
416,160,33167,1,2,0:0:0:0:
416,288,33492,1,2,0:0:0:0:
256,160,34468,5,2,0:0:0:0:
160,96,34793,1,2,0:0:0:0:
256,256,35770,1,2,0:0:0:0:
352,320,36095,1,2,0:0:0:0:
96,192,37071,6,0,B|224:64,1,160
320,64,37722,1,0,0:0:0:0:
384,192,38372,2,0,B|256:320,1,160
192,224,39023,1,0,0:0:0:0:
256,128,39674,5,0,0:0:0:0:
256,128,39999,1,0,0:0:0:0:
256,256,40975,1,0,0:0:0:0:
256,256,41301,1,0,0:0:0:0:
448,256,42277,6,2,B|448:64,2,160
320,256,43578,6,2,B|128:256,2,160
64,256,44880,6,2,B|64:64,2,160
256,96,46181,5,0,0:0:0:0:
256,224,46507,1,0,0:0:0:0:
416,64,53990,5,0,0:0:0:0:
256,64,54641,1,0,0:0:0:0:
96,64,55292,1,0,0:0:0:0:
96,192,55943,1,0,0:0:0:0:
256,192,56593,1,0,0:0:0:0:
416,192,57244,1,0,0:0:0:0:
416,320,57895,1,0,0:0:0:0:
256,320,58546,1,0,0:0:0:0:
352,64,59196,5,2,0:0:0:0:
448,64,59522,2,2,B|448:256,1,160
96,192,60498,5,2,0:0:0:0:
96,96,60823,2,2,B|288:96,1,160
384,96,61799,1,2,0:0:0:0:
384,192,62125,2,2,B|192:192,1,160
160,320,63101,5,2,0:0:0:0:
64,320,63426,2,2,B|64:128,1,160
256,96,64402,5,0,0:0:0:0:
256,96,64728,1,0,0:0:0:0:
256,96,65053,1,0,0:0:0:0:
256,256,65704,1,0,0:0:0:0:
256,256,66029,1,0,0:0:0:0:
256,256,66354,1,0,0:0:0:0:
352,192,67005,5,0,0:0:0:0:
352,192,67331,1,0,0:0:0:0:
352,192,67656,1,0,0:0:0:0:
160,192,68307,1,0,0:0:0:0:
160,192,68632,1,0,0:0:0:0:
160,192,68957,1,0,0:0:0:0:
256,192,69608,12,0,74814,0:0:0:0:
416,96,86527,5,0,0:0:0:0:
160,96,87178,2,0,B|352:96,1,160
416,192,87829,1,0,0:0:0:0:
160,192,88480,5,0,0:0:0:0:
416,288,89130,2,0,B|224:288,1,160
128,288,89781,1,0,0:0:0:0:
128,160,90432,1,0,0:0:0:0:
128,160,90676,1,0,0:0:0:0:
256,64,91733,5,2,0:0:0:0:
256,320,92384,2,2,B|256:128,1,160
352,64,93035,1,2,0:0:0:0:
96,64,93686,5,2,0:0:0:0:
294,225,94336,2,2,B|162:119,1,160
41,137,94987,1,2,0:0:0:0:
128,256,95638,1,2,0:0:0:0:
128,256,95882,1,2,0:0:0:0:
256,192,96939,12,0,98892,0:0:0:0:
416,96,99542,6,0,B|416:288,3,160
352,320,101494,5,0,0:0:0:0:
256,320,101820,1,0,0:0:0:0:
160,320,102145,1,0,0:0:0:0:
64,320,102471,1,0,0:0:0:0:
64,160,103447,1,0,0:0:0:0:
64,64,103691,1,0,0:0:0:0:
160,64,104748,6,0,B|352:64,1,160
320,160,105399,2,0,B|128:160,1,160
160,256,106050,2,0,B|352:256,1,160
320,352,106700,2,0,B|128:352,1,160
256,224,108002,5,2,0:0:0:0:
192,160,108327,1,2,0:0:0:0:
256,96,108653,1,2,0:0:0:0:
320,160,108978,1,2,0:0:0:0:
384,256,109954,6,0,B|448:192|384:96,1,160
320,64,110605,1,0,0:0:0:0:
224,64,110930,1,0,0:0:0:0:
160,128,111256,2,0,B|96:192|192:288,3,160
254,311,112557,2,0,B|313:368|393:302|380:235,1,160
384,192,113859,1,0,0:0:0:0:
448,256,114184,1,0,0:0:0:0:
128,96,115160,6,2,B|384:320,1,320
416,192,116462,2,2,B|64:192,1,320
128,288,117763,2,2,B|416:96,1,320
255,76,119065,1,0,0:0:0:0:
160,128,119390,1,0,0:0:0:0:
192,224,119715,1,0,0:0:0:0:
288,224,120041,1,0,0:0:0:0:
346,135,120366,1,0,0:0:0:0:
