osu file format v5

[General]
AudioFilename: Basshunter - Boten Anna.mp3
AudioLeadIn: 2007
PreviewTime: 16056
Countdown: 0
SampleSet: Soft
StackLeniency: 0.8
Mode: 0
LetterboxInBreaks: 1
EditorBookmarks: 341

[Metadata]
Title:Boten Anna
Artist:Basshunter
Creator:Al-Azif
Version:Insane
Source:
Tags:

[Difficulty]
HPDrainRate:8
CircleSize:4
OverallDifficulty:7
SliderMultiplier:1.6
SliderTickRate:0.5

[Events]
//Background and Video events
0,0,"asa.jpg"
//Break Periods
2,59692,74020
//Storyboard Layer 0 (Background)
//Storyboard Layer 1 (Failing)
//Storyboard Layer 2 (Passing)
//Storyboard Layer 3 (Foreground)
//Storyboard Sound Samples
5,132769,0,"se.wav"
//Background Colour Transformations
3,100,0,0,0

[TimingPoints]
1207,428.571428571429,4,2,1,10,1,0
2911,-100,4,2,1,20,0,0
4625,-100,4,2,1,30,0,0
6339,-100,4,2,1,40,0,0
8054,-200,4,2,1,50,0,0
8625,-200,4,2,1,20,0,0
9196,-100,4,2,1,100,0,0
11338,-200,4,2,1,100,0,0
12195,-200,4,2,1,20,0,0
12623,-200,4,2,1,100,0,0
14482,-200,4,2,1,100,0,0
15482,-200,4,2,1,20,0,0
15768,-100,4,2,1,100,0,0
20054,-200,4,2,1,100,0,0
20911,-100,4,2,1,100,0,0
33768,-200,4,2,1,100,0,0
34625,-100,4,2,1,100,0,0
57778,1714.28571428571,4,2,1,100,1,0
59492,428.571428571429,4,2,1,30,1,0
74063,-100,4,2,1,100,0,0
88619,-100,4,2,1,100,0,0
89048,-100,4,2,1,100,0,0
102327,-100,4,2,1,100,0,0
103194,-100,4,2,1,69,0,0
104051,-100,4,2,1,40,0,0
104908,-100,4,2,1,20,0,0
105763,-100,4,1,1,100,0,0
106194,-100,4,2,1,50,0,0
110041,-100,4,2,1,20,0,0
110469,-100,4,2,1,50,0,0
123206,-100,4,2,1,20,0,0
124041,-100,4,2,1,55,0,0
129349,1714.28571428571,4,2,1,50,1,0
130777,-100,4,2,1,20,0,0
132777,428.571428571429,4,2,1,20,1,0
134919,-100,4,2,1,100,0,0
145062,1000,4,2,1,100,1,0
146062,428.571428571429,4,2,1,100,1,0
149061,-100,4,2,1,100,0,0
162347,285.714285714286,4,2,1,100,1,0
162631,-100,4,2,1,100,0,0
174346,-100,4,2,1,100,0,0
174632,857.142857142857,4,2,1,79,1,0
176761,-100,4,2,1,62,0,0
177190,-100,4,2,1,40,0,0
177619,-100,4,2,1,20,0,0

[Colours]
Combo1 : 9,173,236
Combo2 : 255,255,255
Combo3 : 185,236,253
Combo4 : 67,210,252

[HitObjects]
216,136,1207,1,0
288,160,1635,1,0
264,232,2064,1,0
192,208,2492,1,0
224,104,2921,5,0
352,152,3349,1,0
304,280,3778,1,0
176,232,4207,1,0
240,64,4635,5,0
416,144,5064,1,0
336,320,5492,1,0
160,240,5921,1,0
256,24,6349,5,0
456,192,6778,1,0
256,360,7207,1,0
56,192,7635,2,0,B|48:128|88:80,1,106.666666666667
79,90,8064,2,0,B|192:80,1,106.666666666667,0|0
448,64,9206,1,0
448,64,9349,1,0
344,96,9635,1,0
344,96,9778,2,0,B|288:160|352:264,1,160
168,96,10492,2,0,B|224:160|160:264,1,160
170,245,11064,1,0
256,336,11349,2,0,B|280:280|232:232|272:168,1,160,0|0
344,32,12635,5,0
344,32,12778,1,0
416,112,13064,1,0
416,112,13206,1,0
328,176,13492,1,0
328,176,13635,1,0
256,96,13921,1,0
256,96,14064,1,0
344,32,14349,1,0
344,32,14492,1,0
344,32,14635,2,0,B|376:96|312:136|368:208,1,160
32,192,15992,5,0
32,192,16135,1,0
32,192,16278,2,0,B|184:192,1,133.333333333333,0|4
280,192,17064,1,4
336,280,17492,1,4
240,336,17778,5,0
240,336,17921,1,4
184,248,18206,1,0
184,248,18349,1,4
280,192,18635,2,0,B|456:192,2,160
280,192,19635,2,0,B|232:120|304:56,1,106.666666666667,4|0
273,91,20064,2,0,B|443:80,1,160,4|4
48,176,21206,5,0
48,176,21349,1,4
104,264,21635,1,0
104,264,21778,1,4
160,352,22064,2,0,B|248:320|352:360,2,160
160,352,23064,1,4
104,264,23349,1,0
104,264,23492,5,4
256,192,23921,1,8
408,120,24349,1,4
328,40,24635,5,0
328,40,24778,1,8
224,40,25064,1,0
224,40,25207,2,0,B|48:40,1,160,4|8
112,136,25921,2,0,B|296:136,1,160,0|0
272,136,26492,2,0,B|256:200|320:248,1,106.666666666667,8|0
302,232,26921,5,4
152,352,27349,1,8
40,192,27778,1,4
152,128,28064,5,0
152,128,28207,2,0,B|144:256,1,106.666666666667,8|0
142,309,28635,2,0,B|267:317,1,106.666666666667,4|0
323,321,29064,2,0,B|331:193,1,106.666666666667,12|0
333,139,29492,2,0,B|208:131,1,106.666666666667,4|0
226,132,29921,1,8
226,132,30064,1,8
32,152,30349,6,0,B|16:264|48:296,1,106.666666666667,4|2
104,304,30778,2,0,B|218:342,1,106.666666666667,8|2
224,256,31207,2,0,B|237:173|309:149,1,106.666666666667,4|2
275,165,31635,5,8
363,109,31921,1,2
363,109,32064,1,4
419,197,32349,1,2
419,197,32492,1,8
331,253,32778,2,0,B|259:229|139:261,1,160,0|2
208,328,33349,2,0,B|256:360|320:352,1,106.666666666667,8|2
392,352,33778,2,0,B|431:288|375:216|415:168,1,160,4|4
56,200,34921,5,2
56,200,35064,1,8
136,336,35349,1,2
136,336,35492,1,4
216,200,35778,1,2
216,200,35921,1,8
296,336,36207,1,2
296,336,36349,1,4
376,200,36635,1,2
376,200,36778,1,8
456,336,37064,1,2
456,336,37207,5,4
328,248,37635,1,8
448,144,38064,1,4
336,56,38349,5,2
336,56,38492,1,8
232,56,38778,2,0,B|56:56,1,160,0|2
40,128,39349,2,0,B|0:192|40:264,1,106.666666666667,8|2
56,304,39778,2,0,B|206:303,1,106.666666666667,4|2
160,304,40207,1,8
160,120,40492,2,0,B|328:120,1,160,0|2
384,168,41064,2,0,B|432:216|400:288,1,106.666666666667,8|2
384,344,41492,2,0,B|256:344,1,106.666666666667,4|2
277,344,41921,5,8
104,213,42207,1,2
104,213,42349,1,4
232,40,42635,1,2
232,40,42778,1,12
408,168,43064,1,2
408,168,43207,1,4
278,344,43492,1,0
278,344,43635,1,8
278,344,43778,2,0,B|126:344,2,106.666666666667,8|4|2
278,344,44492,5,8
240,248,44778,1,2
240,248,44921,1,4
272,144,45207,5,10
272,144,45349,1,8
168,112,45635,1,2
168,112,45778,1,4
136,216,46064,1,2
136,216,46207,1,8
240,248,46492,2,0,B|304:240|344:280|320:360,1,160,0|10
400,344,47064,2,0,B|526:331,1,106.666666666667,8|2
504,256,47492,6,0,B|504:109,1,106.666666666667,4|2
504,72,47921,2,0,B|357:72,1,106.666666666667,8|2
416,152,48349,2,0,B|440:208|408:272,1,106.666666666667,4|8
416,256,48778,5,8
96,256,49064,1,2
96,256,49207,2,0,B|72:152|120:64,1,160,4|8
408,96,49921,2,0,B|440:200|408:288,1,160,0|8
392,328,50492,2,0,B|255:329,1,106.666666666667,8|2
288,328,50921,5,4
184,328,51207,1,2
184,328,51349,1,8
80,328,51635,1,2
80,328,51778,1,6
64,88,52064,5,10
64,88,52207,1,8
152,128,52492,1,2
152,128,52635,2,0,B|328:96,1,160,4|8
312,208,53349,2,0,B|136:240,1,160,0|10
154,236,53921,1,8
160,344,54207,2,0,B|336:312,1,160,0|2
317,315,54778,5,8
424,296,55064,1,4
424,296,55207,1,2
400,192,55492,1,10
400,192,55635,1,8
293,211,55921,5,2
293,211,56064,2,0,B|293:91,1,106.666666666667,4|2
293,104,56492,1,8
192,72,56778,2,2,B|96:96|96:208,1,160,0|2
176,208,57349,2,0,B|321:208,1,106.666666666667,8|8
360,224,57778,2,0,B|392:288|352:352|280:352,1,160,4|0
336,112,74920,5,4
176,112,75349,1,8
336,272,75777,1,4
176,272,76206,1,8
40,192,76634,5,4
256,16,77063,1,8
256,368,77491,1,4
472,192,77920,1,8
88,112,78349,6,0,B|48:200|96:280,1,160,4|8
424,112,79206,2,0,B|464:200|416:280,1,160,4|8
248,264,80063,6,0,B|288:216|224:168|232:128|272:104,3,160,4|8|4|8
472,48,81777,6,0,C|352:48,1,106.666666666667,4|0
472,120,82206,2,0,C|352:120,1,106.666666666667,8|0
472,192,82634,2,0,C|304:192,1,160,4|8
40,192,83491,2,0,C|160:192,1,106.666666666667,4|0
40,264,83920,2,0,C|160:264,1,106.666666666667,8|0
40,336,84349,2,0,C|208:336,1,160,4|8
240,104,85206,6,0,C|360:104,1,106.666666666667,4|0
344,184,85634,2,0,C|344:304,1,106.666666666667,8|0
265,291,86063,2,0,C|145:291,1,106.666666666667,4|0
160,216,86491,2,0,C|160:96,1,106.666666666667,8|0
240,104,86920,2,0,C|360:104,1,106.666666666667,4|0
344,184,87349,2,0,C|344:304,1,106.666666666667,12|0
264,294,87777,2,0,C|80:294,1,160,4|8
408,88,88634,5,4
368,88,88777,1,0
328,88,88920,1,0
288,88,89063,1,10
184,88,89349,1,2
144,112,89491,1,4
120,144,89634,1,0
112,184,89777,1,0
120,224,89920,1,10
152,328,90206,5,2
152,328,90349,1,4
256,304,90634,1,0
256,304,90777,1,10
360,272,91063,1,2
392,248,91206,1,4
400,208,91349,1,0
392,168,91491,1,0
368,136,91634,1,10
224,56,92063,6,0,B|48:56,1,160,4|8
80,160,92777,1,2
80,160,92920,1,4
96,264,93206,1,0
96,264,93349,1,10
360,96,93777,5,4
368,136,93920,1,0
376,176,94063,1,0
384,216,94206,1,10
120,104,94491,1,2
128,144,94634,1,4
136,184,94777,1,0
144,224,94920,1,0
152,264,95063,1,10
472,264,95491,6,0,C|360:264,1,106.666666666667,4|0
365,264,95920,1,8
312,168,96206,1,2
312,168,96349,1,4
259,72,96634,1,0
259,72,96777,2,0,B|88:72,2,160,8|4|8
312,168,97920,1,2
312,168,98063,1,4
208,168,98349,1,0
208,168,98491,1,8
104,168,98777,5,0
96,208,98920,1,4
96,248,99063,1,0
112,288,99206,1,0
144,320,99349,1,10
360,64,99634,1,2
392,88,99777,1,4
408,128,99920,1,0
416,168,100063,1,0
408,208,100206,1,10
352,296,100491,5,2
352,296,100634,1,4
264,240,100920,1,2
264,240,101063,1,12
320,152,101349,1,2
320,152,101491,1,4
408,208,101777,5,0
360,232,101920,1,8
320,256,102063,1,8
280,280,102206,1,8
240,304,102349,6,0,B|240:368,3,53.3333333333333,4|0|0|0
88,176,103206,2,0,B|24:176,3,53.3333333333333
272,80,104063,2,0,B|272:16,3,53.3333333333333,0|0|0|0
424,208,104920,2,0,B|488:208,3,53.3333333333333
256,208,105777,5,0
456,328,106206,6,0,B|352:328|168:328,1,266.666666666667
192,200,107349,1,0
192,72,107777,2,0,B|112:72|48:120|56:216,1,213.333333333333,0|0
192,200,108777,1,0
192,328,109206,2,0,B|280:336|328:296|360:248|352:176|328:136|288:104,1,320
200,32,110491,5,0
88,96,110920,1,0
152,208,111349,1,0
264,144,111777,1,0
360,144,112063,1,0
360,144,112206,1,0
456,144,112491,1,0
456,144,112634,2,0,B|504:224|440:320,2,160
256,192,113777,12,0,115492
56,144,115920,6,0,B|8:224|72:320,2,160
200,80,117206,1,0
312,80,117492,1,0
312,80,117634,2,0,C|432:80,1,106.666666666667
472,80,118063,1,0
472,192,118349,1,0
472,192,118492,2,0,C|352:192|360:200,1,106.666666666667
312,192,118920,1,0
200,192,119206,1,0
256,192,119349,12,0,120277
120,72,120563,5,0
120,72,120706,1,0
64,176,120991,1,0
64,176,121134,1,0
152,256,121420,2,0,B|264:256|320:256,2,160
152,256,122420,1,0
200,160,122706,1,0
200,160,122849,2,0,B|384:160,1,160
224,256,124063,5,0
224,256,124206,1,0
312,200,124491,1,0
312,200,124634,1,0
248,112,124920,1,0
248,112,125063,1,0
160,176,125349,1,0
160,176,125491,1,0
224,256,125777,1,0
224,256,125920,1,0
312,200,126206,1,0
312,200,126349,2,0,B|344:280|312:376,2,160
248,112,127491,5,0
248,112,127634,1,0
328,40,127920,1,0
328,40,128063,2,0,B|456:40,1,106.666666666667
434,40,128491,1,0
472,136,128777,1,0
472,136,128920,1,0
408,224,129206,1,0
408,224,129349,2,0,B|328:248|224:240,1,160
256,192,132777,12,4,134919
64,320,135205,5,0
64,320,135348,1,4
192,64,135634,1,0
192,64,135777,1,4
320,320,136062,1,0
320,320,136205,1,4
448,64,136491,1,0
448,64,136634,6,0,B|472:120|448:176,1,106.666666666667,4|0
64,296,137348,2,0,B|32:208|72:104,1,160
60,138,137919,1,4
176,32,138205,1,0
176,32,138348,1,4
296,136,138634,5,0
296,136,138777,1,4
216,272,139062,1,0
216,272,139205,1,4
352,352,139491,5,0
352,352,139634,1,4
488,264,139919,1,0
488,264,140062,1,4
360,160,140348,2,0,B|272:184|272:296,2,160
360,160,141348,1,4
496,72,141634,1,0
496,72,141777,5,4
120,136,142062,1,0
120,136,142205,1,8
440,224,142491,1,0
440,224,142634,1,4
64,288,142919,1,0
64,288,143062,6,0,B|184:304,1,106.666666666667,8|0
169,302,143491,2,0,B|136:200|216:144,1,160,4|8
384,48,144205,2,0,B|472:88|456:192,1,160,0|0
457,176,144777,1,8
128,336,145062,2,0,B|72:312|40:256|56:192,1,160,0|4
464,208,146347,5,0
464,208,146490,1,4
344,136,146776,1,0
344,136,146919,1,4
256,248,147204,1,0
256,248,147347,1,4
376,320,147633,1,0
376,320,147776,1,4
464,208,148062,1,0
464,208,148204,1,4
464,208,148347,1,0
464,312,148633,6,0,B|464:184,1,106.666666666667,0|2
328,344,149062,2,0,B|328:216,1,106.666666666667,8|2
184,312,149490,2,0,B|184:176,1,106.666666666667,4|2
48,344,149919,2,0,B|48:224,1,106.666666666667,8|2
48,32,150347,2,0,B|48:152,1,106.666666666667,4|2
184,72,150776,2,0,B|184:192,1,106.666666666667,8|2
328,32,151204,2,0,B|328:152,1,106.666666666667,4|2
464,72,151633,6,0,B|488:144|448:192,1,106.666666666667,8|2
56,176,152062,2,0,B|16:256|64:352,2,160,4|8|4
400,56,153204,5,0
400,56,153347,2,0,B|272:56,1,106.666666666667,8|2
112,328,153776,2,0,B|232:328,1,106.666666666667,4|2
488,328,154204,2,0,B|368:328,1,106.666666666667,8|2
24,56,154633,2,0,B|152:56,1,106.666666666667,4|2
128,56,155062,1,8
152,352,155347,5,2
152,352,155490,2,0,B|32:352,1,106.666666666667,4|2
360,352,155919,2,0,B|480:352,1,106.666666666667,8|2
466,352,156347,6,0,B|496:296|464:224,1,106.666666666667,4|2
472,248,156776,1,8
400,48,157062,2,0,B|216:48,1,160,0|2
240,48,157633,2,0,B|240:120|184:160,1,106.666666666667,8|2
202,144,158062,1,4
274,337,158347,1,2
274,337,158490,2,0,B|276:278|321:231,1,106.666666666667,8|2
312,240,158919,5,4
424,144,159204,1,2
424,144,159347,1,8
312,48,159633,1,2
312,48,159776,1,4
200,144,160062,1,2
200,144,160204,6,0,B|72:168,1,106.666666666667,8|2
248,344,160633,2,0,B|376:320,1,106.666666666667,4|2
136,368,161062,2,0,B|112:256,1,106.666666666667,8|2
304,128,161490,2,0,B|336:248,1,106.666666666667,4|2
224,248,161919,1,8
224,248,162062,1,8
72,120,162347,6,0,B|40:200|72:280,1,160,6|2
70,276,162775,1,8
440,120,163061,1,8
440,120,163204,2,0,B|472:200|440:280,1,160,6|2
442,276,163632,1,8
256,336,163918,5,8
256,336,164061,2,0,B|80:336,1,160,6|2
256,336,164489,2,0,B|424:336,1,160,8|10
256,336,164918,2,0,B|80:336,1,160,6|2
256,336,165347,2,0,B|424:336,1,160,8|8
416,336,165775,6,0,B|464:256|400:160,1,160,6|2
96,184,166204,2,0,B|48:264|104:352,1,160,8|8
94,336,166632,1,6
416,48,166918,5,2
416,48,167061,2,0,B|248:48,1,160,8|8
96,48,167489,2,0,B|264:48,1,160,6|2
416,48,167918,2,0,B|248:48,1,160,8|8
96,48,168347,2,0,B|264:48,1,160,6|2
256,48,168775,5,8
256,344,169061,1,8
256,344,169204,2,0,B|88:344,1,160,6|2
256,48,169632,2,0,B|424:48,1,160,8|8
416,48,170061,1,6
56,120,170347,5,2
56,120,170489,2,0,B|16:192|56:288,1,160,8|8
256,192,170918,1,6
456,120,171204,1,2
456,120,171347,2,0,B|496:192|456:288,1,160,8|8
256,192,171775,1,6
56,120,172061,1,2
56,120,172204,5,8
456,120,172489,1,8
456,120,172632,1,6
128,352,172918,1,2
128,352,173061,1,12
256,16,173347,1,2
256,16,173489,1,6
384,352,173775,1,2
384,352,173918,1,8
384,352,174061,1,8
384,352,174204,1,8
384,352,174347,1,4
256,352,174632,6,0,B|184:264|344:208|232:120,1,240
152,48,176346,5,0
152,48,176489,1,0
72,160,176774,1,0
72,160,176917,1,0
184,240,177203,1,0
184,240,177346,1,0
264,128,177631,1,0
264,128,177774,1,0
