osu file format v9

[General]
AudioFilename: Basshunter - Angel In The Night!.mp3
AudioLeadIn: 0
PreviewTime: -1
Countdown: 1
SampleSet: Soft
StackLeniency: 0.7
Mode: 0
LetterboxInBreaks: 1

[Editor]
Bookmarks: 53781,67034,74729,112349,134152
DistanceSpacing: 1
BeatDivisor: 8
GridSize: 8

[Metadata]
Title:Angel In The Night
Artist:Basshunter
Creator:beatmastermap
Version:Insane
Source:
Tags:

[Difficulty]
HPDrainRate:6
CircleSize:5
OverallDifficulty:8
ApproachRate:7
SliderMultiplier:1.8
SliderTickRate:1

[Events]
//Background and Video events
0,0,"AngelNightMoon.png"
//Break Periods
2,50979,51162
2,54400,66125
2,98860,111868
//Storyboard Layer 0 (Background)
//Storyboard Layer 1 (Fail)
//Storyboard Layer 2 (Pass)
//Storyboard Layer 3 (Foreground)
//Storyboard Sound Samples
//Background Colour Transformations
3,100,163,162,255

[TimingPoints]
4610,427.502671891699,4,2,0,80,1,0
23420,-100,4,1,0,50,0,0
51635,-100,4,2,0,10,0,0
52490,-100,4,2,0,30,0,0
52917,-100,4,2,0,50,0,0
53772,-100,4,1,0,60,0,0
84989,-100,4,1,0,60,0,1
98669,-100,4,2,0,20,0,0
114478,-100,4,1,0,10,0,0
114905,-100,4,1,0,30,0,0
115333,-100,4,1,0,50,0,0
115760,-100,4,2,0,60,0,0
128594,-100,4,1,0,60,0,0
129449,-100,4,2,0,60,0,0
136280,-100,4,1,0,50,0,0
171772,-100,4,2,0,30,0,0

[Colours]
Combo1 : 255,150,0
Combo2 : 128,0,0
Combo3 : 128,128,128
Combo4 : 0,64,128

[HitObjects]
256,192,4610,12,0,8030
424,48,8457,5,0
352,176,8885,2,0,B|328:64|208:64,1,180
88,64,9740,1,0
48,120,9953,1,0
88,176,10167,2,0,B|208:192|152:320,1,180
224,344,10808,1,0
296,344,11022,2,0,B|360:344|360:344|360:264|360:264|416:256,1,180
464,136,11877,6,0,B|440:48,2,90
368,248,12732,5,0
312,112,13160,2,0,B|248:184,1,90
184,176,13587,2,0,B|80:176,2,90
184,248,14228,1,0
184,176,14442,1,0
184,104,14656,1,0
184,32,14870,2,0,B|80:32|32:128,1,180
88,192,15511,5,0
36,265,15725,2,0,B|80:352|184:352,1,180
232,304,16366,1,0
288,344,16580,2,0,B|376:344,1,90
448,344,17007,2,0,B|472:256|472:256|440:160,1,180
160,192,18290,5,0
208,248,18503,1,0
136,264,18717,1,0
160,192,18931,2,0,B|208:104,1,90
256,64,19358,1,0
296,120,19572,1,0
328,184,19786,2,0,B|328:272,1,90
400,272,20213,5,0
328,272,20427,1,0
272,320,20641,1,0
208,352,20855,2,0,B|96:352,1,90
48,352,21282,1,0
96,296,21496,1,0
48,240,21710,1,4
256,192,22137,12,4,22992
456,336,23420,6,0,B|352:336,1,90
56,336,23847,6,0,B|160:336,1,90
256,192,24275,5,2
456,48,24488,6,0,B|352:48,1,90
56,48,24916,6,0,B|160:48,1,90
256,192,25343,5,8
256,192,25450,1,8
256,192,25557,1,8
256,48,25771,5,0
256,344,25985,2,0,B|256:240,1,90
256,48,26412,2,0,B|256:136,2,90
168,48,27053,5,8
168,48,27160,1,8
168,48,27267,1,8
80,80,27481,2,0,B|32:128|96:168,1,90
136,224,27908,1,0
80,288,28122,2,0,B|32:336|96:376,1,90
160,320,28550,1,0
240,360,28763,6,0,B|240:272,1,90
328,264,29191,2,0,B|328:360,1,90
416,352,29618,1,8
416,304,29725,1,8
416,256,29832,1,8
480,192,30046,2,4,B|472:80|360:80,2,180
400,160,31115,5,0
328,216,31328,1,0
256,160,31542,1,0
184,216,31756,1,0
112,160,31970,2,0,B|152:112|104:72,1,90
40,128,32397,2,0,B|8:168|48:224,1,90
40,304,32825,5,0
72,272,32932,1,0
96,312,33038,1,0
184,328,33252,1,0
216,360,33359,1,0
240,320,33466,1,0
320,352,33680,2,8,B|432:344|376:216,1,180
456,176,34321,5,0
400,104,34535,1,0
320,64,34748,1,0
232,64,34962,1,0
144,64,35176,2,0,B|48:64,2,90
144,152,35817,1,0
144,240,36031,1,0
144,328,36245,5,8
416,192,36458,1,8
144,64,36672,1,8
416,192,36886,5,8
24,192,37100,2,4,B|112:192,1,90
208,192,37527,5,0
296,192,37741,1,0
224,248,37955,1,0
312,248,38168,1,0
256,176,38382,2,0,B|240:88,1,90
152,88,38810,5,0
152,88,38917,1,0
152,88,39023,1,0
72,136,39237,1,0
72,136,39344,1,0
72,136,39451,1,0
40,224,39665,1,0
40,224,39772,1,0
40,224,39878,1,0
40,312,40092,5,0
128,312,40306,1,0
128,224,40520,2,2,B|200:112|280:240,1,180
376,80,41375,5,0
424,160,41588,1,0
368,232,41802,1,0
328,248,41909,1,0
288,256,42016,1,0
240,256,42123,1,0
192,248,42230,1,0
192,336,42443,5,0
104,336,42657,2,0,B|16:336,1,90
16,248,43085,1,0
104,248,43298,2,0,B|104:152,1,90
104,64,43726,2,2,B|264:48|168:176|344:144,1,270
416,88,44581,5,0
416,176,44795,2,0,B|416:272,1,90
344,208,45222,1,0
344,296,45436,2,0,B|344:384,1,90
96,88,46505,5,0
96,176,46719,2,0,B|96:272,1,90
168,208,47146,1,0
168,296,47360,2,0,B|168:384,1,90
256,32,48001,5,8
256,32,48215,1,8
480,352,48642,1,8
480,352,48856,1,8
32,352,49284,1,8
32,352,49497,1,8
256,80,49925,5,8
416,296,50139,1,8
96,296,50352,1,8
256,80,50566,2,4,B|256:176,1,90
256,352,52062,5,0
256,336,52169,1,0
256,320,52276,1,0
256,304,52383,1,0
256,288,52490,1,0
256,272,52597,1,0
256,256,52704,1,0
256,240,52810,1,0
256,224,52917,5,0
256,208,53024,1,0
256,192,53131,1,0
256,176,53238,1,0
256,160,53345,1,0
256,144,53452,1,0
256,128,53559,1,0
256,112,53665,1,0
256,96,53772,1,12
256,352,54200,5,4
96,192,67025,5,0
256,296,67239,1,0
424,192,67452,1,0
256,88,67666,1,0
96,192,67880,1,0
456,192,68307,5,0
56,192,68735,1,0
256,24,69162,1,0
256,360,69590,1,0
392,24,70017,5,0
256,360,70445,1,0
128,24,70872,1,0
256,360,71193,1,4
256,360,71300,1,4
256,24,71727,5,0
128,360,72155,1,0
256,24,72582,1,0
392,360,73010,1,0
32,192,73437,5,0
480,64,73865,1,0
32,192,74292,1,0
480,320,74613,5,4
480,320,74720,1,4
424,248,74934,1,0
368,320,75147,1,0
312,248,75361,1,0
256,320,75575,1,0
200,248,75789,5,0
152,320,76002,1,0
104,248,76216,1,0
104,248,76323,1,4
104,248,76430,1,4
48,64,76644,5,0
104,128,76857,1,0
160,64,77071,1,0
224,128,77285,1,0
280,64,77499,5,0
336,128,77712,1,0
400,64,77926,1,0
464,128,78140,1,0
464,144,78247,1,0
464,160,78354,1,0
464,176,78461,1,0
464,192,78567,1,0
464,208,78674,1,0
464,224,78781,1,0
464,240,78888,1,0
464,256,78995,1,0
464,272,79102,1,0
464,288,79209,1,0
464,304,79316,1,0
456,320,79422,1,0
440,328,79529,1,0
424,328,79636,1,0
408,328,79743,1,0
392,328,79850,1,0
376,328,79957,5,0
360,328,80064,1,0
344,328,80171,1,0
328,328,80277,1,0
312,328,80384,1,0
296,328,80491,1,0
280,328,80598,1,0
264,328,80705,1,0
248,328,80812,1,0
232,328,80919,1,0
216,328,81026,1,0
200,328,81132,1,0
184,328,81239,1,0
168,328,81346,1,0
152,328,81453,1,0
136,328,81560,1,4
480,192,84339,5,8
32,192,84552,1,8
416,56,84980,6,0,B|352:120,1,90
96,56,85408,2,0,B|160:120,1,90
256,272,85835,1,2
256,272,85942,1,2
256,24,86263,6,0,B|256:216,1,180
184,360,87011,1,0
328,360,87224,1,2
328,360,87331,1,2
328,360,87438,1,2
328,360,87545,1,2
416,360,87759,6,0,B|416:312,1,45
472,240,88079,2,0,B|472:176|416:176,1,90
423,176,88400,1,0
424,88,88614,5,0
336,88,88828,2,8,B|256:16|160:96,1,180
96,128,89469,5,0
64,160,89576,1,0
96,192,89683,1,0
64,224,89789,1,0
96,256,89896,1,0
168,312,90110,5,0
256,344,90324,2,0,B|304:352|328:288,1,90
408,328,90751,2,8,B|504:240|400:176,1,180
464,104,91393,5,0
424,80,91499,1,0
384,64,91606,1,0
336,56,91713,1,0
288,56,91820,1,0
152,56,92141,6,0,B|208:64|200:120,1,90
168,152,92461,1,0
200,184,92568,2,0,B|200:248,1,45
200,320,92889,1,0
200,232,93103,5,0
376,232,93316,1,0
200,232,93530,1,0
320,96,93958,1,2
320,96,94064,1,2
456,96,94385,5,0
456,344,94599,1,0
456,96,94813,1,0
456,184,95026,1,0
368,184,95240,1,0
40,192,95668,6,0,B|40:272|40:272|128:336,1,180
208,328,96309,1,0
208,240,96523,1,0
208,152,96736,1,0
208,64,96950,5,0
224,64,97057,1,0
240,64,97164,1,0
256,64,97271,1,0
272,64,97378,1,0
288,64,97484,1,0
304,64,97591,1,0
320,64,97698,1,0
336,64,97805,1,0
456,64,98019,5,0
456,64,98126,1,0
456,64,98233,1,0
456,152,98446,1,0
456,240,98660,1,4
104,64,112768,6,0,B|104:248,1,180
408,64,113623,2,0,B|408:248,1,180
256,24,114478,2,0,B|256:72,12,45,0|0|0|0|0|0|0|0|0|0|0|0|12
256,352,116188,5,2
24,192,116615,1,2
256,24,117043,1,2
480,192,117470,1,2
80,192,117898,1,2
256,80,118325,1,2
416,192,118753,1,2
256,288,119180,2,2,B|256:104,1,180
256,352,119821,6,0,B|160:352,1,90,0|2
72,352,120249,1,0
72,264,120463,2,0,B|72:176,1,90,2|0
72,80,120890,1,2
144,136,121104,2,0,B|184:104|224:144,1,90,0|2
184,224,121531,2,0,B|208:288|272:256,1,90,0|2
312,328,121959,2,0,B|424:320|424:320|464:232|464:232|408:184,1,270,0|2
256,192,123028,5,2
32,32,123455,1,2
256,192,123883,1,2
480,32,124310,1,2
256,192,124738,1,2
480,360,125165,1,2
256,192,125593,1,2
32,360,126020,1,2
480,32,126662,5,2
392,32,126875,1,2
392,120,127089,2,2,B|392:184|336:184,1,90
280,120,127517,2,2,B|216:120|224:192,1,90
224,264,127944,1,2
224,352,128158,1,2
312,352,128372,1,2
400,352,128585,2,0,B|448:352,8,45
480,32,129868,6,2,B|288:32,1,180
32,360,130723,2,2,B|216:360,1,180
480,360,131578,2,2,B|288:360,1,180
32,32,132433,2,2,B|224:32,1,180
392,80,133288,5,2
392,304,133715,1,2
120,80,134143,5,2
120,304,134570,1,2
392,80,134998,5,2
392,304,135425,1,2
120,80,135853,5,2
120,304,136280,1,0
136,304,136387,1,0
152,304,136494,1,0
168,304,136601,1,0
184,304,136708,1,0
200,296,136815,1,0
216,280,136922,1,0
224,264,137028,1,0
224,248,137135,1,0
224,232,137242,1,0
224,216,137349,1,0
224,200,137456,1,0
232,184,137563,1,0
392,304,137990,5,0
376,304,138097,1,0
360,304,138204,1,0
344,304,138311,1,0
328,304,138418,1,0
312,296,138525,1,0
296,280,138632,1,0
288,264,138738,1,0
288,248,138845,1,0
288,232,138952,1,0
288,216,139059,1,0
288,200,139166,1,0
280,184,139273,1,0
248,24,139700,5,0
248,40,139807,1,0
248,56,139914,1,0
248,72,140021,1,0
248,88,140128,1,0
248,104,140235,1,0
248,120,140342,1,0
248,136,140448,1,0
248,152,140555,1,0
248,168,140662,1,0
248,184,140769,5,0
248,200,140876,1,0
248,216,140983,1,0
248,232,141090,1,0
248,248,141197,1,0
248,264,141303,1,0
248,280,141410,1,0
248,296,141517,1,0
248,312,141624,1,0
248,328,141731,5,0
248,344,141838,1,0
248,328,141945,1,0
248,312,142052,1,0
248,296,142158,1,0
248,280,142265,1,0
248,264,142372,1,0
248,248,142479,5,0
248,232,142586,1,0
248,216,142693,1,0
248,200,142800,1,0
248,184,142907,1,0
248,168,143013,1,0
248,152,143120,1,4
256,192,143334,12,4,144403
64,48,144830,6,0,B|160:48,1,90,8|0
152,136,145258,1,8
152,224,145472,2,0,B|56:224,1,90,0|8
56,312,145899,1,0
136,360,146113,1,8
216,312,146327,1,0
296,360,146540,1,8
376,312,146754,2,2,B|456:272|416:144,1,180
472,80,147395,5,8
472,80,147502,1,0
472,80,147609,1,0
392,32,147823,1,8
344,32,147930,1,0
296,32,148037,1,0
248,32,148144,1,0
208,32,148250,1,8
296,192,148678,6,0,B|192:192,1,90,8|0
112,192,149105,2,0,B|112:288,1,90,8|0
200,280,149533,1,8
288,280,149747,1,0
376,280,149960,1,8
288,280,150174,2,0,B|288:192,1,90,0|8
288,96,150602,1,0
376,96,150815,5,8
376,280,151243,1,8
376,96,151670,1,8
376,184,151884,2,0,B|280:184,1,90,0|8
286,184,152312,2,0,B|200:240,1,90,0|8
210,233,152739,2,0,B|184:336,1,90,0|8
96,320,153167,5,0
48,240,153380,1,8
96,160,153594,1,0
136,240,153808,1,8
96,320,154022,1,0
48,240,154235,1,8
96,160,154449,5,0
96,72,154663,1,8
184,72,154877,2,0,B|272:72,1,90,0|8
216,144,155304,2,0,B|304:144,1,90,0|8
256,224,155732,2,0,B|344:224,2,90,0|8|0
256,312,156373,5,8
328,360,156587,1,0
256,312,156800,1,8
184,360,157014,1,0
256,312,157228,1,8
256,224,157442,1,0
256,136,157655,1,8
256,48,157869,1,0
256,136,158083,5,8
208,136,158190,1,0
160,136,158297,1,0
112,136,158404,1,0
64,136,158510,1,8
64,320,158938,5,8
152,320,159152,1,0
200,248,159365,1,8
248,320,159579,1,0
336,320,159793,1,8
424,320,160007,2,0,B|472:272|416:240,1,90,0|8
336,248,160434,2,0,B|304:216|344:160,1,90,0|8
424,200,160862,2,0,B|456:160|416:112,1,90,0|8
376,40,161289,5,0
312,96,161503,1,8
280,72,161610,1,0
240,96,161717,1,0
200,72,161824,1,0
160,96,161930,1,8
88,40,162144,1,0
40,120,162358,6,0,B|40:208,1,90,8|0
120,176,162785,2,0,B|120:264,1,90,8|0
200,224,163213,2,0,B|200:312,1,90,8|0
288,312,163640,1,8
288,312,163854,1,0
376,344,164068,5,8
376,344,164282,1,0
440,280,164495,1,8
440,280,164709,1,0
352,248,164923,2,8,B|400:176|400:176|368:88,1,180
192,40,165778,6,0,B|96:40,1,90,8|0
102,40,166206,2,0,B|56:128,1,90,8|0
152,120,166633,1,8
152,208,166847,2,0,B|152:296,1,90,0|8
152,298,167274,2,0,B|240:320,1,90,0|8
232,232,167702,1,0
320,232,167916,5,8
320,144,168129,1,0
320,232,168343,1,8
320,320,168557,1,0
320,232,168771,1,8
408,232,168984,1,0
496,232,169198,1,8
448,160,169412,1,0
448,72,169626,2,0,B|352:72,1,90,8|0
264,72,170053,5,8
232,104,170160,1,0
200,136,170267,1,0
168,168,170374,1,0
136,200,170481,1,8
136,288,170694,5,0
136,288,170801,1,0
136,288,170908,1,8
200,352,171122,2,0,B|296:352,1,90,0|8
384,352,171549,1,0
384,264,171763,5,0
384,216,171870,1,0
384,168,171977,1,0
384,120,172084,1,0
384,72,172191,1,0
