osu file format v5

[General]
AudioFilename: 02 All I Ever Wanted.mp3
AudioLeadIn: 0
PreviewTime: -1
Countdown: 1
SampleSet: Normal
StackLeniency: 0.7
Mode: 0
LetterboxInBreaks: 1

[Metadata]
Title:All I Ever Wanted
Artist:Basshunter
Creator:stupinator
Version:Easy
Source:
Tags:Basshunter stupinator techno trance house

[Difficulty]
HPDrainRate:5
CircleSize:5
OverallDifficulty:5
SliderMultiplier:1.1
SliderTickRate:1

[Events]
//Background and Video events
//Break Periods
//Storyboard Layer 0 (Background)
//Storyboard Layer 1 (Failing)
//Storyboard Layer 2 (Passing)
//Storyboard Layer 3 (Foreground)
//Storyboard Sound Samples
//Background Colour Transformations
3,100,163,162,255

[TimingPoints]
2797.16216216216,413.793103448276,4,1,0,100,1
2797.16216216216,-100,4,1,0,100,0

[HitObjects]
80,64,2797,1,0
256,64,3624,1,0
400,64,4452,1,0
400,192,5279,5,0
256,192,9417,5,0
112,192,10245,1,0
112,320,11073,1,0
256,320,11900,1,0
256,192,13141,12,0,16038
64,192,17693,5,0
144,192,18107,2,0,B,1,110
256,192,19348,1,0
352,192,19762,1,0
448,192,20176,1,0
368,304,21004,1,0
272,304,21417,1,0
176,304,21831,1,0
80,192,22659,5,0
176,192,23073,1,0
272,192,23486,1,0
96,64,24314,2,0,B|208:64|272:192,1,330
432,48,25969,2,0,B|320:96|256:208,1,330
256,192,27624,5,0
256,192,28452,1,0
256,192,29279,1,0
320,192,29693,1,0
384,192,30107,1,0
320,192,30521,1,0
256,192,30935,1,0
112,80,31762,5,0
160,80,32176,1,0
192,80,32590,1,0
224,80,33004,1,0
256,80,33417,1,0
288,80,33831,1,0
112,192,35073,6,0,B,1,110
256,192,36728,2,0,B|368:192,1,110
256,192,38383,6,0,B|144:192,1,110
96,192,40038,2,0,B,1,110
256,192,41693,2,0,B|368:192,1,110
384,192,42521,1,0
320,192,42935,1,0
256,192,43348,1,0
256,192,45004,12,0,47073
256,192,48314,12,0,51210
256,192,53279,5,0
336,192,54107,1,0
176,192,54935,1,0
256,192,55762,1,0
256,112,56590,1,0
256,272,57417,1,0
256,192,58245,1,0
256,192,59073,5,0
256,112,59900,1,0
336,192,60728,1,0
192,192,61555,1,0
256,256,62383,1,0
256,192,63210,2,0,B|368:192,1,110
256,192,64866,2,0,B|144:192,1,110
256,192,66521,5,0
256,256,67348,1,0
320,192,68176,1,0
256,112,69004,1,0
176,192,69831,1,0
256,192,70659,6,0,B|368:192,1,220
256,192,72314,2,0,B|144:192,1,220
256,192,73969,2,0,B|368:192,1,220
256,192,75624,2,0,B|144:192|112:368,1,220
256,192,77279,5,0
320,192,78107,1,0
256,128,78935,1,0
256,256,79762,1,0
256,192,82245,2,0,B|368:192|256:64|144:128|208:320,1,330
256,192,84314,2,0,B|144:192|288:112|304:128|304:256|96:304|96:320,1,330
256,192,86383,5,0
320,192,87210,1,0
256,128,88038,1,0
256,256,88866,1,0
192,192,89693,1,0
256,192,90521,5,0
320,192,91348,1,0
256,128,92176,1,0
256,256,93004,1,0
192,192,93831,1,0
256,192,94659,5,0
256,192,96314,2,0,B|256:80,1,110
256,192,97969,2,0,B|256:304,1,110
256,192,99624,2,0,B|368:192,1,110
256,192,101279,2,0,B|144:192,1,110
256,192,102935,5,0
256,192,104176,1,0
256,192,104590,1,0
256,192,105831,1,0
256,192,106245,1,0
256,192,107486,5,0
256,192,107900,1,0
256,192,109555,12,0,111210
256,192,112038,5,0
320,192,112452,1,0
384,192,112866,1,0
256,192,113693,5,0
192,192,114107,1,0
128,192,114521,1,0
256,192,115348,5,0
256,128,115762,1,0
256,64,116176,1,0
256,192,117004,5,0
256,256,117417,1,0
256,320,117831,1,0
256,192,118659,6,0,B|256:80|80:80|80:304|352:304|352:80,1,440
256,192,121141,5,0
256,192,121969,1,0
288,192,122383,1,0
320,192,122797,1,0
256,192,124452,6,0,B|256:304,1,110
256,192,126107,6,0,B|368:192,1,110
256,192,127762,2,0,B|256:80,1,110
256,192,129417,6,0,B|144:192,1,110
256,192,131073,5,0
288,192,131486,1,0
256,192,132728,5,0
256,160,133141,1,0
256,192,134383,1,0
224,192,134797,1,0
256,192,135624,5,0
256,224,136038,1,0
256,192,137279,12,0,144314
256,192,145969,5,0
320,192,146797,1,0
256,128,147624,1,0
192,192,148452,1,0
256,256,149279,1,0
256,192,150107,5,0
320,192,150935,1,0
256,128,151762,1,0
192,192,152590,1,0
256,256,153417,1,0
256,192,154245,2,0,B|144:192,1,110
112,192,155073,5,0
112,192,155900,6,0,B,1,110
112,96,156728,5,0
112,96,157555,6,0,B|224:96,1,110
256,192,159210,5,0
256,192,160038,1,0
256,192,160866,1,0
256,192,161279,1,0
320,192,161693,5,0
320,192,162521,1,0
320,192,163348,1,0
320,192,164176,1,0
320,192,164590,1,0
256,112,165831,5,0
256,112,166245,1,0
256,192,167486,5,0
256,224,167900,1,0
256,192,169141,5,0
224,192,169555,1,0
256,192,170383,5,0
256,192,171624,1,0
288,192,172038,1,0
320,192,172452,1,0
352,192,172866,1,0
