osu file format v5

[General]
AudioFilename: Wodko ma (Bass Boosters Booty mix).mp3
AudioLeadIn: 0
PreviewTime: -1
Countdown: 1
SampleSet: Normal
StackLeniency: 0.7
Mode: 0
LetterboxInBreaks: 1

[Metadata]
Title:Wodko ma (Bass Boosters Booty mix)
Artist:Bass Boosters
Creator:SeymourLyon
Version:Easy
Source:Wodko ma
Tags:Wodko Bass Boosters

[Difficulty]
HPDrainRate:4
CircleSize:4
OverallDifficulty:4
SliderMultiplier:1.4
SliderTickRate:1

[Events]
//Background and Video events
1,7890,"get_video2 (1).avi"
//Break Periods
2,46242,55594
//Storyboard Layer 0 (Background)
//Storyboard Layer 1 (Failing)
//Storyboard Layer 2 (Passing)
//Storyboard Layer 3 (Foreground)
//Storyboard Sound Samples
//Background Colour Transformations
3,100,163,162,255

[TimingPoints]
1764,434.783122780443,4,1,0,54,1

[HitObjects]
256,192,1745,1,0
320,192,2198,1,0
384,192,2633,1,0
384,128,3068,1,0
320,128,3503,1,0
448,64,5242,6,0,L|0:64|32:128,2,420
448,160,8285,2,0,L|448:320|448:320|384:320,3,140
320,288,10459,2,0,L|320:128|256:128,3,140
256,160,12198,5,0
160,160,12633,1,0
64,160,13068,1,0
64,256,13503,1,0
160,256,13937,1,0
256,64,15242,6,0,L|256:224|288:224,1,140
256,288,16111,1,0
352,288,16546,1,0
448,288,16981,1,0
448,192,17416,1,0
352,192,17850,1,0
256,192,18285,1,0
160,192,18720,1,0
64,192,19155,1,0
64,96,19590,1,0
160,96,20024,1,0
256,96,20459,1,0
352,96,20894,1,0
448,96,21329,1,0
352,192,22198,5,0
256,256,22633,1,0
160,192,23068,1,0
256,128,23503,1,0
352,64,23937,1,0
256,32,24372,1,0
160,64,24807,1,0
256,128,25242,1,0
256,224,25677,1,0
256,320,26111,1,0
320,224,26546,1,0
192,224,26981,1,0
352,128,27416,6,0,L|64:128|64:160,1,280
64,224,28720,1,0
128,224,29155,1,0
192,224,29590,1,0
352,224,30894,1,0
352,288,31329,1,0
256,320,32633,6,0,L|256:160|224:160,1,140
192,192,33503,6,0,L|192:32|256:32,1,140
288,64,34372,6,0,L|448:64|448:128,2,140
320,64,36111,5,0
256,128,36546,1,0
192,192,36981,1,0
128,256,37416,1,0
256,256,37850,1,0
256,160,38285,1,0
256,64,38720,1,0
352,64,39155,1,0
352,160,39590,1,0
352,256,40024,1,0
256,256,40459,1,0
160,256,40894,1,0
64,160,41329,1,0
160,160,41764,2,0,L|320:160|320:224,1,140
256,192,43068,12,0,46112
160,96,56981,6,0,L|320:96|320:224|160:224|160:224|160:288,1,420
96,224,58720,1,0
96,224,59155,1,0
160,288,60459,5,0
256,192,60894,1,0
160,96,61329,1,0
256,96,61764,1,0
352,96,62198,1,0
256,192,62633,1,0
256,288,63937,5,0
192,224,64372,5,0
256,160,64807,5,0
320,224,65242,5,0
256,288,66111,5,0
192,224,66546,5,0
256,160,66981,5,0
320,224,67416,5,0
320,128,67851,1,0
416,128,68285,1,0
416,224,68720,1,0
320,224,69155,6,0,L|160:224|160:288,1,140
256,64,70894,6,0,L|256:224|288:224,1,140
256,288,71764,1,0
352,288,72198,1,0
448,288,72633,1,0
448,192,73068,1,0
352,192,73503,1,0
256,192,73937,1,0
160,192,74372,1,0
64,192,74807,1,0
64,96,75242,1,0
160,96,75677,1,0
256,96,76111,1,0
352,96,76546,1,0
448,96,76981,1,0
256,192,77851,12,0,83504
