osu file format v5

[General]
AudioFilename: Magnificent Romeo - Basement Clash.mp3
AudioLeadIn: 0
PreviewTime: -1
Countdown: 0
SampleSet: Soft
StackLeniency: 0.7
Mode: 0
EditorBookmarks: 13698,63761,63802,87592,94608,102592,105225,107310,119863

[Metadata]
Title:Magnificent Romeo
Artist:Basement Jaxx VS The Clash
Creator:numbers
Version:Normal

[Difficulty]
HPDrainRate:6
CircleSize:4
OverallDifficulty:6
SliderMultiplier:1.3
SliderTickRate:3

[Events]
//Background and Video events
0,0,"bg.jpg"
//Break Periods
2,61781,62804
2,92630,93650
2,100373,101392
//Storyboard Layer 0 (Background)
//Storyboard Layer 1 (Failing)
//Storyboard Layer 2 (Passing)
//Storyboard Layer 3 (Foreground)
//Storyboard Sound Samples
//Background Colour Transformations
3,100,163,162,255

[TimingPoints]
1844,483.870967741935,4,2,0,100
21248,483.870967741935,4,2,0,100
25138,483.870967741935,4,2,0,100
31020,483.870967741935,4,2,0,100
63976,483.870967741935,4,2,0,100

[HitObjects]
256,192,1843,5,0
256,192,2327,1,0
256,192,2811,1,0
256,192,3295,1,4
352,96,3779,5,0
352,160,4021,1,0
352,224,4263,1,0
224,224,4747,1,0
224,96,5231,1,2
96,96,5714,5,0
96,224,6198,1,0
224,224,6682,1,0
224,96,7166,1,4
352,96,7650,5,0
352,160,7892,1,0
352,224,8134,1,0
480,224,8618,1,0
480,96,9102,1,2
352,96,9585,5,0
224,96,10069,1,0
96,96,10553,1,0
96,224,11037,1,4
96,96,11521,5,0
160,96,11763,1,0
224,96,12005,1,0
224,224,12489,1,2
96,224,12973,1,2
96,96,13456,2,0,C|432:96,1,325
416,288,15392,5,0
288,288,15876,1,0
160,288,16360,1,0
160,160,16843,1,4
288,160,17327,5,0
352,160,17569,1,0
416,160,17811,1,0
288,160,18295,1,0
416,160,18779,1,2
416,80,19263,6,0,C|16:80,1,390
32,224,21248,5,0
160,224,21731,1,0
288,224,22215,1,0
288,96,22699,1,4
288,224,23183,5,0
352,224,23425,1,0
416,224,23667,1,0
288,224,24151,1,0
288,96,24635,1,0
160,96,25138,5,0
32,96,25621,1,0
32,224,26105,1,0
160,224,26589,1,2
160,96,27073,5,0
224,96,27315,1,0
288,96,27557,1,0
288,224,28041,1,0
160,224,28525,1,2
48,288,29008,6,4,C|448:288,1,390
288,240,31020,5,0
160,240,31503,1,0
160,112,31987,1,4
288,112,32471,1,4
416,112,32955,5,0
416,176,33197,1,0
416,112,33439,1,0
288,112,33923,1,4
160,112,34407,1,2
160,240,34890,5,0
224,240,35132,1,0
288,240,35374,1,0
288,112,35858,1,4
160,112,36342,1,2
48,176,36826,6,0,C|448:176,1,390
400,240,38761,5,0
272,240,39245,1,4
208,240,39487,1,4
144,240,39729,1,4
144,112,40213,1,0
272,112,40697,1,0
400,112,41181,5,0
400,176,41423,1,0
400,240,41665,1,0
272,240,42149,1,0
144,240,42632,1,0
144,112,43116,5,0
144,48,43358,1,4
144,112,43600,1,4
144,240,44084,6,0,C|528:144,1,390
384,144,46020,5,0
256,144,46503,1,0
256,272,46987,1,2
128,272,47471,1,6
128,144,47955,5,6
256,144,48439,1,0
256,272,48923,1,4
384,272,49407,1,4
384,144,49890,5,0
320,144,50132,1,0
256,144,50374,1,0
128,144,50858,1,0
128,272,51342,1,2
256,272,51826,5,0
320,272,52068,1,0
384,272,52310,1,0
256,272,52794,1,0
128,272,53278,1,4
128,144,53761,5,0
192,144,54003,1,0
256,144,54245,1,0
384,144,54729,5,2
384,272,55213,1,2
256,272,55697,1,0
128,272,56181,1,0
128,144,56665,5,0
192,144,56907,1,0
256,144,57149,1,0
384,144,57632,1,0
384,272,58116,1,0
256,272,58600,5,0
192,272,58842,1,0
128,272,59084,1,0
128,144,59568,5,0
256,144,60052,1,0
384,144,60536,1,0
384,80,60778,1,0
384,16,61020,1,4
256,16,61503,1,4
464,32,63976,5,0
352,32,64459,1,0
224,32,64943,1,0
96,32,65427,1,0
96,160,65911,5,0
224,160,66395,1,0
224,288,66879,1,0
352,288,67363,1,0
352,160,67846,5,0
224,160,68330,1,0
224,32,68814,1,0
352,32,69298,1,0
480,32,69782,5,0
480,96,70024,1,0
480,160,70266,1,0
480,288,70750,1,0
352,288,71234,1,2
224,288,71717,5,2
224,160,72201,1,0
352,160,72685,1,0
480,160,73169,1,0
480,32,73653,5,0
416,32,73895,1,0
352,32,74137,1,0
224,32,74621,1,0
96,32,75105,1,2
96,160,75588,5,0
96,224,75830,1,0
96,288,76072,1,0
224,288,76556,1,0
224,160,77040,1,2
352,160,77524,5,0
352,288,78008,1,0
352,160,78492,1,0
224,160,78976,1,0
96,160,79459,5,0
96,96,79701,1,0
96,32,79943,1,0
224,32,80427,1,0
224,160,80911,1,2
352,160,81395,5,0
352,32,81879,1,0
480,32,82363,1,0
480,160,82846,1,0
480,288,83330,5,0
352,288,83814,1,0
224,288,84298,1,0
96,288,84782,1,0
96,160,85266,1,0
224,160,85750,1,0
352,160,86234,1,0
352,288,86717,2,0,C|208:288,1,130
224,160,87685,5,0
352,160,88169,5,0
352,96,88411,1,0
352,32,88653,1,0
352,160,89137,1,0
352,32,89621,1,2
224,32,90105,5,4
224,160,90588,5,0
288,160,90830,1,0
352,160,91072,1,0
224,160,91556,1,0
224,32,92040,1,2
352,32,92524,5,2
224,96,94943,5,0
352,112,95427,5,0
352,176,95669,1,0
352,240,95911,1,0
352,112,96395,1,0
224,112,96879,1,2
224,240,97363,5,0
96,240,97846,1,0
96,112,98330,1,0
224,112,98814,5,0
288,112,99056,1,0
352,112,99298,1,0
224,112,99782,1,0
96,112,100266,1,2
256,192,102685,5,0
256,192,103169,12,0,105105
176,176,105588,1,0
176,48,106072,1,0
304,48,106556,1,0
304,176,107040,1,0
432,176,107524,5,0
432,304,108008,1,0
304,304,108492,1,0
176,304,108976,1,0
48,304,109459,5,0
48,240,109701,1,0
48,176,109943,1,0
48,48,110427,1,0
176,48,110911,1,0
304,48,111395,5,0
432,48,111879,1,0
432,176,112363,1,0
432,304,112846,1,0
304,304,113330,5,0
304,240,113572,1,0
304,176,113814,1,0
176,176,114298,1,0
176,304,114782,1,0
48,304,115266,5,0
48,240,115508,1,0
48,176,115750,1,0
176,304,116234,1,0
176,304,116718,1,0
304,304,117201,5,0
304,304,117443,1,0
304,304,117685,1,0
304,304,118169,1,0
304,304,118653,1,0
256,192,119137,12,0,119621
