osu file format v5

[General]
AudioFilename: Magnificent Romeo - Basement Clash.mp3
AudioLeadIn: 0
PreviewTime: -1
Countdown: 0
SampleSet: Normal
StackLeniency: 0.7
Mode: 0
EditorBookmarks: 43358,63318

[Metadata]
Title:Magnificent Romeo
Artist:Basement Jaxx VS The Clash
Creator:numbers
Version:Easy

[Difficulty]
HPDrainRate:3
CircleSize:3
OverallDifficulty:1
SliderMultiplier:1.3
SliderTickRate:3

[Events]
//Background and Video events
0,0,"bg.jpg"
//Break Periods
2,9302,9961
2,42349,42524
2,61781,62804
2,88368,88425
2,92630,93650
2,100373,101392
//Storyboard Layer 0 (Background)
//Storyboard Layer 1 (Failing)
//Storyboard Layer 2 (Passing)
//Storyboard Layer 3 (Foreground)
//Storyboard Sound Samples
//Background Colour Transformations
3,100,163,162,255

[TimingPoints]
1844,483.870967741935,4,1,0,100
21248,483.870967741935,4,1,0,100
25138,483.870967741935,4,1,0,100
31020,483.870967741935,4,1,0,100
63976,483.870967741935,4,1,0,100

[HitObjects]
48,336,1843,5,0
304,336,2811,1,0
304,80,3779,5,0
48,80,4747,1,0
48,336,5714,5,0
304,336,6682,1,0
304,80,7650,5,0
176,80,8134,1,0
48,80,8618,1,0
48,208,9102,1,2
48,336,11521,5,0
48,80,12489,1,2
176,208,13456,2,0,C|336:208,3,130
432,208,15392,5,0
304,336,16360,1,0
176,208,17327,1,4
48,336,18295,1,4
48,80,19263,6,0,C|208:80,3,130
320,80,21248,5,0
320,336,22215,1,0
64,336,23183,1,0
64,80,24151,1,4
336,80,25138,5,0
336,208,25621,1,0
336,336,26105,1,0
464,336,26589,1,2
464,208,27073,5,0
208,208,28041,1,0
80,208,28525,1,2
80,336,29008,6,4,C|224:336,3,130
352,336,31020,5,0
352,208,31503,1,0
352,80,31987,1,4
224,80,32471,1,4
96,80,32955,5,0
96,336,33923,1,4
352,336,34890,5,0
352,80,35858,1,4
224,80,36342,1,2
224,208,36826,6,0,C|64:208,3,130
96,336,38761,5,0
224,336,39245,1,4
352,336,39729,1,4
480,336,40213,1,0
480,208,40697,5,0
352,208,41181,1,0
224,208,41665,1,0
96,208,42149,1,0
48,336,44084,6,0,L|48:240,4,65
176,336,46503,5,0
432,336,47471,1,6
432,80,48439,1,0
176,80,49407,1,4
48,80,49890,5,0
48,208,50374,1,0
48,336,50858,1,0
176,336,51342,1,2
304,336,51826,5,0
368,336,52068,1,0
432,336,52310,1,0
432,208,52794,1,0
432,80,53278,1,4
304,80,53761,5,0
240,80,54003,1,0
176,80,54245,1,0
48,80,54729,5,2
48,208,55213,1,2
48,336,55697,1,0
176,336,56181,1,0
304,336,56665,5,0
432,336,57149,1,0
432,208,57632,1,0
432,80,58116,1,4
304,80,58600,5,0
176,80,59084,1,0
48,80,59568,1,0
48,208,60052,1,0
48,336,60536,5,0
256,192,61503,1,4
464,352,63976,5,0
208,352,64943,1,0
208,96,65911,1,0
464,96,66879,1,0
464,352,67846,5,0
336,352,68330,1,0
224,352,68814,1,0
96,352,69298,1,0
96,224,69782,5,0
224,224,70266,1,0
352,224,70750,1,0
480,224,71234,1,2
480,96,71717,5,2
352,96,72201,1,0
224,96,72685,1,0
96,96,73169,1,0
96,224,73653,5,0
224,224,74137,1,0
352,224,74621,1,0
480,224,75105,1,2
480,352,75588,5,0
352,352,76072,1,0
224,352,76556,1,0
96,336,77040,1,2
96,208,77524,5,0
96,80,78008,1,0
352,80,78976,1,0
352,336,79943,1,0
224,336,80427,5,0
480,336,81395,1,0
480,80,82363,1,0
224,80,83330,1,4
96,80,83814,5,0
96,208,84298,1,0
96,336,84782,1,0
224,336,85266,1,4
352,336,85750,5,0
480,336,86234,1,0
480,208,86717,2,0,C|336:208,3,130
32,192,90105,5,4
288,192,91072,5,0
160,192,92040,5,2
48,336,94943,5,0
176,336,95427,5,0
304,336,95911,1,0
432,336,96395,1,0
432,208,96879,1,2
304,208,97363,5,0
176,208,97846,1,0
48,208,98330,1,0
48,80,98814,5,0
112,80,99056,1,0
176,80,99298,1,0
304,80,99782,1,0
432,80,100266,1,2
256,192,102201,5,0
256,192,103169,12,0,105105
176,208,105588,1,0
176,336,106072,1,0
304,336,106556,1,0
304,208,107040,1,0
432,208,107524,5,0
432,80,108008,1,0
304,80,108492,1,0
176,80,108976,1,0
48,80,109459,5,0
48,144,109701,1,0
48,208,109943,1,0
48,336,110427,1,0
176,336,110911,1,0
304,336,111395,5,0
432,336,111879,1,0
432,208,112363,1,0
432,80,112846,1,0
304,80,113330,5,0
304,144,113572,1,0
304,208,113814,1,0
176,208,114298,1,0
176,80,114782,1,0
48,80,115266,5,0
48,144,115508,1,0
48,208,115750,1,0
48,336,116234,1,0
176,336,116718,1,0
304,336,117201,5,0
368,336,117443,1,0
432,336,117685,1,0
432,208,118169,1,0
432,80,118653,1,0
256,192,119137,12,0,119621
