osu file format v9

[General]
AudioFilename: Stairway Generation.mp3
AudioLeadIn: 1500
PreviewTime: 52629
Countdown: 0
SampleSet: Normal
StackLeniency: 0.7
Mode: 1
LetterboxInBreaks: 1

[Editor]
DistanceSpacing: 0.8
BeatDivisor: 4
GridSize: 8

[Metadata]
Title:Stairway Generation (TV Size)
Artist:Base Ball Bear
Creator:arien666
Version:lepidon! - Taiko Inner Oni
Source:Gintama
Tags:taiko taikosu op7 silver soul arken1015 lepidon lepidopodus BBB

[Difficulty]
HPDrainRate:5
CircleSize:5
OverallDifficulty:5
ApproachRate:5
SliderMultiplier:1.4
SliderTickRate:1

[Events]
//Background and Video events
0,0,"stairway album.jpg"
Video,0,"Endless Stairway.avi"
//Break Periods
//Storyboard Layer 0 (Background)
//Storyboard Layer 1 (Fail)
//Storyboard Layer 2 (Pass)
//Storyboard Layer 3 (Foreground)
//Storyboard Sound Samples
//Background Colour Transformations
3,100,163,162,255

[TimingPoints]
855,392.156862745098,4,1,0,80,1,0
52619,-100,4,1,0,80,0,1
79286,-100,4,1,0,80,0,0
83600,392.156862745098,4,1,0,80,1,0

[Colours]
Combo1 : 112,196,193
Combo2 : 243,89,34

[HitObjects]
256,192,5168,1,12
208,96,5560,1,0
232,112,5658,1,0
256,120,5756,1,0
288,168,5953,1,0
304,192,6051,1,0
312,216,6149,1,0
328,272,6345,1,0
304,288,6443,1,0
280,296,6541,1,0
288,272,6639,1,0
224,288,6737,1,8
200,288,6835,1,8
176,280,6933,1,8
160,224,7129,5,4
168,168,7325,1,0
192,168,7423,1,0
216,168,7521,1,8
272,168,7717,1,0
328,176,7913,1,8
352,184,8011,1,8
360,256,8207,1,0
360,200,8404,1,0
408,184,8502,1,8
368,144,8698,1,0
360,256,8894,1,0
336,264,8992,1,0
320,240,9090,1,8
384,152,9482,1,0
384,176,9580,1,0
360,72,9776,1,8
400,144,10070,1,0
384,168,10168,1,0
360,184,10266,1,0
312,208,10462,1,0
288,224,10560,1,0
264,216,10658,1,8
344,296,11051,1,8
344,320,11149,1,8
344,296,11345,1,0
376,248,11443,1,0
392,224,11541,1,0
400,144,11639,1,8
344,152,11835,1,4
264,184,12129,1,4
264,184,12423,1,4
264,184,12619,1,4
320,240,12913,1,12
384,288,13207,1,12
376,232,13404,5,4
288,160,13796,1,8
320,240,13992,1,0
408,168,14384,1,0
424,112,14580,1,8
416,168,14776,1,0
408,192,14874,1,0
392,216,14972,1,0
304,144,15364,1,8
328,192,15560,1,0
296,304,15953,1,0
312,248,16149,1,8
328,224,16247,1,8
344,200,16345,1,8
384,240,16541,1,0
328,256,16933,1,8
368,216,17129,1,0
368,328,17521,1,0
384,272,17717,1,8
368,216,17913,1,0
368,240,18011,1,0
384,272,18109,1,0
304,240,18404,1,0
416,160,18502,1,8
368,184,18698,1,0
368,184,18796,1,0
368,216,18894,1,0
328,256,19090,1,0
304,272,19188,1,0
288,248,19286,1,8
336,216,19482,1,0
200,184,19874,5,0
224,184,20070,1,8
328,232,20462,1,0
368,128,20855,1,8
392,184,21051,1,0
392,208,21149,1,0
384,232,21247,1,0
416,120,21639,1,8
392,168,21835,1,0
312,240,22227,1,0
352,200,22423,1,8
328,152,22619,1,0
336,176,22717,1,0
344,200,22815,1,0
384,272,23109,1,0
392,168,23207,1,8
424,208,23404,1,0
376,240,23600,1,0
352,256,23698,1,0
328,264,23796,1,0
344,208,23992,1,8
288,192,24188,1,0
264,192,24286,1,0
240,192,24384,1,0
312,144,24678,1,0
336,144,24776,1,8
344,256,25168,1,8
352,256,25266,1,8
328,264,25364,1,8
304,272,25462,1,8
296,248,25560,1,0
328,208,25756,1,8
376,176,25953,5,0
320,176,26149,1,8
296,176,26247,1,8
320,168,26345,1,8
344,216,26541,1,0
384,256,26737,1,8
392,280,26835,1,8
416,288,26933,1,8
416,232,27129,1,0
392,184,27325,1,8
344,216,27423,1,8
344,152,27521,1,8
264,152,27815,1,8
280,176,27913,1,0
336,184,28109,1,8
392,280,28305,1,0
368,288,28404,1,0
344,296,28502,1,0
320,288,28600,1,0
328,264,28698,1,8
360,152,29090,1,0
408,184,29286,1,8
416,208,29384,1,8
408,232,29482,1,8
464,232,29678,1,0
360,152,29874,1,8
344,176,29972,1,8
320,192,30070,1,8
264,184,30266,1,0
312,160,30462,1,0
336,152,30560,1,0
360,160,30658,1,8
392,112,30855,1,8
416,120,30953,1,8
424,144,31051,1,0
376,240,31443,1,0
360,264,31541,1,0
384,248,31639,1,8
424,208,31835,1,0
376,240,32031,1,0
352,240,32129,1,0
328,240,32227,5,0
296,192,32423,1,8
304,168,32521,1,8
320,144,32619,1,8
376,152,32815,1,0
360,264,33011,1,8
360,288,33109,1,8
336,296,33207,1,8
368,248,33404,1,0
400,200,33600,1,8
400,224,33698,1,8
392,248,33796,1,0
336,256,33992,1,0
312,256,34090,1,0
328,232,34188,1,8
368,192,34384,1,0
384,168,34482,1,0
400,144,34580,1,0
400,200,34776,1,0
432,248,34972,1,8
352,168,35364,1,0
384,168,35560,1,8
392,192,35658,1,8
400,200,35756,1,8
440,160,35953,1,0
384,176,36149,1,8
368,200,36247,1,8
360,224,36345,1,8
360,168,36541,1,0
248,168,36933,1,0
304,152,37129,1,8
328,152,37227,1,8
360,168,37325,1,0
360,168,37423,1,0
368,200,37521,1,0
448,264,37717,1,0
424,264,37815,1,0
400,264,37913,1,0
376,264,38011,1,0
368,240,38109,1,8
344,224,38207,1,8
320,216,38305,1,8
296,168,38502,5,4
376,88,38894,1,8
392,144,39090,1,0
360,192,39286,1,0
312,216,39482,1,0
352,176,39678,1,8
392,216,39874,1,0
392,240,39972,1,0
392,264,40070,1,0
336,256,40266,1,0
344,200,40462,1,8
352,144,40658,1,0
400,176,40855,1,0
408,232,41051,1,0
400,176,41247,1,8
344,200,41345,1,8
336,256,41443,1,0
232,224,41835,1,0
272,184,42031,1,8
304,136,42227,1,0
328,128,42325,1,0
352,120,42423,1,0
408,136,42619,1,0
456,168,42815,1,8
416,208,43011,1,0
392,224,43109,1,0
368,240,43207,1,0
312,248,43404,1,0
264,224,43600,1,8
320,128,43992,1,0
312,152,44090,1,0
336,168,44188,1,0
360,168,44286,1,0
456,168,44384,1,8
424,216,44580,1,0
408,240,44678,1,0
392,256,44776,5,0
384,144,45168,1,8
344,184,45364,1,0
336,208,45462,1,0
296,216,45560,1,0
240,232,45756,1,0
288,200,45953,1,8
344,184,46149,1,0
352,240,46345,1,0
336,216,46443,1,0
376,288,46541,1,0
392,288,46737,1,8
392,232,46933,1,0
392,176,47129,1,8
392,152,47227,1,8
392,152,47325,1,8
336,160,47521,1,0
376,200,47717,1,8
352,208,47815,1,8
376,224,47913,1,0
336,264,48109,1,0
392,232,48305,1,8
336,224,48502,1,0
312,216,48600,1,0
288,216,48698,1,0
232,232,48894,1,0
272,192,49090,1,8
376,224,49482,1,0
400,272,49678,1,0
400,216,49874,1,8
368,176,50070,1,0
368,176,50168,1,0
344,176,50266,1,0
288,200,50462,1,0
328,160,50658,1,8
352,168,50756,1,8
384,168,50854,1,0
400,216,51051,1,4
304,272,51639,1,4
384,168,52227,1,12
272,184,52619,5,0
323,207,52815,1,8
348,220,52913,1,8
361,245,53011,1,0
416,264,53207,1,8
272,240,53404,1,0
248,240,53502,1,0
224,240,53600,1,0
272,208,53796,1,8
328,216,53992,1,0
336,240,54090,1,0
344,200,54188,1,0
384,232,54384,1,0
440,232,54580,1,8
408,280,54776,1,0
384,296,54874,1,0
360,304,54972,1,0
352,248,55168,1,8
296,232,55364,1,0
280,176,55560,1,8
280,152,55658,1,8
308,148,55756,1,0
224,138,56051,1,0
252,141,56149,1,8
301,169,56345,1,0
323,187,56443,1,0
344,206,56541,1,0
377,251,56737,1,0
386,196,56933,1,8
425,236,57129,1,0
404,255,57227,1,0
404,227,57325,1,8
404,199,57423,1,8
404,199,57521,1,8
367,241,57717,1,8
343,255,57913,1,8
316,262,58011,1,8
289,270,58109,1,8
232,280,58305,1,8
280,256,58502,1,8
216,160,58894,5,0
296,152,59188,1,0
320,152,59286,1,8
360,192,59482,1,0
432,280,59874,1,8
384,256,60070,1,0
360,256,60168,1,0
296,152,60266,1,8
352,160,60462,1,0
432,128,60756,1,8
424,152,60854,1,0
424,208,61051,1,8
432,280,61443,1,0
408,288,61541,1,0
384,272,61639,1,8
336,248,61835,1,8
288,216,62031,1,4
384,160,62423,1,12
440,160,62619,1,4
272,168,63011,1,12
216,104,63404,1,0
192,120,63502,1,0
168,136,63600,1,0
224,152,63796,1,8
248,160,63894,1,8
272,176,63992,1,0
296,224,64188,1,0
352,208,64384,1,8
376,200,64482,1,8
392,224,64580,1,0
400,248,64678,1,0
392,272,64776,1,0
368,280,64874,1,0
344,288,64972,1,0
272,184,65168,5,0
323,207,65364,1,8
348,220,65462,1,8
361,245,65560,1,0
416,264,65756,1,8
272,240,65953,1,0
248,240,66051,1,0
224,240,66149,1,0
272,208,66345,1,8
328,216,66541,1,0
336,240,66639,1,0
344,200,66737,1,0
384,232,66933,1,0
440,232,67129,1,8
408,280,67325,1,0
384,296,67423,1,0
360,304,67521,1,0
352,248,67717,1,8
296,232,67913,1,0
280,176,68109,1,8
280,152,68207,1,8
308,148,68305,1,0
224,138,68600,1,0
252,141,68698,1,8
301,169,68894,1,0
323,187,68992,1,0
344,206,69090,1,0
377,251,69286,1,0
386,196,69482,1,8
425,236,69678,1,0
404,255,69776,1,0
404,227,69874,1,8
404,199,69972,1,8
404,199,70070,1,8
367,241,70266,1,8
343,255,70462,1,8
316,262,70560,1,8
289,270,70658,1,8
232,280,70756,1,8
256,264,70854,1,8
280,256,71051,1,8
216,168,71443,5,0
296,160,71737,1,0
320,160,71835,1,8
360,200,72031,1,0
336,312,72423,1,0
312,328,72521,1,0
336,312,72619,1,8
352,256,72815,1,0
328,256,72913,1,0
304,256,73011,1,0
368,208,73305,1,8
384,184,73404,1,0
432,160,73600,1,8
424,272,73992,1,8
416,248,74090,1,8
336,312,74188,1,8
312,320,74286,1,8
296,304,74384,1,0
248,288,74580,1,4
432,160,74972,1,12
424,272,75168,1,4
352,184,75560,1,12
347,16,76149,1,12
332,99,76443,1,0
342,125,76541,1,8
302,178,76737,1,0
354,198,76933,1,12
321,292,77129,1,0
401,267,77227,1,0
373,272,77325,1,8
321,292,77521,1,0
354,198,77717,1,12
321,292,77913,1,0
315,124,78011,1,0
321,292,78109,1,0
271,196,78305,1,0
324,177,78502,1,12
321,292,78698,1,0
406,159,78796,1,0
321,292,78894,1,0
321,292,78992,1,0
346,218,79090,1,0
360,272,79286,5,4
406,159,79678,1,12
402,215,79874,1,4
270,112,80462,1,12
365,171,80855,1,0
341,222,81051,1,0
330,248,81149,1,0
348,269,81247,1,8
350,185,81541,1,0
365,171,81639,1,8
421,177,81835,1,0
446,190,81933,1,0
420,180,82031,1,8
394,171,82129,1,8
397,199,82227,1,0
389,226,82325,1,0
382,253,82423,1,0
369,170,82717,1,8
390,189,82815,1,0
372,136,83011,1,12
279,74,83404,1,4
300,126,83600,1,12
330,204,83894,1,8
213,197,83992,5,0
269,193,84188,1,8
323,179,84384,1,0
378,171,84580,1,8
433,162,84776,1,0
420,217,84972,1,12
438,195,85364,1,8
410,147,85560,1,0
385,97,85756,1,8
368,151,85952,1,0
368,151,86149,1,8
351,204,86345,1,0
438,195,86541,1,12
328,174,86933,1,0
368,151,87129,1,8
380,206,87325,1,0
328,192,87521,1,0
304,192,87619,1,0
264,232,87815,1,0
288,232,87913,1,8
279,200,88109,1,0
348,208,88305,1,8
380,206,88403,1,8
368,181,88501,1,0
342,170,88600,1,0
314,167,88698,1,0
348,208,88894,1,8
380,206,88992,1,8
368,181,89090,1,0
342,170,89188,1,0
314,167,89286,1,0
293,186,89384,1,0
368,181,89482,1,8
368,181,89580,1,8
346,129,89776,1,4
