osu file format v9

[General]
AudioFilename: Stairway Generation.mp3
AudioLeadIn: 1500
PreviewTime: 52629
Countdown: 0
SampleSet: Normal
StackLeniency: 0.7
Mode: 0
LetterboxInBreaks: 1

[Editor]
DistanceSpacing: 0.8
BeatDivisor: 2
GridSize: 8

[Metadata]
Title:Stairway Generation (TV Size)
Artist:Base Ball Bear
Creator:arien666
Version:Kantan
Source:Gintama
Tags:taiko taikosu op7 silver soul arken1015 lepidon lepidopodus BBB

[Difficulty]
HPDrainRate:1
CircleSize:3
OverallDifficulty:1
ApproachRate:1
SliderMultiplier:0.8
SliderTickRate:0.5

[Events]
//Background and Video events
0,0,"stairway album.jpg"
Video,0,"Endless Stairway.avi"
//Break Periods
//Storyboard Layer 0 (Background)
//Storyboard Layer 1 (Fail)
//Storyboard Layer 2 (Pass)
//Storyboard Layer 3 (Foreground)
//Storyboard Sound Samples
//Background Colour Transformations
3,100,163,162,255

[TimingPoints]
855,392.156862745098,4,1,1,80,1,0
6345,-100,4,1,1,0,0,0
6737,-100,4,1,1,80,0,0
52619,-100,4,1,1,80,0,1
79286,-100,4,1,1,80,0,0
83600,392.156862745098,4,1,1,80,1,0

[Colours]
Combo1 : 112,196,193
Combo2 : 243,89,34

[HitObjects]
0,192,5560,2,2,B|0:106|127:106|128:200,1,200,2|2
256,192,7129,5,0
256,64,7913,1,0
128,64,8698,1,0
128,192,9482,1,0
256,192,10266,5,0
320,304,11051,1,0
192,304,11835,1,4
256,56,13404,5,0
168,152,14188,2,0,B|168:248,1,80
168,296,14972,1,0
256,56,16541,5,0
344,152,17325,2,0,B|344:248,1,80
344,296,18109,1,0
216,296,18894,1,2
144,192,19678,5,0
272,192,20462,2,0,B|368:192,1,80
416,192,21247,1,0
144,192,22815,5,0
256,128,23600,2,0,B|160:128,1,80
112,128,24384,1,0
112,256,25168,1,2
224,192,25953,5,0
256,72,26737,2,0,B|272:24|328:24,1,80
376,24,27521,1,0
504,24,28305,1,2
448,56,28698,2,0,B|358:100,1,80
450,184,29874,6,0,B|372:224,1,80
322,251,30658,1,0
190,251,31443,1,2
133,220,31835,2,0,B|61:183,1,80
176,120,33011,6,0,B|272:120,1,80
320,120,33796,1,0
320,248,34580,1,2
256,248,34972,2,0,B|168:248,1,80
176,119,36149,6,0,B|232:111|256:64,1,80
256,16,36933,1,0
256,272,38502,6,0,B|256:368,1,80,0|2
256,224,39678,1,2
256,160,40070,2,0,B|160:160,1,80,0|2
48,160,41247,6,0,B|80:72,1,80
96,24,42031,1,2
224,24,42815,1,2
216,87,43207,2,0,B|304:87,1,80,0|2
256,224,44384,6,0,B|256:320,1,80
256,368,45168,1,2
384,368,45953,1,2
432,320,46345,2,0,B|432:216,1,80,0|2
432,112,47521,6,0,B|336:112,1,80
288,112,48305,1,2
160,112,49090,2,0,B|264:112,1,80,2|0
344,192,50266,1,0
256,96,51051,5,4
256,352,52619,5,0
256,224,53404,1,0
368,288,54188,2,0,B|256:288,1,80
224,288,54972,1,0
128,192,55756,5,0
112,64,56541,2,0,B|208:64,1,80
256,64,57325,1,0
400,192,58894,6,0,B|400:288,1,80,0|2
288,336,60070,1,2
224,336,60462,2,0,B|128:336,1,80,0|2
80,224,61639,5,2
144,224,62031,2,0,B|240:224,1,80,0|2
344,192,63207,2,0,B|392:192|424:136,1,80,0|4
504,256,65168,5,0
504,128,65953,1,0
392,192,66737,2,0,B|280:192,1,80
248,192,67521,1,0
120,192,68305,5,0
216,104,69090,2,0,B|312:104,1,80
360,104,69874,1,0
416,352,71443,5,0
416,288,71835,1,2
288,288,72619,1,2
224,288,73011,1,0
256,232,73404,1,2
256,104,74188,5,2
224,48,74580,1,0
288,48,74972,1,2
256,168,75756,1,2
256,192,76149,12,4,78502
168,368,79286,6,4,B|256:368|288:336,1,120
360,280,80462,1,4
376,32,82423,6,4,B|240:32,1,120
160,32,83600,5,4
256,120,84384,1,0
384,120,85168,1,0
256,344,86737,5,0
256,216,87521,1,0
184,104,88305,2,0,B|218:64|295:64|328:104,2,160,0|0|2
