osu file format v9

[General]
AudioFilename: Stairway Generation.mp3
AudioLeadIn: 1500
PreviewTime: 52629
Countdown: 0
SampleSet: Normal
StackLeniency: 0.7
Mode: 0
LetterboxInBreaks: 1

[Editor]
DistanceSpacing: 0.8
BeatDivisor: 2
GridSize: 8

[Metadata]
Title:Stairway Generation (TV Size)
Artist:Base Ball Bear
Creator:arien666
Version:Futsuu
Source:Gintama
Tags:taiko taikosu op7 silver soul arken1015 lepidon lepidopodus BBB

[Difficulty]
HPDrainRate:3
CircleSize:4
OverallDifficulty:4
ApproachRate:4
SliderMultiplier:0.8
SliderTickRate:2

[Events]
//Background and Video events
0,0,"stairway album.jpg"
Video,0,"Endless Stairway.avi"
//Break Periods
//Storyboard Layer 0 (Background)
//Storyboard Layer 1 (Fail)
//Storyboard Layer 2 (Pass)
//Storyboard Layer 3 (Foreground)
//Storyboard Sound Samples
//Background Colour Transformations
3,100,163,162,255

[TimingPoints]
855,392.156862745098,4,1,1,80,1,0
52619,-100,4,1,1,80,0,1
79286,-100,4,1,1,80,0,0
83600,392.156862745098,4,1,1,80,1,0

[Colours]
Combo1 : 112,196,193
Combo2 : 243,89,34

[HitObjects]
480,192,5560,2,2,B|472:280|406:286|344:280|328:184,1,240,2|2
256,192,7129,5,0
256,128,7521,1,0
256,64,7913,1,0
256,192,8698,1,0
256,256,9090,1,0
256,320,9482,1,0
256,192,10266,5,0
192,192,10658,1,0
128,192,11051,1,0
160,72,11835,1,4
256,160,12619,1,4
128,192,13404,5,0
192,80,14188,1,0
256,80,14580,1,0
320,80,14972,1,0
384,192,15756,1,0
448,192,16149,2,0,L|496:192,2,40
320,304,17325,5,0
256,304,17717,1,0
192,304,18109,1,0
256,192,18894,1,2
384,192,19678,5,0
320,304,20462,1,0
256,304,20855,1,0
192,304,21247,1,0
128,192,22031,1,0
64,192,22423,2,0,L|16:192,2,40
192,80,23600,5,0
256,80,23992,1,0
320,80,24384,1,0
256,192,25168,1,2
128,192,25953,5,0
64,192,26345,2,0,L|8:192,2,40
192,192,27521,1,0
256,192,27913,1,2
224,136,28305,1,0
288,136,28698,1,2
320,192,29090,5,0
384,192,29482,2,0,L|440:192,2,40
320,304,30658,1,0
256,304,31051,1,2
288,360,31443,1,0
224,360,31835,1,2
192,304,32227,5,0
128,304,32619,2,0,L|80:304,2,40
256,304,33796,1,0
256,240,34188,1,2
224,184,34580,1,0
288,184,34972,1,2
256,128,35364,5,0
256,64,35756,2,0,L|256:8,2,40
256,192,36933,1,0
256,320,37717,1,2
256,192,38502,5,0
256,192,38894,1,2
128,192,39678,1,2
160,136,40070,1,0
192,192,40462,1,2
224,248,40855,1,0
256,192,41247,2,0,L|312:192,2,40
512,192,43207,5,0
480,136,43600,1,2
416,136,43992,1,0
384,192,44384,2,0,L|424:248,2,40
320,192,45168,1,2
192,192,45953,5,2
256,192,46345,1,0
224,136,46737,1,2
288,136,47129,1,0
256,80,47521,2,0,L|256:32,2,40
256,336,49482,5,0
256,240,50070,2,0,L|256:184,1,40
256,72,51051,1,4
256,320,52619,5,0
256,192,53404,1,0
128,192,54188,1,0
173,146,54580,2,0,L|245:146,1,40
392,192,55756,5,0
328,192,56149,1,0
292,139,56541,2,0,L|292:91,2,40
256,192,57325,1,0
256,256,57717,2,0,L|256:304,1,40
136,192,58894,5,0
136,256,59286,2,0,L|136:304,1,40,2|0
256,192,60462,5,0
256,128,60854,2,0,L|256:80,1,40,2|0
376,192,62031,5,0
376,256,62423,2,0,L|376:304,1,40,2|0
256,192,63600,6,0,B|227:151|177:150|138:216,2,120,0|2|4
256,256,65168,5,0
256,128,65953,1,0
328,24,66737,1,0
328,88,67129,2,0,B|328:136,1,40
120,192,68305,5,0
184,192,68698,1,0
220,139,69090,2,0,B|220:83,2,40
256,192,69874,1,0
256,256,70266,2,0,B|256:312,1,40
376,192,71443,5,0
376,128,71835,2,0,L|376:80,1,40,2|0
256,192,73011,5,0
256,256,73404,2,0,L|256:304,1,40,2|0
136,192,74580,5,0
136,128,74972,2,0,L|136:80,1,40,2|0
256,192,76149,12,4,78502
208,192,79286,5,4
304,192,79874,1,4
256,112,80462,2,0,B|256:256,2,120,0|2|4
352,192,82423,5,4
256,192,83011,1,4
304,112,83600,5,0
256,72,83992,1,0
208,112,84384,1,0
104,192,85168,5,0
40,192,85560,1,0
72,248,85952,1,0
192,280,86737,5,0
256,296,87129,1,0
320,280,87521,1,0
416,192,88305,6,0,B|416:96|312:96,2,160,0|0|2
