osu file format v5

[General]
AudioFilename: 02 Dramatic.mp3
AudioLeadIn: 0
PreviewTime: -1
Countdown: 1
SampleSet: Normal

[Metadata]
Title:Dramatic
Artist:Base Ball Bear
Creator:lha15991
Version:Hard

[Difficulty]
HPDrainRate:6
CircleSize:6
OverallDifficulty:6
SliderMultiplier:1.4
SliderTickRate:1

[Events]
//Background and Video events
0,0,"bbb_photo.jpg"
//Break Periods
2,140328,150684
2,169233,185063
//Storyboard Layer 0 (Background)
//Storyboard Layer 1 (Failing)
//Storyboard Layer 2 (Passing)
//Storyboard Layer 3 (Foreground)
//Storyboard Sound Samples
//Background Colour Transformations
3,100,192,192,192

[TimingPoints]
2174,437.956204379562,4,1,0,100

[Colours]
Combo1 : 162,224,244
Combo2 : 255,255,98
Combo3 : 148,112,222
Combo4 : 255,91,91

[HitObjects]
128,96,7429,1,0
192,96,7867,1,0
256,96,8305,1,0
256,128,8524,1,0
256,160,8743,1,0
288,160,8962,1,0
352,160,9400,1,0
384,160,9619,1,4
320,288,10057,5,0
384,288,10495,1,0
288,288,11152,1,0
256,288,11371,1,0
160,288,11809,1,4
416,192,12246,5,0
288,192,12684,1,0
160,192,13341,1,0
128,192,13560,1,0
32,96,13998,1,0
160,96,14436,1,4
448,192,14874,5,0
448,192,15312,1,0
416,192,15969,1,0
384,192,16188,1,0
352,192,16407,1,0
256,192,16845,1,0
192,192,17283,1,0
128,192,17721,1,0
128,256,18159,1,0
96,256,18378,1,0
96,192,18816,2,2,B|96:32|256:32|256:32,1,280
352,32,19911,2,6,B|480:96|480:192|416:320|352:320|256:320|256:320,1,420
224,320,21444,5,0
192,288,21663,1,0
160,256,21882,1,0
128,224,22101,1,0
160,192,22319,1,0
192,160,22538,1,0
224,128,22757,1,6
384,64,23195,5,0
320,64,23414,2,2,B|35:348|35:348,1,350
160,320,25166,1,4
160,320,25385,1,4
224,320,25823,1,4
288,224,26261,5,0
224,192,26480,1,2
224,192,26699,2,6,B|32:288|64:192|96:128|480:32|448:32,1,490
384,96,28670,5,0
384,128,28889,1,0
384,160,29108,1,0
384,192,29327,1,0
352,192,29546,1,0
320,192,29765,1,6
224,192,30203,5,0
160,192,30641,1,0
96,192,31079,1,0
192,192,31517,1,0
128,128,31955,1,0
160,128,32173,1,0
224,96,32611,1,2
256,96,32830,1,4
160,32,33268,5,0
128,32,33487,1,0
96,64,33706,2,2,B|96:352,1,280
128,352,34801,1,0
160,352,35020,1,0
192,352,35239,2,2,B|195:13|352:32,1,350
384,64,36772,1,0
416,96,36991,1,0
416,128,37210,1,0
352,160,37648,1,0
320,160,37867,1,0
288,160,38086,1,4
128,128,38524,5,0
128,192,38743,2,6,B|210:246|210:246,5,70
256,192,40276,5,0
320,192,40714,1,0
352,192,40933,1,0
448,192,41371,1,0
448,128,41809,1,0
384,128,42246,1,0
384,128,42684,1,0
384,128,42903,1,0
384,128,43122,1,0
384,128,43341,1,4
320,64,43779,5,0
288,64,43998,2,2,B|160:320,1,280
224,288,45093,2,2,B|352:192,1,140
288,160,45750,1,0
288,128,45969,1,0
288,96,46188,1,0
256,96,46407,1,0
224,96,46517,1,0
224,96,46626,1,0
224,96,46736,1,0
192,96,46845,1,0
192,32,47283,1,6
256,64,47721,6,2,B|480:192|480:192|256:192,1,420
256,192,49473,1,0
256,192,49911,1,2
256,192,50349,1,0
256,192,50787,1,6
256,192,51225,12,0,51663
256,192,52101,1,4
288,160,52319,5,0
320,128,52538,1,0
352,128,52757,1,0
384,128,52976,2,2,B|384:288|384:288,2,140
448,128,54290,1,0
352,160,54728,1,0
320,160,54947,1,0
288,160,55166,1,0
192,160,55604,1,0
128,160,56042,1,4
192,256,56480,6,6,B|352:256|352:256,4,140
192,256,58451,5,0
320,256,58670,1,0
320,256,58889,2,6,B|319:160|319:160,1,70
416,160,59546,5,0
384,160,59765,1,0
352,160,59984,1,0
288,160,60422,1,0
224,160,60860,1,0
288,160,61298,1,0
224,160,61517,1,0
256,96,61955,1,0
256,96,62173,1,0
256,96,62611,1,0
256,96,63049,2,6,B|256:190,1,70
320,160,63706,5,0
288,160,63925,1,0
224,160,64363,1,0
256,96,64801,1,0
288,96,65020,1,0
352,96,65458,1,0
288,96,65896,1,0
256,96,66115,1,4
256,32,66553,5,0
256,96,66991,2,6,B|128:96|32:192|32:288|160:384|293:306|480:288|104:113|290:97|384:96|384:96,1,630
416,256,69181,5,4
384,224,69400,5,4
448,224,69619,5,4
416,192,69838,5,4
384,160,70057,5,4
352,160,70276,6,2,B|64:160|64:160,1,280
64,128,71371,1,4
64,64,71809,6,2,B|480:63|480:63,1,350
413,95,73122,1,0
416,128,73341,2,2,B|336:223|336:223,2,70
416,128,73998,2,6,B|192:128|192:128,1,210
160,160,75093,5,0
128,192,75312,1,0
96,224,75531,1,0
96,256,75750,1,0
128,288,75969,1,0
160,320,76188,1,0
192,288,76407,1,0
224,256,76626,1,0
256,224,76845,1,0
224,192,77064,1,0
160,224,77502,2,6,B|418:33|418:33,1,280
384,128,78816,5,0
384,192,79254,1,0
384,256,79692,1,0
320,256,79911,1,0
288,256,80130,1,0
224,256,80568,1,0
192,256,80787,1,0
128,256,81225,2,6,B|128:128|224:64|384:32|416:32|450:32|450:32,1,420
352,192,82976,5,0
352,64,83414,1,0
288,128,83852,1,0
256,128,84071,1,2
96,64,84509,1,0
64,64,84728,1,2
128,160,85166,1,0
128,192,85385,1,2
192,288,85823,1,0
192,320,86042,1,2
256,160,86480,1,0
352,256,86918,1,0
448,96,87356,1,0
416,96,87575,1,4
352,96,88013,6,2,B|256:32|96:32|32:96|32:224|128:320|192:320|192:320,1,490
224,320,89765,2,2,B|352:352|480:320|512:224|384:96|384:96,1,420
320,64,91298,1,2
320,64,91517,2,2,B|192:160|192:160,1,140
208,148,92173,1,0
208,148,92392,2,2,B|64:32|64:32,1,140
98,60,93049,1,0
98,60,93268,2,2,B|96:224|96:224,1,140
96,199,93925,1,0
96,192,94144,2,2,B|283:192|283:192,1,140
236,192,94801,1,4
256,160,95020,5,0
320,128,95458,1,0
384,96,96115,1,0
416,128,96334,1,0
352,128,96553,1,0
384,160,96772,2,6,B|168:368|168:368,1,280
128,320,98086,5,0
128,256,98524,1,0
128,224,98743,1,0
128,192,98962,1,0
128,160,99181,1,0
192,128,99619,1,0
192,128,99838,1,0
192,128,100276,1,0
192,128,100440,1,0
192,128,100714,2,6,B|416:128|416:128,1,210
384,64,101590,5,0
320,64,102028,1,0
256,64,102465,2,6,B|160:64|160:64,4,70
256,192,103341,12,0,105093
256,96,105531,1,4
256,96,105750,1,4
256,160,105969,1,4
256,160,106188,1,4
256,128,106407,1,4
256,128,106626,1,4
256,192,106736,12,4,108925
256,32,109254,2,2,B|256:256|256:256,1,210
320,192,110349,6,2,B|160:192|160:192,3,140
180,192,111882,1,0
181,192,112101,6,0,B|180:-9|180:-9,3,140
192,32,113633,1,0
224,64,113852,1,0
256,32,114071,1,2
256,128,114509,1,0
288,128,114728,1,0
352,128,115166,1,0
384,192,115604,1,0
384,224,115823,1,4
320,256,116261,5,0
320,192,116480,1,0
320,128,116699,1,0
288,96,117137,1,4
256,128,117356,5,0
224,160,117575,1,0
192,192,117794,2,0,B|298:299|298:299,1,140
288,224,118670,2,2,B|352:160|416:160|482:192|482:192,1,210
480,128,119546,2,2,B|480:33,4,70
416,96,120860,1,0
416,64,121079,1,4
320,96,121517,5,0
288,96,121736,1,0
256,128,122173,1,0
256,192,122611,1,0
256,224,122830,1,2
160,224,123268,1,0
96,256,123706,1,0
128,224,123925,1,0
128,160,124363,1,0
64,96,124801,2,6,B|480:96|480:96,2,420
64,128,127648,5,0
96,160,127867,1,0
160,160,128305,1,0
192,160,128524,1,0
256,160,128962,1,0
288,160,129181,1,0
384,160,129619,1,4
384,224,130057,6,6,B|512:128|512:128,3,140
480,96,131590,5,0
448,96,131809,1,0
384,96,132246,1,0
320,96,132684,1,0
256,96,133122,1,0
224,96,133341,1,0
192,128,133560,2,2,B|455:265|455:265,1,280
448,192,134874,2,6,B|448:96|448:96,2,70
384,160,135750,5,0
320,128,136188,1,0
256,96,136626,1,0
224,96,136845,1,0
160,96,137283,1,0
128,96,137502,1,0
128,128,137721,1,0
128,192,138159,1,0
160,192,138378,1,4
256,192,138816,12,0,140130
256,160,151736,5,0
256,160,152173,1,0
256,160,152611,2,2,B|256:384|256:384|256:352,1,210
256,370,153487,1,0
288,352,153706,1,4
320,288,154144,5,0
384,224,154582,1,0
416,224,154801,1,0
416,160,155239,1,0
352,128,155677,1,0
320,96,155896,1,0
288,64,156115,1,4
224,128,156553,5,0
192,128,156772,1,0
192,160,156991,1,0
224,160,157210,1,0
320,192,157867,1,0
256,192,158305,1,0
256,192,158524,1,0
192,192,158962,1,0
192,128,159400,2,6,B|192:192|192:224|192:224,6,70
224,128,160933,5,0
320,128,161371,1,0
320,192,161809,1,0
256,192,162246,1,0
192,192,162684,1,0
192,192,163122,1,0
192,192,163341,1,4
384,96,163779,6,2,B|129:288|129:288,1,280
128,96,165093,2,6,B|384:288|384:288,1,280
256,192,166407,12,0,169035
32,160,186115,5,0
64,160,186334,1,0
96,160,186553,1,0
128,160,186772,1,0
160,160,186991,1,0
192,160,187210,1,0
224,160,187429,1,4
480,160,187867,5,0
448,160,188086,1,0
416,160,188305,1,0
384,160,188524,1,0
352,160,188743,1,0
320,160,188962,1,0
288,160,189181,1,4
256,320,189619,5,0
256,288,189838,1,0
256,256,190057,1,0
256,224,190276,1,0
256,192,190495,1,0
256,160,190714,1,0
256,128,190933,2,6,B|32:128|32:128,2,210
256,192,192684,12,0,193998
256,160,194217,1,0
288,160,194436,5,0
320,160,194655,1,0
352,160,194874,1,0
320,96,195312,1,0
256,96,195750,2,2,B|160:96|160:96,3,70
256,128,196845,1,0
256,160,197064,2,2,B|160:160|160:160,4,70
256,192,198159,2,6,B|64:96|64:96,1,210
96,160,199254,5,0
160,128,199692,1,0
192,128,199911,1,0
192,160,200349,1,4
256,160,200568,5,0
224,160,200787,1,4
320,160,201225,5,0
256,256,201663,1,0
128,224,202101,1,0
160,96,202538,1,0
192,96,202757,1,0
416,288,203414,1,0
96,128,203852,1,0
160,288,204290,1,0
192,288,204509,1,0
256,192,204947,1,4
448,128,205385,6,2,B|416:64|352:32|320:32|320:32,1,140
352,128,206261,2,2,B|384:192|448:224|480:224|480:224,1,140
160,32,207137,2,2,B|128:32|64:64|32:128,1,140
146,149,208013,2,2,B|128:191|64:223|32:223,1,140
33,222,208670,1,0
33,222,208889,1,4
256,160,209327,5,0
256,160,209765,2,2,B|256:384|256:384,1,210
256,384,210860,2,2,B|256:144|256:144,1,210
256,128,211736,1,0
256,96,211955,2,6,B|256:0|256:0,2,70
320,96,212830,5,0
192,96,213268,1,0
256,96,213706,1,0
256,160,214144,1,0
256,224,214582,1,0
256,256,214801,1,4
448,192,215458,5,0
416,160,215677,1,0
352,128,216115,1,0
256,64,216553,1,0
224,96,216772,1,0
64,96,217210,1,0
96,224,217648,1,0
96,192,217867,1,0
192,192,218305,1,0
416,224,218743,1,0
384,192,218962,1,0
320,192,219400,1,0
288,192,219619,1,0
256,192,219838,1,0
256,128,220276,1,0
352,64,220714,1,0
320,64,220933,1,0
128,64,221371,1,0
160,32,221590,1,0
192,128,222028,1,4
96,192,222465,6,2,B|192:192,1,70
192,192,222903,2,2,B|288:192,1,70
288,192,223341,2,2,B|384:192,1,70
384,192,223779,2,2,B|480:192,1,70
448,128,224436,1,0
416,128,224655,1,0
352,128,225093,2,0,B|192:32|192:32,1,140
128,192,225969,1,0
192,192,226407,1,0
256,192,226845,1,0
288,224,227064,1,0
224,96,227502,1,0
288,96,227940,1,0
320,128,228159,2,2,B|512:267|512:267,1,210
320,128,229254,2,6,B|96:288|96:288,1,210
256,32,230349,5,0
448,64,230787,1,0
64,64,231225,1,0
256,128,231663,1,0
256,192,232101,1,0
320,224,232538,1,0
352,96,232976,1,0
256,32,233195,1,0
256,64,233414,1,0
256,128,233633,1,0
256,128,233743,1,0
256,128,233852,1,0
256,128,233962,1,0
256,128,234071,1,0
256,160,234290,1,0
320,96,234728,5,0
64,128,235166,1,0
32,160,235385,1,0
256,256,235823,1,0
288,288,236042,1,0
320,320,236261,1,0
352,320,236480,1,0
384,320,236699,1,0
448,320,237137,2,6,B|96:32|96:32,1,420
