osu file format v5

[General]
AudioFilename: Changes.mp3
AudioLeadIn: 0
PreviewTime: -1
Countdown: 1
SampleSet: Normal
StackLeniency: 0.7
Mode: 0
LetterboxInBreaks: 1
EditorBookmarks: 27326,65298,82186,111452,123095,195158,220438

[Metadata]
Title:Changes
Artist:Base Ball Bear
Creator:Magmabear
Version:Normal
Source:Library Wars
Tags:

[Difficulty]
HPDrainRate:3
CircleSize:4
OverallDifficulty:4
SliderMultiplier:1.4
SliderTickRate:1

[Events]
//Background and Video events
0,0,"library-war-3.jpg"
//Break Periods
2,65288,82200
2,111442,123109
2,195358,220451
//Storyboard Layer 0 (Background)
//Storyboard Layer 1 (Failing)
//Storyboard Layer 2 (Passing)
//Storyboard Layer 3 (Foreground)
//Storyboard Sound Samples
//Background Colour Transformations
3,100,163,162,255

[TimingPoints]
13945,419.58041958042,4,1,0,100,1

[HitObjects]
56,56,27371,2,0,B|320:64|480:384,1,560
368,344,29469,1,0
312,344,29679,1,0
256,344,29889,2,0,B|112:344|88:176|168:136,1,280
256,72,31567,5,0
256,296,32406,1,0
32,296,33245,1,0
144,296,33665,1,0
32,296,34084,6,0,B|32:168|232:24|352:32,1,420
392,120,35763,1,0
392,232,36182,1,0
392,232,36392,1,0
392,232,36602,2,0,B|80:232,1,280
72,120,38280,6,0,B|360:120,1,280
128,80,39958,1,0
128,192,40378,1,0
200,112,40798,6,0,B|200:272,4,140
304,72,42896,1,0
304,72,43315,1,0
304,72,43735,1,0
416,72,44154,6,0,B|416:272|72:280,1,420
104,168,45833,1,0
104,168,46042,1,0
256,168,47091,6,0,B|432:168,3,140
496,216,48770,2,0,B|336:216,1,140
264,280,49609,1,0
176,216,50028,2,0,B|24:216,1,140
40,160,50658,1,0
136,112,51077,5,0
304,112,51707,1,0
304,280,52336,1,0
136,280,52965,1,0
64,352,54224,6,0,B|0:208|504:128,1,525
488,128,56217,1,0
288,128,56951,6,0,B|184:128,2,70
344,128,57581,1,0
344,240,58000,1,0
344,296,58210,1,0
400,296,58420,1,0
296,344,58840,6,0,B|-96:344|-64:80|128:48,1,560
208,56,60938,2,0,B|392:48|392:248,1,280
400,208,61986,1,0
400,208,62196,1,0
400,208,62616,2,0,B|88:208,1,280
120,152,63665,5,0
120,152,63875,1,0
120,152,64294,2,0,B|428:152,1,280
136,192,82756,5,0
136,192,82965,1,0
192,192,83175,1,0
192,192,83385,1,0
304,192,83805,6,0,B|376:192,3,70
264,192,84854,5,0
248,80,85273,2,0,B|528:192,1,280
480,288,86532,1,0
424,288,86742,1,0
256,288,87371,5,0
256,232,87581,1,0
256,64,88210,1,0
256,64,88420,1,0
408,136,89049,1,0
408,136,89259,1,0
408,304,89889,1,0
408,304,90098,1,0
256,224,90728,5,0
256,168,90938,1,0
312,168,91147,2,0,B|312:328,3,140
200,304,92826,1,0
88,304,93245,1,0
88,304,93455,1,0
256,304,94084,5,0
256,304,94294,2,0,B|8:32|240:48,1,350
320,48,95763,1,0
376,48,95972,2,0,B|376:216|256:232,1,210
232,224,96812,1,0
120,224,97231,5,0
120,224,97441,1,0
120,224,97651,1,0
176,224,97861,2,0,B|176:64,3,140
288,80,99539,1,0
400,80,99958,1,0
400,80,100168,1,0
272,192,100798,5,0
272,192,101007,1,0
440,192,101637,1,0
440,192,101847,1,0
400,152,102476,2,0,B|112:224,1,280
128,272,103525,1,0
288,232,104154,5,0
288,232,104364,1,0
288,176,104574,2,0,B|112:176,2,140
288,64,105833,1,0
288,64,106042,1,0
120,64,106672,1,0
120,64,106882,1,0
240,184,107511,5,0
240,184,107721,1,0
408,184,108350,1,0
408,184,108560,1,0
272,80,109189,1,0
272,80,109399,1,0
160,80,109819,1,0
240,0,110238,1,0
240,112,110658,1,0
240,224,111077,1,0
256,192,124084,5,0
256,192,124294,1,0
256,192,124504,1,0
312,184,124714,2,0,B|296:40|200:24|112:72|40:264|240:360|320:168,1,560
488,192,127441,5,0
488,192,127651,1,0
488,192,127861,1,0
432,192,128070,2,0,B|280:192,4,140
432,80,130168,1,0
208,80,131007,5,0
320,80,131427,1,0
264,176,131847,1,0
152,176,132266,1,0
160,288,132686,1,0
272,288,133105,2,0,B|480:48,1,280
344,72,134364,1,0
232,72,134784,1,0
112,64,137511,5,0
112,64,137721,1,0
112,64,137931,1,0
112,64,138140,2,0,B|280:64|408:120,1,280
376,224,139399,2,0,B|264:264|80:304,1,280
136,128,140868,6,0,B|184:48,3,70
280,64,141917,1,0
336,64,142126,1,0
392,64,142336,1,0
392,176,142756,1,0
296,240,143175,2,0,B|464:240,1,140
344,312,144014,2,0,B|192:312,1,140
128,224,144854,1,0
256,88,145903,5,0
256,88,146112,1,0
256,88,146322,1,0
256,256,147581,5,0
256,256,147791,1,0
256,256,148000,1,0
256,256,148210,2,0,B|88:256|0:192|0:88|72:32|176:8|256:8|488:32|408:232|240:256,1,840
248,200,150938,5,0
248,200,151147,1,0
248,200,151357,1,0
248,200,151567,2,0,B|80:200,2,140
336,128,152826,1,0
336,296,153455,5,0
280,296,153665,1,0
224,296,153875,1,0
168,296,154084,1,0
168,240,154294,2,0,B|408:240,1,210
152,192,155972,5,0
152,192,156182,1,0
152,192,156392,1,0
448,104,157861,5,0
448,104,158070,1,0
448,104,158280,2,0,B|144:104,1,280
56,104,159539,2,0,B|56:200|80:240|120:272|208:312|312:320|384:312,1,420
472,312,161217,5,0
472,312,161427,1,0
472,312,161637,2,0,B|496:224|456:128|328:88,1,280
288,96,162686,5,0
288,96,162896,2,0,B|144:96|48:208|56:248|56:288|88:312|144:336|192:336,1,420
384,328,164993,6,0,B|384:256,6,70
272,296,166672,5,0
272,296,166882,1,0
272,296,167091,2,0,B|272:216,1,70
272,112,167721,5,0
272,112,167931,2,0,B|352:112,2,70
160,136,168770,5,0
64,72,169189,2,0,B|144:72|240:64|280:96|312:136|312:176|296:208|192:248|136:248|152:240,1,420
104,240,170658,1,0
248,328,171287,5,0
248,328,171497,2,0,B|400:328,1,140
384,272,172126,1,0
384,272,172336,2,0,B|240:272,1,140
192,256,172965,2,0,B|192:168|160:88|80:72,1,210
48,80,173805,1,0
48,80,174014,1,0
88,240,174644,5,0
88,240,174854,1,0
88,240,175063,2,0,B|232:240,2,140
88,352,176322,1,0
88,352,176532,1,0
256,352,177161,2,0,B|360:352,1,70
256,192,178000,5,0
256,192,178210,1,0
256,192,178840,2,0,B|352:192,1,70
328,120,179679,1,0
328,120,179889,2,0,B|256:120|168:120|104:160|56:216|56:288,1,350
168,280,181357,5,0
168,280,181567,1,0
168,280,181777,2,0,B|168:128,3,140
56,144,183455,1,0
56,32,183875,1,0
56,32,184084,1,0
176,144,184714,6,0,B|472:144,2,280
176,144,186602,1,0
176,312,187231,1,0
176,312,187441,1,0
176,200,187861,6,0,B|256:200,3,70
360,200,188910,1,0
360,312,189329,1,0
472,312,189749,1,0
472,312,189958,2,0,B|472:240|392:192|296:176,1,210
272,184,190798,2,0,B|242:258|146:282,1,210
256,192,191847,12,4,195203
488,192,221427,5,0
488,192,221637,1,0
488,192,221847,1,0
488,192,222056,2,0,B|368:144|296:224|224:216|184:168|144:184|128:208|56:232,1,490
8,136,223945,1,0
232,128,224784,6,0,B|336:128,2,70
232,128,225413,2,0,B|232:200|280:248|352:248|424:184|464:144|504:184|512:256|504:312|440:344|368:344|272:344,1,560
32,232,228140,5,0
32,232,228350,1,0
32,232,228560,1,0
88,232,228770,1,0
200,232,229189,1,0
312,232,229609,1,0
312,120,230028,1,0
200,120,230448,1,0
200,232,230868,1,0
312,232,231287,1,0
200,232,231707,1,0
176,344,232126,6,0,B|296:344|408:328|496:224|400:80|288:48|160:80|64:128|16:208|184:344,1,840
176,336,234854,1,0
168,192,235693,5,0
168,192,235903,1,0
168,192,236112,1,0
168,192,236322,2,0,B|208:136|280:88|344:88|368:104|408:112|424:144,1,280
416,240,237581,5,0
416,240,237791,2,0,B|200:240,1,210
208,240,238630,1,0
208,72,239259,5,0
208,72,239469,1,0
328,184,240098,1,0
328,184,240308,1,0
208,64,240938,1,0
208,64,241147,2,0,B|412:117|-4:165|555:197|89:269|344:331,1,350
432,272,242616,5,0
432,272,242826,1,0
432,272,243035,2,0,B|432:192|432:120,1,140
336,72,243875,2,0,B|336:240,1,140
224,216,244714,2,0,B|224:72,1,140
224,80,245343,1,0
264,240,245972,5,0
264,240,246182,2,0,B|180:239|152:130|268:83,1,210
248,96,247021,2,0,B|318:107|362:188|271:254,1,210
280,248,247861,2,0,B|280:348|185:357|128:292,1,210
128,240,248700,1,0
240,240,249119,6,0,B|328:240,3,70
312,128,250168,5,0
312,128,250588,2,0,B|226:92|177:165,1,140
280,216,251427,2,0,B|257:268|140:212,1,140
96,224,252056,1,0
16,72,252686,6,0,B|111:73|194:-3|255:-18|349:54|449:75,1,420
432,176,254364,1,0
432,176,254574,2,0,B|392:102|252:108|215:92,1,210
248,208,255623,1,0
144,248,256042,5,0
144,248,256252,1,0
144,248,256462,2,0,B|290:249,1,140
368,176,257301,2,0,B|218:177,1,140
136,112,258140,2,0,B|284:111,1,140
384,112,258979,1,0
392,224,259399,5,0
392,224,259609,2,0,B|317:308|188:220,1,210
200,232,260448,2,0,B|172:315|8:219,1,210
16,224,261287,2,0,B|19:141|182:100,1,210
280,96,262336,1,0
288,152,262546,6,0,B|352:216,3,70
416,280,263595,2,0,B|386:349|313:378|233:374|151:350|83:294|48:228|65:142|109:90|158:63|211:56|284:52|340:58|394:79|455:127,1,840
448,232,266532,2,0,B|152:231,1,280
240,312,267791,2,0,B|408:304|440:32|224:56,1,420
256,168,269469,5,0
256,168,269679,1,0
200,168,269889,1,0
88,168,270308,1,0
88,56,270728,1,0
200,56,271147,1,0
200,56,271357,1,0
368,56,271986,1,0
312,56,272196,1,0
480,56,272826,6,0,B|491:171|309:74|551:334|387:372|303:258|274:101|219:156|125:304,1,560
48,216,274924,1,0
48,104,275343,1,0
128,24,275763,1,0
16,48,276182,1,0
112,104,276602,2,0,B|288:44|440:64|573:169|581:288|557:387|426:414|292:414|148:343|78:281|64:196|97:154|139:144|178:146|250:148|315:157|359:179|416:211|422:248|381:279|343:284|292:263|260:244|236:234|236:236,1,1260
344,192,280798,5,0
120,192,281637,1,0
264,360,282476,1,0
256,248,282896,1,0
256,192,283315,12,4,290028
