osu file format v5

[General]
AudioFilename: Changes.mp3
AudioLeadIn: 0
PreviewTime: -1
Countdown: 1
SampleSet: Normal
StackLeniency: 0.7
Mode: 0
LetterboxInBreaks: 1
EditorBookmarks: 40333,65298,82186,111452,123095,195158,220438

[Metadata]
Title:Changes
Artist:Base Ball Bear
Creator:Magmabear
Version:Easy
Source:Library Wars
Tags:

[Difficulty]
HPDrainRate:2
CircleSize:3
OverallDifficulty:2
SliderMultiplier:1.4
SliderTickRate:1

[Events]
//Background and Video events
0,0,"library-war-3.jpg"
//Break Periods
2,65288,82200
2,111442,123109
2,195358,220451
//Storyboard Layer 0 (Background)
//Storyboard Layer 1 (Failing)
//Storyboard Layer 2 (Passing)
//Storyboard Layer 3 (Foreground)
//Storyboard Sound Samples
//Background Colour Transformations
3,100,163,162,255

[TimingPoints]
13945,419.58041958042,4,1,0,100,1

[HitObjects]
440,80,40798,2,0,B|232:80|32:192|472:304,1,560
16,336,44154,6,0,B|232:96|368:176|480:344,2,560
24,224,47931,1,0
24,112,48350,1,0
136,112,48770,2,0,B|432:112,1,280
416,224,50028,2,0,B|104:224,1,280
72,96,54224,6,0,B|504:96|488:352|64:328|424:40,1,700
448,80,57581,6,0,B|88:80|40:344|72:48|456:336,1,700
312,312,60098,1,0
200,312,60518,1,0
88,312,60938,1,0
56,200,62196,6,0,B|504:200,1,420
408,120,64294,6,0,B|96:120,1,280
320,192,83805,5,0
152,192,84434,1,0
40,192,84854,1,0
112,104,85273,6,0,B|576:88|56:336,1,560
64,216,87371,6,0,B|504:216,1,420
480,104,89049,2,0,B|48:104,1,420
64,216,90728,5,0
176,216,91147,1,0
176,328,91567,1,0
64,328,91986,1,0
64,216,92406,2,0,B|64:80|304:72|360:288,1,420
248,296,94084,6,0,B|-24:304|-80:112|304:40,1,560
368,88,96182,2,0,B|352:200|112:176,1,280
112,288,97441,5,0
112,176,97861,1,0
104,64,98280,1,0
216,64,98700,1,0
216,176,99119,1,0
328,176,99539,2,0,B|328:344,1,140
216,312,100378,1,0
104,312,100798,6,0,B|-104:96|376:24,1,525
504,40,102896,1,0
504,152,103315,1,0
504,264,103735,1,0
392,264,104154,5,0
280,264,104574,2,0,B|104:264,2,140
248,152,105833,1,0
168,152,106252,2,0,B|24:152,2,140
168,40,107511,5,0
280,40,107931,1,0
280,152,108350,1,0
168,144,108770,2,0,B|280:456|360:136|632:-160|248:64|152:152,1,700
280,152,111287,1,0
56,88,124714,6,0,B|504:88,2,420
56,200,127651,5,0
168,200,128070,2,0,B|496:200|488:368|312:352,2,420
280,192,131007,5,0
280,80,131427,1,0
168,80,131847,1,0
168,192,132266,1,0
168,304,132686,1,0
280,304,133105,2,0,B|488:64,1,280
360,56,134364,1,0
248,56,134784,1,0
256,48,137721,5,0
256,160,138140,1,0
256,272,138560,1,0
360,240,138979,2,0,B|360:56|504:56|512:368,1,420
288,328,141077,5,0
176,328,141497,1,0
64,328,141917,1,0
64,216,142336,1,0
136,296,142756,2,0,B|16:-24|480:8,1,560
304,192,146112,5,0
192,192,146532,1,0
256,112,147791,5,0
256,224,148210,1,0
336,96,151147,5,0
224,96,151567,1,0
112,96,151986,1,0
32,168,152406,2,0,B|488:168,1,420
464,280,154084,5,0
352,280,154504,1,0
240,280,154924,1,0
48,320,156182,6,0,B|48:192|256:0|472:328,1,560
344,296,158280,5,0
232,296,158700,1,0
120,296,159119,1,0
112,296,159539,2,0,B|256:0|408:320,1,420
280,296,161217,5,0
264,184,161637,2,0,B|264:-8|480:24|512:232,1,420
416,280,163315,6,0,B|256:280,8,140
256,192,167721,5,0
368,192,168140,1,0
424,192,168350,1,0
424,80,168770,1,0
352,104,169189,2,0,B|136:104|16:328,1,420
128,320,170868,1,0
240,320,171287,6,0,B|240:168,1,140
240,64,172126,2,0,B|392:64,1,140
384,176,172965,2,0,B|384:336,1,140
272,320,173805,1,0
272,320,174224,1,0
160,320,174644,6,0,B|160:240|232:192|392:192|528:192|536:198,1,420
456,288,176322,2,0,B|24:288,1,420
32,176,178000,5,0
144,176,178420,1,0
256,176,178840,1,0
368,176,179259,1,0
480,176,179679,1,0
408,88,180098,2,0,B|120:88,1,280
48,168,181357,5,0
160,168,181777,2,0,B|464:168,1,280
440,56,183035,6,0,B|144:56,1,280
160,168,184294,1,0
96,264,184714,6,0,B|448:264|464:112,1,420
352,128,186392,1,0
240,128,186812,1,0
128,128,187231,1,0
16,128,187651,1,0
16,240,188070,5,0
128,240,188490,2,0,B|288:240,1,140
376,240,189329,1,0
304,152,189749,2,0,B|136:152,1,140
48,144,190588,2,0,B|72:296,1,140
152,352,191427,6,0,B|392:360|336:80|448:88,1,420
328,56,193105,2,0,B|328:192|160:232|0:336,1,420
136,320,194784,1,0
136,208,195203,1,0
456,192,222056,6,0,B|256:40|40:192,2,420
512,192,225413,6,0,B|256:432|8:192,1,560
256,136,228350,5,0
256,248,228770,1,0
256,360,229189,1,0
144,360,229609,1,0
32,360,230028,1,0
72,256,230448,2,0,B|368:256,1,280
416,160,232126,6,0,B|144:-80|-312:248|432:416|520:208|208:176,1,840
168,192,235693,5,0
168,192,235903,1,0
168,192,236112,1,0
168,192,236322,1,0
168,80,236742,2,0,B|344:80,2,140
168,192,238000,6,0,B|328:192,2,140
80,256,239259,6,0,B|304:344|488:184,1,420
360,168,240938,2,0,B|184:168,1,140
224,56,241777,2,0,B|384:56,1,140
256,96,242616,5,0
256,208,243035,1,0
256,320,243455,2,0,B|128:320|144:80,1,280
256,96,244714,2,0,B|384:96|368:336,1,280
360,200,245972,6,0,B|64:200,1,280
72,312,247231,1,0
184,312,247651,1,0
296,312,248070,1,0
224,224,248490,2,0,B|376:224,1,140
416,216,249119,6,0,B|416:128,3,70
416,32,250168,5,0
304,32,250588,1,0
192,32,251007,1,0
80,32,251427,2,0,B|0:16|8:288,1,280
96,344,252686,6,0,B|392:344|368:96,1,420
432,16,254364,2,0,B|264:16|120:80|120:240,1,420
120,336,256042,5,0
232,336,256462,1,0
344,336,256882,1,0
344,224,257301,1,0
232,224,257721,1,0
232,112,258140,1,0
344,112,258560,1,0
456,112,258979,1,0
464,112,259399,6,0,B|464:304|240:360|16:128,1,560
136,88,261497,2,0,B|440:88,1,280
416,144,262546,6,0,B|416:248,3,70
304,216,263595,5,0
192,216,264014,1,0
192,328,264434,1,0
304,328,264854,1,0
304,216,265273,1,0
304,104,265693,1,0
192,104,266112,6,0,B|24:112|-8:384|208:360,1,420
192,368,267791,2,0,B|360:360|392:88|176:112,1,420
304,112,269469,5,0
304,224,269889,1,0
416,224,270308,1,0
424,336,270728,1,0
416,224,271147,1,0
416,112,271567,1,0
304,112,271986,1,0
192,112,272406,1,0
256,192,272826,12,4,276602
