osu file format v13

[General]
AudioFilename: Baru - ResoAlive.mp3
AudioLeadIn: 0
PreviewTime: 58350
Countdown: 0
SampleSet: Normal
StackLeniency: 0.7
Mode: 0
LetterboxInBreaks: 1
WidescreenStoryboard: 1

[Editor]
DistanceSpacing: 1.2
BeatDivisor: 4
GridSize: 4
TimelineZoom: 1

[Metadata]
Title:ResoAlive
TitleUnicode:ResoAlive
Artist:Baru
ArtistUnicode:バル
Creator:Gloria Guard
Version:Easy
Source:
Tags:Utaite Habiholic [ Sana ] Zejky 3110 Cheap Yakumo Hechima Kisa IKEDA utml Nico Nico Douga Reso⇔Alive シャドウパーティプロジェクト Shadow Party Project Hanabi Vocaloid Megpoid Gumi
BeatmapID:307702
BeatmapSetID:117036

[Difficulty]
HPDrainRate:2
CircleSize:3
OverallDifficulty:2
ApproachRate:2
SliderMultiplier:0.700000005960464
SliderTickRate:2

[Events]
//Background and Video events
Video,-106,"ResoAlive.avi"
0,0,"BG.jpg",0,0
//Break Periods
2,80690,88530
2,150290,157530
//Storyboard Layer 0 (Background)
//Storyboard Layer 1 (Fail)
//Storyboard Layer 2 (Pass)
//Storyboard Layer 3 (Foreground)
//Storyboard Sound Samples
//Background Colour Transformations
3,100,163,162,255

[TimingPoints]
1290,300,4,1,1,70,1,0
10890,-100,4,1,1,70,0,0
54090,-100,4,2,2,30,0,0
56490,-100,4,1,1,60,0,0
58740,-100,4,1,2,90,0,1
67140,-100,4,1,2,90,0,0
68340,-100,4,1,2,90,0,1
75540,-100,4,1,2,70,0,1
77940,-100,4,1,2,70,0,0
80190,-100,4,1,1,20,0,0
80490,-100,4,1,1,70,0,0
109290,-100,4,1,1,70,0,0
123690,-100,4,2,1,30,0,0
126090,-100,4,1,1,60,0,0
128340,-100,4,1,2,90,0,1
136740,-100,4,1,2,90,0,0
137940,-100,4,1,2,90,0,1
145140,-100,4,1,2,70,0,1
147540,-100,4,1,2,70,0,0
159690,-100,4,1,1,70,0,0
207540,-100,4,1,2,70,0,1
215940,-100,4,1,2,70,0,0
217140,-100,4,1,2,70,0,1
226740,-100,4,1,1,70,0,0

[Colours]
Combo1 : 91,255,133
Combo2 : 255,150,45
Combo3 : 255,162,208

[HitObjects]
168,96,9690,6,0,P|132:160|148:232,1,140.000001192093
272,332,10890,6,0,P|384:336|464:252,1,210.000001788139,6|8,0:0|0:0,0:0:0:0:
456,192,12090,2,0,P|380:120|272:120,1,210.000001788139,2|8,0:0|0:0,0:0:0:0:
196,124,13290,6,0,P|108:128|40:88,2,140.000001192093,2|2|2,0:0|0:0|0:0,0:0:0:0:
256,280,15090,1,2,0:0:0:0:
400,192,15690,6,0,P|436:252|380:380,1,210.000001788139,6|8,0:0|0:0,0:0:0:0:
304,364,16890,2,0,P|236:308|116:328,1,210.000001788139,2|8,0:0|0:0,0:0:0:0:
60,268,18090,6,0,P|72:164|160:104,1,210.000001788139,2|8,0:0|0:0,0:0:0:0:
208,44,19290,2,0,L|272:72,2,70.0000005960464,2|8|2,0:0|0:0|0:0,0:0:0:0:
196,212,20490,5,2,0:0:0:0:
252,276,20790,2,0,P|220:328|136:348,2,140.000001192093,8|0|8,0:0|0:0|0:0,0:0:0:0:
336,276,22290,2,0,L|408:272,1,70.0000005960464,2|8,0:0|0:0,0:0:0:0:
452,200,22890,6,0,P|400:132|276:92,1,210.000001788139,2|8,0:0|0:0,0:0:0:0:
128,36,24390,2,0,P|64:52|20:112,1,140.000001192093,8|8,0:0|0:0,0:0:0:0:
28,192,25290,6,0,P|60:284|192:312,1,210.000001788139,6|8,0:0|0:0,0:0:0:0:
320,268,26790,2,0,P|312:220|244:140,1,140.000001192093,8|8,0:0|0:0,0:0:0:0:
292,72,27690,6,0,P|416:76|488:124,1,210.000001788139,2|8,0:0|0:0,0:0:0:0:
492,204,28890,2,0,P|452:276|384:300,1,140.000001192093,2|2,0:0|0:0,0:0:0:0:
240,340,30090,6,0,B|156:328|140:252|140:252|72:252,1,210.000001788139,6|8,0:0|0:0,0:0:0:0:
20,92,31590,2,0,P|56:48|144:20,1,140.000001192093,8|8,0:0|0:0,0:0:0:0:
200,68,32490,6,0,P|240:144|356:192,1,210.000001788139,2|8,0:0|0:0,0:0:0:0:
452,324,33990,2,0,L|308:356,1,140.000001192093,8|8,0:0|0:0,0:0:0:0:
232,344,34890,6,0,B|196:280|216:228|216:228|168:144,1,210.000001788139,6|8,0:0|0:0,0:0:0:0:
72,16,36390,2,0,L|0:24,2,70.0000005960464,8|2|8,0:0|0:0|0:0,0:0:0:0:
156,28,37290,6,0,P|224:44|304:156,1,210.000001788139,2|8,0:0|0:0,0:0:0:0:
256,312,38790,1,8,0:0:0:0:
200,376,39090,6,0,P|168:316|192:248,2,140.000001192093,2|6|8,0:0|0:0|0:0,0:0:0:0:
368,364,40890,1,2,0:0:0:0:
412,292,41190,2,0,L|496:292,2,70.0000005960464,2|2|8,0:0|0:0|0:0,0:0:0:0:
368,364,42090,6,0,P|332:300|360:228,1,140.000001192093,2|2,0:0|0:0,0:0:0:0:
424,196,42990,1,8,0:0:0:0:
484,136,43290,2,0,L|472:60,1,70.0000005960464,2|8,0:0|0:0,0:0:0:0:
396,36,43890,2,0,L|312:36,1,70.0000005960464,2|8,0:0|0:0,0:0:0:0:
244,44,44490,6,0,P|212:108|244:248,1,210.000001788139,6|8,0:0|0:0,0:0:0:0:
260,320,45690,2,0,P|184:360|44:344,1,210.000001788139,2|8,0:0|0:0,0:0:0:0:
28,276,46890,5,6,0:0:0:0:
52,196,47190,2,0,P|56:120|16:64,2,140.000001192093,8|8|8,0:0|0:0|0:0,0:0:0:0:
140,188,48690,2,0,P|168:208|188:244,1,70.0000005960464,2|8,0:0|0:0,0:0:0:0:
168,320,49290,6,0,P|284:340|320:324,2,140.000001192093,6|8|2,0:0|0:0|0:0,0:0:0:0:
80,176,51090,1,8,0:0:0:0:
208,64,51690,6,0,P|324:56|420:108,1,210.000001788139,6|8,0:0|0:0,0:0:0:0:
472,148,52890,2,0,P|484:184|484:228,1,70.0000005960464,2|0,0:0|0:0,0:0:0:0:
456,296,53490,2,0,P|416:312|372:312,1,70.0000005960464,2|8,0:0|0:0,0:0:0:0:
304,308,54090,6,0,P|248:204|252:172,1,140.000001192093,6|2,0:0|0:0,0:0:0:0:
168,40,55290,2,0,P|104:48|48:108,1,140.000001192093,0|2,0:0|0:0,0:0:0:0:
44,268,56490,5,0,0:0:0:0:
148,340,56940,2,0,P|196:304|216:224,1,140.000001192093
56,96,58290,1,0,0:0:0:0:
172,48,58740,6,0,P|296:36|340:64,1,175.000001490116,2|2,0:0|0:0,0:0:0:0:
284,176,59940,2,0,P|260:256|308:344,1,175.000001490116,2|2,0:0|0:0,0:0:0:0:
424,328,61140,2,0,P|448:248|400:160,1,175.000001490116,2|2,0:0|0:0,0:0:0:0:
368,52,62340,2,0,L|440:40,2,70.0000005960464,2|2|2,0:0|0:0|0:0,0:0:0:0:
292,204,63540,6,0,P|232:264|144:260,1,175.000001490116,6|2,0:0|0:0,0:0:0:0:
104,144,64740,2,0,P|164:84|252:88,1,175.000001490116,2|2,0:0|0:0,0:0:0:0:
360,148,65940,6,0,P|372:192|320:324,1,175.000001490116,2|8,0:0|0:0,0:0:0:0:
212,344,67140,2,0,P|132:348|60:272,1,175.000001490116,2|2,0:0|0:0,0:0:0:0:
20,168,68340,6,0,P|100:164|172:240,1,175.000001490116,2|2,0:0|0:0,0:0:0:0:
260,308,69540,2,0,P|336:304|396:228,1,175.000001490116,2|0,0:0|0:0,0:0:0:0:
280,192,70740,6,0,P|304:116|264:24,1,175.000001490116,2|2,0:0|0:0,0:0:0:0:
144,40,71940,2,0,L|60:32,2,70.0000005960464,2|2|2,0:0|0:0|0:0,0:0:0:0:
268,152,73140,6,0,B|300:196|384:200|384:200|396:264,1,175.000001490116,6|2,0:0|0:0,0:0:0:0:
304,336,74340,2,0,P|240:368|136:352,1,175.000001490116,2|2,0:0|0:0,0:0:0:0:
68,252,75540,6,0,P|92:180|52:80,1,175.000001490116,6|2,0:0|0:0,0:0:0:0:
112,24,76590,1,0,0:0:0:0:
192,48,76890,2,0,P|300:40|392:96,1,210.000001788139,6|8,0:0|0:0,0:0:0:0:
428,160,78090,6,0,P|408:232|324:292,1,175.000001490116,2|8,0:0|0:0,0:0:0:0:
248,272,79140,2,0,P|232:228|184:196,1,105.00000089407,0|0,0:0|0:0,0:0:0:0:
128,136,79890,2,0,P|92:136|56:160,1,70.0000005960464
32,232,80490,5,6,0:0:0:0:
384,112,90090,5,6,0:0:0:0:
456,156,90390,2,0,P|472:216|400:336,1,210.000001788139,2|2,0:0|0:0,0:0:0:0:
324,304,91590,1,2,0:0:0:0:
252,260,91890,2,0,P|208:260|172:272,1,70.0000005960464,2|0,0:0|0:0,0:0:0:0:
100,280,92490,5,2,0:0:0:0:
36,228,92790,2,0,P|64:124|152:64,1,210.000001788139,2|2,0:0|0:0,0:0:0:0:
220,36,93990,2,0,P|272:32|300:32,1,70.0000005960464,2|2,0:0|0:0,0:0:0:0:
368,60,94590,5,2,0:0:0:0:
304,116,94890,2,0,P|260:172|292:312,1,210.000001788139,2|2,0:0|0:0,0:0:0:0:
352,348,96090,2,0,P|384:356|432:348,1,70.0000005960464,2|2,0:0|0:0,0:0:0:0:
472,288,96690,2,0,P|488:252|484:216,1,70.0000005960464,2|2,0:0|0:0,0:0:0:0:
404,236,97290,6,0,B|360:172|376:80|376:80|324:80,1,210.000001788139,2|2,0:0|0:0,0:0:0:0:
264,132,98490,2,0,P|228:144|184:140,1,70.0000005960464,2|0,0:0|0:0,0:0:0:0:
188,60,99090,1,2,0:0:0:0:
44,144,99690,6,0,P|40:256|120:340,1,210.000001788139,6|8,0:0|0:0,0:0:0:0:
264,292,101190,1,8,0:0:0:0:
336,336,101490,2,0,P|376:336|416:324,1,70.0000005960464,2|8,0:0|0:0,0:0:0:0:
476,280,102090,6,0,P|476:200|384:92,1,210.000001788139,2|8,0:0|0:0,0:0:0:0:
248,28,103590,1,8,0:0:0:0:
208,100,103890,2,0,P|172:108|128:104,1,70.0000005960464,2|8,0:0|0:0,0:0:0:0:
60,140,104490,6,0,P|56:232|116:344,1,210.000001788139,6|8,0:0|0:0,0:0:0:0:
272,296,105990,2,0,L|356:296,2,70.0000005960464,8|2|8,0:0|0:0|0:0,0:0:0:0:
248,216,106890,6,0,L|392:216,1,140.000001192093,2|2,0:0|0:0,0:0:0:0:
404,132,107790,1,8,0:0:0:0:
484,156,108090,2,0,P|500:196|496:232,1,70.0000005960464,2|8,0:0|0:0,0:0:0:0:
468,300,108690,2,0,P|448:328|404:352,1,70.0000005960464,2|0,0:0|0:0,0:0:0:0:
336,348,109290,6,0,P|268:316|112:328,1,210.000001788139,2|8,0:0|0:0,0:0:0:0:
44,176,110790,2,0,L|28:84,2,70.0000005960464,2|2|8,0:0|0:0|0:0,0:0:0:0:
116,220,111690,6,0,P|196:216|292:136,1,210.000001788139,0|8,0:0|0:0,0:0:0:0:
348,72,112890,2,0,P|436:96|488:208,1,210.000001788139,2|8,0:0|0:0,0:0:0:0:
432,260,114090,6,0,P|344:236|292:124,1,210.000001788139,6|8,0:0|0:0,0:0:0:0:
244,68,115290,2,0,P|152:68|56:136,1,210.000001788139,2|8,0:0|0:0,0:0:0:0:
36,216,116490,6,0,B|88:280|92:344|92:344|164:344,1,210.000001788139,6|8,0:0|0:0,0:0:0:0:
232,300,117690,2,0,P|284:288|320:292,2,70.0000005960464,2|8|2,0:0|0:0|0:0,0:0:0:0:
180,232,118590,1,8,0:0:0:0:
244,176,118890,6,0,P|176:144|112:176,1,140.000001192093,6|8,0:0|0:0,0:0:0:0:
72,236,119790,1,0,0:0:0:0:
116,308,120090,2,0,P|188:328|260:288,1,140.000001192093,2|12,0:0|0:0,0:0:0:0:
236,220,120990,1,0,0:0:0:0:
312,180,121290,6,0,P|376:96|476:128,1,210.000001788139,2|8,0:0|0:0,0:0:0:0:
500,196,122490,2,0,P|436:280|336:248,1,210.000001788139,2|8,0:0|0:0,0:0:0:0:
264,232,123690,6,0,P|188:240|140:284,2,140.000001192093,6|0|0,0:0|0:0|0:0,0:0:0:0:
304,68,125490,1,2,0:0:0:0:
140,28,126090,6,0,P|44:72|20:204,1,245.000002086162,6|6,0:0|0:0,0:0:0:0:
192,320,127890,1,0,0:0:0:0:
316,328,128340,6,0,P|308:268|212:196,1,175.000001490116,6|2,0:0|0:0,0:0:0:0:
184,80,129540,2,0,P|288:44|360:60,1,175.000001490116,2|2,0:0|0:0,0:0:0:0:
436,148,130740,2,0,P|452:240|420:324,1,175.000001490116,2|2,0:0|0:0,0:0:0:0:
304,344,131940,2,0,L|228:364,2,70.0000005960464,6|2|2,0:0|0:0|0:0,0:0:0:0:
316,176,133140,6,0,P|304:100|212:44,1,175.000001490116,2|2,0:0|0:0,0:0:0:0:
112,96,134340,2,0,P|104:180|36:236,1,175.000001490116,2|2,0:0|0:0,0:0:0:0:
104,344,135540,6,0,P|188:368|280:352,1,175.000001490116,2|8,0:0|0:0,0:0:0:0:
260,228,136740,2,0,P|252:156|148:96,1,175.000001490116,2|0,0:0|0:0,0:0:0:0:
284,36,137940,6,0,P|408:28|472:64,1,175.000001490116,6|2,0:0|0:0,0:0:0:0:
440,176,139140,2,0,P|316:184|252:148,1,175.000001490116,2|2,0:0|0:0,0:0:0:0:
148,156,140340,6,0,P|112:236|120:328,1,175.000001490116,2|2,0:0|0:0,0:0:0:0:
244,344,141540,2,0,L|316:356,2,70.0000005960464,2|2|2,0:0|0:0|0:0,0:0:0:0:
176,192,142740,6,0,P|224:132|224:36,1,175.000001490116,6|2,0:0|0:0,0:0:0:0:
352,24,143940,2,0,P|428:32|504:96,1,175.000001490116,2|2,0:0|0:0,0:0:0:0:
504,220,145140,6,0,P|464:320|384:352,1,175.000001490116,6|2,0:0|0:0,0:0:0:0:
336,304,146190,1,0,0:0:0:0:
256,336,146490,2,0,P|224:320|184:320,1,70.0000005960464,2|8,0:0|0:0,0:0:0:0:
108,316,147090,2,0,P|84:288|72:248,1,70.0000005960464,2|0,0:0|0:0,0:0:0:0:
60,176,147690,6,0,P|148:128|236:152,1,175.000001490116,2|8,0:0|0:0,0:0:0:0:
300,164,148740,2,0,P|296:212|328:272,1,105.00000089407,8|0,0:0|0:0,0:0:0:0:
392,304,149490,2,0,P|436:304|468:288,1,70.0000005960464
476,212,150090,5,12,0:0:0:0:
256,192,159090,5,8,0:0:0:0:
160,328,159690,6,0,P|100:260|92:196,2,140.000001192093,2|8|8,0:0|0:0|0:0,0:0:0:0:
256,192,161490,1,8,0:0:0:0:
356,328,162090,6,0,P|416:260|424:196,2,140.000001192093,2|8|8,0:0|0:0|0:0,0:0:0:0:
256,192,163890,1,8,0:0:0:0:
328,40,164490,6,0,P|256:28|180:40,1,140.000001192093,2|8,0:0|0:0,0:0:0:0:
72,156,165690,1,8,0:0:0:0:
76,324,166290,1,8,0:0:0:0:
240,364,166890,6,0,P|304:364|376:340,1,140.000001192093,2|8,0:0|0:0,0:0:0:0:
460,196,168090,2,0,P|420:128|436:32,1,175.000001490116,2|2,0:0|0:0,0:0:0:0:
348,28,169140,6,0,P|292:20|188:76,1,175.000001490116,6|2,0:0|0:0,0:0:0:0:
296,140,170340,2,0,P|348:156|380:204,2,105.00000089407,2|8|2,0:0|0:0|0:0,0:0:0:0:
276,220,171540,6,0,P|264:304|192:356,1,175.000001490116,2|2,0:0|0:0,0:0:0:0:
152,236,172740,2,0,P|100:224|4:244,1,140.000001192093
100,92,173940,2,0,P|152:104|228:88,1,105.00000089407,2|8,0:0|0:0,0:0:0:0:
272,144,174690,6,0,P|348:88|468:104,1,210.000001788139,2|8,0:0|0:0,0:0:0:0:
500,176,175890,2,0,P|488:256|392:344,1,210.000001788139,2|8,0:0|0:0,0:0:0:0:
316,316,177090,5,2,0:0:0:0:
220,232,177540,2,0,P|220:188|212:156,1,70.0000005960464,2|2,0:0|0:0,0:0:0:0:
152,108,178140,2,0,P|112:108|84:132,1,70.0000005960464,2|2,0:0|0:0,0:0:0:0:
48,200,178740,6,0,P|96:300|224:328,1,245.000002086162,6|8,0:0|0:0,0:0:0:0:
372,256,180390,1,8,0:0:0:0:
448,216,180690,2,0,P|460:168|436:112,1,105.00000089407,2|2,0:0|0:0,0:0:0:0:
328,60,181590,5,0,0:0:0:0:
256,108,181890,2,0,P|168:128|100:108,1,140.000001192093,8|8,0:0|0:0,0:0:0:0:
40,100,182790,1,8,0:0:0:0:
24,184,183090,2,0,P|36:260|60:296,1,105.00000089407,2|2,0:0|0:0,0:0:0:0:
168,328,183990,6,0,P|272:288|308:296,2,140.000001192093,8|8|8,0:0|0:0|0:0,0:0:0:0:
84,312,185490,2,0,P|64:260|68:196,1,105.00000089407,2|2,0:0|0:0,0:0:0:0:
84,88,186390,5,8,0:0:0:0:
168,92,186690,2,0,P|208:108|228:140,1,70.0000005960464,2|8,0:0|0:0,0:0:0:0:
268,204,187290,2,0,P|368:192|428:152,1,175.000001490116,2|8,0:0|0:0,0:0:0:0:
416,68,188340,6,0,P|336:32|244:44,1,175.000001490116,6|2,0:0|0:0,0:0:0:0:
124,48,189540,2,0,L|32:28,2,70.0000005960464,2|2|2,0:0|0:0|0:0,0:0:0:0:
228,180,190740,6,0,P|256:232|252:288,1,105.00000089407,6|2,0:0|0:0,0:0:0:0:
220,352,191490,2,0,P|180:360|140:352,1,70.0000005960464
80,316,192090,2,0,P|68:248|92:176,1,140.000001192093,2|2,0:0|0:0,0:0:0:0:
176,88,193140,6,0,P|260:56|348:68,1,175.000001490116,6|2,0:0|0:0,0:0:0:0:
448,132,194340,2,0,P|468:208|444:300,1,175.000001490116,2|2,0:0|0:0,0:0:0:0:
328,348,195540,6,0,P|244:352|152:312,1,175.000001490116,2|2,0:0|0:0,0:0:0:0:
188,196,196740,2,0,P|188:108|120:44,1,175.000001490116,2|2,0:0|0:0,0:0:0:0:
16,100,197940,6,0,P|16:188|84:252,1,175.000001490116,6|8,0:0|0:0,0:0:0:0:
192,284,199140,2,0,B|276:280|316:324|316:324|356:300,1,175.000001490116,2|8,0:0|0:0,0:0:0:0:
460,240,200340,6,0,P|428:176|456:80,1,175.000001490116,2|8,0:0|0:0,0:0:0:0:
296,32,201690,1,2,0:0:0:0:
280,116,201990,2,0,P|244:136|220:160,2,70.0000005960464
296,200,202890,6,0,P|308:276|296:332,2,105.00000089407,6|8|8,0:0|0:0|0:0,0:0:0:0:
224,156,204090,1,0,0:0:0:0:
256,76,204390,2,0,L|328:48,2,70.0000005960464,0|2|2,0:0|0:0|0:0,0:0:0:0:
176,48,205290,6,0,P|92:80|76:240,1,245.000002086162,6|2,0:0|0:0,0:0:0:0:
236,344,207090,1,8,0:0:0:0:
360,344,207540,6,0,P|440:332|492:256,1,175.000001490116,6|2,0:0|0:0,0:0:0:0:
408,164,208740,2,0,B|348:144|332:88|332:88|260:88,1,175.000001490116,2|2,0:0|0:0,0:0:0:0:
148,124,209940,6,0,P|116:192|140:296,1,175.000001490116,2|2,0:0|0:0,0:0:0:0:
244,348,211140,2,0,L|312:360,2,70.0000005960464,6|2|2,0:0|0:0|0:0,0:0:0:0:
100,260,212340,6,0,P|44:172|60:100,1,175.000001490116,2|2,0:0|0:0,0:0:0:0:
172,56,213540,2,0,P|236:88|340:84,1,175.000001490116,2|2,0:0|0:0,0:0:0:0:
460,48,214740,6,0,P|488:84|488:212,1,175.000001490116,2|2,0:0|0:0,0:0:0:0:
408,304,215940,2,0,P|348:328|280:328,1,105.00000089407,2|8,0:0|0:0,0:0:0:0:
232,296,216690,1,0,0:0:0:0:
224,172,217140,6,0,P|188:80|108:40,1,175.000001490116,2|2,0:0|0:0,0:0:0:0:
28,120,218340,2,0,P|64:212|144:252,1,175.000001490116,2|2,0:0|0:0,0:0:0:0:
236,312,219540,6,0,P|300:304|412:340,1,175.000001490116,2|2,0:0|0:0,0:0:0:0:
472,228,220740,2,0,L|480:152,2,70.0000005960464,2|2|2,0:0|0:0|0:0,0:0:0:0:
352,344,221940,6,0,P|248:356|164:312,1,175.000001490116,2|2,0:0|0:0,0:0:0:0:
148,208,223140,2,0,P|164:116|236:56,1,175.000001490116,2|2,0:0|0:0,0:0:0:0:
348,52,224340,2,0,P|424:76|488:168,1,175.000001490116,2|2,0:0|0:0,0:0:0:0:
420,208,225390,1,12,0:0:0:0:
480,268,225690,6,0,P|456:296|416:312,1,70.0000005960464,2|8,0:0|0:0,0:0:0:0:
344,320,226290,2,0,P|304:300|276:300,1,70.0000005960464,2|8,0:0|0:0,0:0:0:0:
196,284,226890,6,0,P|120:240|88:148,1,175.000001490116,2|8,0:0|0:0,0:0:0:0:
120,84,227940,2,0,P|228:52|304:76,1,175.000001490116,2|0,0:0|0:0,0:0:0:0:
256,192,229140,12,0,232740,0:0:0:0:
256,192,233940,12,2,238740,0:0:0:0:
