osu file format v5

[General]
AudioFilename: Top Gear - Mad Racer.mp3
AudioLeadIn: 1500
PreviewTime: -1
Countdown: 1
SampleSet: Normal
StackLeniency: 0
Mode: 0
LetterboxInBreaks: 1
EditorBookmarks: 1578,3114,4650,6186,18474,23081,24617,27688,30760,33832,36905,41512,43048,46120,49192,52264,55336,59945,61480,63015,64551,66088,67624,79912,86055,92200,93352,104487,116775,122918,141350,144421,147493,153253,153638,156708,159780,162852,165924,171300,172068,175140,178212,181284,184356,188964,190502

[Metadata]
Title:Mad Racer
Artist:Barry Leitch
Creator:nomedeusuarionaodisp
Version:Professional
Source:Top Gear
Tags:

[Difficulty]
HPDrainRate:6
CircleSize:5
OverallDifficulty:6
SliderMultiplier:1.4
SliderTickRate:4

[Events]
//Background and Video events
0,0,"Top Gear (U) [!]_00001.png"
//Break Periods
2,12146,17273
2,67440,79012
//Storyboard Layer 0 (Background)
//Storyboard Layer 1 (Failing)
//Storyboard Layer 2 (Passing)
//Storyboard Layer 3 (Foreground)
//Storyboard Sound Samples
//Background Colour Transformations
3,100,0,0,0

[TimingPoints]
18474,383.99709686521,4,2,0,100,1
24617,383.99709686521,4,1,0,61,1
43048,383.99709686521,4,1,0,61,1
79912,383.99709686521,4,2,0,100,1
116775,383.99709686521,4,1,0,60,1
141350,383.99709686521,4,2,0,100,1
153637,383.99709686521,4,1,0,60,1

[Colours]
Combo1 : 23,104,153
Combo2 : 153,23,23
Combo3 : 200,200,232
Combo4 : 120,24,120

[HitObjects]
32,352,42,2,0,L|480:352|480:288,1,490,0|8
480,240,1578,6,0,L|32:240|32:192,1,490,0|8
32,128,3114,6,0,L|480:128|480:80,1,490,0|8
480,16,4650,6,0,L|32:16|32:112,1,490,0|8
32,128,6186,5,0
32,192,6378,1,0
32,256,6571,1,8
160,256,6955,1,0
288,256,7338,1,8
352,256,7530,5,0
480,256,7914,1,0
480,192,8107,1,8
352,192,8491,1,0
224,192,8874,1,8
96,192,9258,5,0
32,192,9450,1,0
32,128,9642,1,8
160,128,10025,1,0
288,128,10410,1,8
256,192,10602,12,8,11946
256,192,18473,5,2
256,192,18857,1,2
256,192,19241,1,2
256,192,19625,1,2
256,192,20009,1,2
256,192,20393,1,2
256,192,20777,1,2
256,192,21161,1,2
256,192,21545,1,2
256,192,21929,1,2
256,192,22313,1,2
256,192,22697,1,2
256,48,23081,5,4
112,192,23465,1,4
256,336,23849,1,4
400,192,24233,1,4
400,64,24617,6,0,L|256:64,1,140,0|8
224,64,25096,1,0
160,64,25287,1,0
96,64,25480,1,0
64,64,25576,1,0
64,128,25768,1,8
64,192,25960,1,0
64,256,26152,2,0,L|144:256,3,70,0|0|8|0
168,256,26825,1,0
256,120,27304,5,8
360,192,27688,5,0
296,192,27880,1,0
232,192,28072,2,0,L|192:192,1,35,8|0
199,128,28360,2,0,B|272:48,1,105
272,112,28839,1,8
272,176,29031,1,0
336,176,29224,1,0
336,112,29416,1,0
336,48,29608,1,8
336,112,29800,1,0
336,144,29896,1,0
368,288,30376,5,8
368,288,30568,1,8
304,288,30760,6,0,L|224:288|224:216,1,140,0|8
224,228,31239,1,0
224,168,31430,1,0
168,128,31624,1,0
144,112,31719,1,0
144,176,31911,1,8
144,240,32103,1,0
144,304,32295,2,0,L|304:304,1,140,0|8
344,304,32872,1,0
344,304,32968,1,0
456,192,33448,5,8
456,64,33832,6,0,L|288:64,1,140,0|8
352,112,34408,2,0,L|288:112,1,35
224,112,34791,1,0
184,160,34984,2,8,L|472:160,1,280
424,208,35944,1,0
392,208,36040,1,0
480,336,36520,5,8
480,336,36712,1,8
416,336,36904,6,2,B|192:336,1,210,0|8
80,336,37864,1,0
16,336,38056,1,8
80,336,38248,1,0
80,240,38440,2,2,B|304:240,1,210,2|10
416,240,39400,1,0
480,240,39592,1,8
416,240,39784,1,0
416,128,39976,2,2,B|192:128,1,210,2|10
80,128,40936,1,0
80,64,41128,1,8
144,64,41320,1,0
240,64,41512,5,2
336,64,41704,1,2
432,64,41896,1,10
432,160,42088,1,0
336,160,42280,1,8
240,160,42472,1,8
144,160,42664,1,8
48,160,42856,1,10
48,224,43048,5,0
48,288,43240,1,0
112,288,43432,1,8
112,288,43527,1,0
112,224,43718,1,0
176,224,43912,1,0
208,224,44008,2,0,L|296:224,1,70,0|8
336,224,44392,1,0
400,224,44583,2,0,L|400:144,3,70,0|0|8|0
400,128,45256,1,0
240,128,45735,5,8
112,128,46120,6,0,L|112:208,2,70,0|0|8
112,96,46600,1,0
112,32,46793,2,0,L|312:32,1,175,0|8
352,32,47462,1,0
352,96,47655,1,0
416,96,47847,1,0
416,32,48039,1,8
480,32,48231,1,0
480,64,48327,1,0
488,224,48807,5,8
488,224,48999,1,8
488,288,49191,6,0,L|408:288|352:224,1,140,0|8
352,216,49670,1,0
352,152,49861,1,0
312,200,50056,1,0
264,240,50150,1,0
264,176,50342,1,8
264,112,50534,1,0
201,106,50726,2,0,L|201:266,1,140,0|8
200,184,51303,1,0
200,184,51399,1,0
40,184,51879,5,8
40,312,52264,5,0
40,312,52456,1,0
40,312,52648,2,0,L|120:312,1,70,8|0
144,312,52936,2,0,L|264:312,1,105
312,312,53416,2,0,L|392:312,1,70,8|0
448,312,53800,2,0,L|368:312,1,70
376,248,54184,1,8
376,184,54375,1,0
376,184,54471,1,0
216,184,54951,5,8
216,184,55143,1,8
152,184,55336,6,2,L|24:184|24:320|184:320,1,420,2|10
304,320,56872,2,2,L|472:320|472:50,1,420,2|10
345,69,58408,2,2,L|185:69,3,140,2|0|0|10
78,65,59944,6,0,L|78:113,12,35,0|0|0|0|0|0|0|0|0|0|0|0|8
79,128,61288,1,8
80,192,61479,5,0
80,224,61575,1,0
80,256,61671,1,0
80,288,61767,1,0
112,288,61863,1,0
112,256,61959,1,0
112,224,62055,1,0
112,192,62151,1,0
144,192,62247,1,0
144,224,62343,1,0
144,256,62439,1,0
144,288,62535,1,0
144,288,62631,1,8
208,288,62824,1,8
272,288,63015,6,0,B|320:288,1,35
336,288,63207,2,0,B|384:288,1,35
400,288,63399,2,0,B|448:288,1,35
432,256,63591,2,0,B|384:256,1,35
368,256,63783,2,0,B|320:256,1,35
304,256,63975,2,0,B|256:256,1,35
240,256,64167,1,8
240,192,64360,1,8
256,192,64551,12,8,65703
256,192,65896,5,8
256,80,66088,5,6
80,192,66472,1,6
256,304,66856,1,6
432,192,67240,1,6
200,48,79912,5,0
312,48,80487,1,0
256,224,81063,1,8
256,96,81447,1,0
256,344,82215,1,10
344,104,82983,5,0
152,104,83559,1,0
256,264,84135,1,8
256,136,84519,2,0,L|256:64,7,70,0|0|0|0|0|0|0|10
256,136,86055,5,0
256,328,86631,1,0
192,152,87207,1,8
320,152,87590,1,0
136,320,88359,1,10
384,320,89127,5,0
256,176,89703,1,0
256,368,90279,1,8
256,240,90663,2,0,L|256:24,2,210,0|0|10
256,192,92199,12,6,93351
