osu file format v5

[General]
AudioFilename: Barrel Roll Song EDITTED.mp3
AudioLeadIn: 3000
PreviewTime: 13452
Countdown: 3
SampleSet: Normal
StackLeniency: 0.7
Mode: 0
LetterboxInBreaks: 1
EditorBookmarks: 1714

[Metadata]
Title:Do a Barrel Roll!
Artist:
Creator:Remco32
Version:Normal
Source:StarFox64
Tags:Starfox Star fox Nintendo 64 N64

[Difficulty]
HPDrainRate:3
CircleSize:4
OverallDifficulty:3
SliderMultiplier:1.6
SliderTickRate:2

[Events]
//Background and Video events
0,0,"barrelroll.jpg"
//Break Periods
//Storyboard Layer 0 (Background)
//Storyboard Layer 1 (Failing)
//Storyboard Layer 2 (Passing)
//Storyboard Layer 3 (Foreground)
//Storyboard Sound Samples
//Background Colour Transformations
3,100,0,0,0

[TimingPoints]
78,426.287744227353,4,1,1,75,1
13693,388.349514563107,4,1,1,80,1
26064,356.612184249629,4,1,1,85,1
37437,327.868852459016,4,1,1,90,1

[Colours]
Combo1 : 250,4,18
Combo2 : 57,126,187
Combo3 : 4,250,5
Combo4 : 192,164,64

[HitObjects]
224,96,78,5,0
320,96,504,1,0
320,176,930,2,0,B|144:176,1,160
144,256,1783,2,0,B|320:256,3,160
368,208,3488,5,0
400,176,3701,1,0
400,128,3914,1,0
376,80,4127,1,2
400,128,4340,1,0
400,176,4554,1,0
368,208,4767,1,8
256,192,5193,12,2,6472
224,288,6898,6,0,B|400:288,1,160
400,208,7751,2,0,B|208:208,1,160
176,160,8603,2,0,B|176:336,2,160
176,80,9882,1,0
256,80,10308,5,0
288,112,10522,1,0
288,160,10735,1,0
264,200,10948,1,2
288,160,11161,1,0
288,112,11374,1,0
256,80,11587,1,8
256,192,12014,12,4,13292
336,48,13693,6,0,B|336:224,1,160
256,192,14469,2,0,B|256:368,1,160
176,336,15246,2,0,B|80:304|80:128|80:64|176:32,1,320
208,64,16411,1,2
320,112,16799,5,0
288,144,16993,1,0
320,176,17188,1,0
288,208,17382,1,0
320,240,17576,1,0
280,264,17770,2,2,B|184:264,1,80
256,192,18353,12,6,19518
208,144,19906,6,0,B|304:144,1,80
336,144,20294,1,8
320,224,20683,2,0,B|224:224,1,80
192,224,21071,1,8
112,224,21459,2,0,B|112:128,1,80
112,96,21848,2,0,B|208:96,4,80,0|0|0|0|8
112,176,23013,2,0,B|112:272,1,80,0|0
112,304,23401,2,0,B|208:304,4,80,0|0|0|0|2
256,192,24566,12,4,25731
176,128,26064,6,0,B|352:128,1,160
352,208,26777,2,0,B|176:208,1,160
112,208,27490,1,0
112,176,27668,1,2
112,144,27847,1,0
112,112,28025,1,2
72,112,28203,1,0
72,144,28381,1,2
72,176,28560,1,8
64,256,28916,6,0,B|432:256,1,320
384,256,29986,1,2
384,176,30343,2,2,B|288:176,6,80,2|8|2|8|2|8|2
256,192,31769,12,4,36762
229,35,37437,6,0,B|149:115|245:195,1,160
272,112,38092,2,0,B|352:192|256:272,1,160
224,176,38748,2,0,B|144:256|240:336,1,160,0|0
304,336,39404,1,2
384,336,39732,1,2
384,256,40059,6,0,B|384:80,1,160
480,128,40715,1,2
480,160,40879,1,2
480,192,41043,1,2
256,192,41371,12,4,42355
288,96,42682,5,0
288,128,42846,1,0
288,160,43010,1,8
224,208,43338,1,0
224,240,43502,1,0
224,272,43666,1,8
256,192,43994,12,2,44977
352,80,45305,6,0,B|352:368|256:192|144:0|144:336,1,480
256,192,46617,12,6,47601
