osu file format v5

[General]
AudioFilename: Barrel Roll Song EDITTED.mp3
AudioLeadIn: 3000
PreviewTime: 25869
Countdown: 3
SampleSet: Normal
StackLeniency: 0.7
Mode: 0
LetterboxInBreaks: 1
EditorBookmarks: 46603,47592

[Metadata]
Title:Do a Barrel Roll!
Artist:
Creator:Remco32
Version:Insane
Source:StarFox64
Tags:Starfox Star fox Nintendo 64 N64

[Difficulty]
HPDrainRate:6
CircleSize:4
OverallDifficulty:6
SliderMultiplier:2
SliderTickRate:2

[Events]
//Background and Video events
0,0,"barrelroll.jpg"
//Break Periods
//Storyboard Layer 0 (Background)
//Storyboard Layer 1 (Failing)
//Storyboard Layer 2 (Passing)
//Storyboard Layer 3 (Foreground)
//Storyboard Sound Samples
//Background Colour Transformations
3,100,163,162,255

[TimingPoints]
78,426.287744227353,4,1,1,75,1
13693,388.349514563107,4,1,1,80,1
26064,356.612184249629,4,1,1,85,1
37437,327.868852459016,4,1,1,90,1

[Colours]
Combo1 : 250,4,18
Combo2 : 57,126,187
Combo3 : 4,250,5
Combo4 : 192,164,64

[HitObjects]
144,96,77,5,0
208,96,291,1,0
272,96,504,2,2,B|448:96,1,100
368,160,930,5,0
304,160,1143,1,0
240,160,1356,2,2,B|64:160,1,100
64,240,1783,6,0,B|480:240,1,400
464,240,2848,1,8
464,240,3062,1,8
336,224,3488,6,0,C|336:112,1,100
336,64,3914,2,0,C|224:64,1,100
240,112,4340,2,0,C|352:192,1,100,0|8
336,224,4767,2,0,C|240:160,1,100,8|0
256,192,5193,12,4,6472
384,288,6898,6,0,B|384:80,1,200
224,80,7751,2,0,B|224:208,1,100
224,176,8070,1,8
224,208,8177,1,8
80,320,8603,2,0,B|496:320,1,400
480,320,9669,1,8
480,320,9882,1,8
368,160,10308,6,8,B|368:48,1,100
320,64,10628,1,0
272,64,10735,1,0
224,64,10841,1,0
176,64,10948,1,0
128,64,11054,1,0
80,64,11161,2,0,B|80:192,1,100,0|8
80,240,11587,1,8
256,192,12014,12,2,13292
215,288,13693,5,0
215,224,13887,1,0
216,160,14081,2,2,B|216:-16,1,100
295,48,14469,5,0
295,112,14663,1,0
296,168,14858,2,2,B|296:344,1,100
224,304,15246,6,0,B|96:208|248:13|384:240,1,400
381,235,16217,1,8
381,235,16411,1,2
384,80,16799,6,0,B|256:80,3,100
208,80,17576,1,0
208,80,17770,1,8
208,80,17964,1,2
256,192,18159,12,0,19518
432,112,19906,5,0
400,144,20003,1,0
336,96,20197,1,2
304,128,20294,1,2
208,128,20683,1,0
176,96,20780,1,0
128,144,20974,1,2
96,112,21071,1,2
208,272,21459,2,0,B|256:320|320:256,1,100
256,240,21751,1,0
256,192,21848,2,0,B|256:80,1,100,4|4
256,192,22139,12,2,22625
112,288,23013,6,0,B|336:288,1,200
352,288,23498,1,8
352,240,23595,1,8
352,144,23790,2,0,B|128:144,1,200,0|2
256,192,24566,12,2,25731
64,64,26064,6,0,C|224:64,1,150
240,64,26420,1,8
368,160,26777,2,0,C|208:160,1,150
192,160,27133,1,8
32,160,27490,2,0,B|32:320|144:320,1,200
176,320,28025,1,0
240,320,28203,1,0
304,320,28381,2,2,B|304:256|240:256,1,100
464,240,28916,6,8,B|464:128,1,100
384,144,29273,1,0
352,144,29362,1,0
320,144,29451,1,0
256,144,29630,1,0
224,144,29719,1,0
192,144,29808,2,0,B|192:272,2,100,2|0|2
256,192,30343,12,2,31413
395,67,31769,6,0,B|443:115|395:163,2,100
395,227,32483,2,0,B|443:275|395:323,2,100,2|2|2
240,192,33196,2,0,B|32:192,1,200
112,216,33731,1,0
192,216,33909,1,2
272,216,34087,1,8
272,216,34266,2,0,B|480:216,1,200,2|0
400,192,34800,1,0
320,192,34979,1,0
240,192,35157,1,0
160,192,35335,1,2
80,192,35514,1,0
80,192,35692,1,10
256,192,36049,12,10,37118
352,80,37437,6,0,B|416:80|416:160,1,100
336,160,37764,2,0,B|272:160|272:80,1,100
192,112,38092,2,0,B|128:112|128:192,1,100
208,192,38420,2,0,B|208:256|128:256,1,100
256,192,38748,12,2,39732
256,32,40059,6,2,B|256:96,1,50
256,128,40223,1,2
256,128,40305,1,0
256,160,40387,2,2,B|256:304,1,100
224,304,40715,2,10,B|80:224,2,100
224,176,41371,6,2,B|161:69|256:80|352:80|352:192|352:272|173:272|114:299|144:96,1,500
139,139,42355,1,2
144,256,42682,5,2
208,256,42846,1,0
272,256,43010,1,2
272,256,43092,1,2
336,192,43338,1,2
272,192,43502,1,0
208,192,43666,1,2
208,192,43748,1,2
112,192,43994,2,2,B|112:112|272:128,1,150
256,128,44322,1,2
320,128,44486,1,2
384,128,44650,1,2
320,128,44814,1,2
256,128,44977,1,2
336,208,45305,6,0,B|224:208,1,100,0|2
176,224,45633,2,2,B|304:224,1,100
320,256,45961,2,2,B|192:256,1,100
240,320,46289,2,2,B|240:176,1,100,2|0
256,192,46617,12,14,47600
